osu file format v14

[General]
AudioFilename: TJ PA5CON - Let's Go.mp3
AudioLeadIn: 0
PreviewTime: 13273
Countdown: 0
SampleSet: Soft
StackLeniency: 0.3
Mode: 0
LetterboxInBreaks: 0
WidescreenStoryboard: 0

[Editor]
DistanceSpacing: 0.5
BeatDivisor: 12
GridSize: 32
TimelineZoom: 4.649999

[Metadata]
Title:Let's Go
TitleUnicode:Let's Go
Artist:TJ PA5CON
ArtistUnicode:TJ PA5CON
Creator:DeRandom Otaku
Version:Extra
Source:
Tags:Dubstep astral records pascon akitoshi corinn deppyforce
BeatmapID:1462739
BeatmapSetID:690803

[Difficulty]
HPDrainRate:5.5
CircleSize:4
OverallDifficulty:7.8
ApproachRate:9.1
SliderMultiplier:3
SliderTickRate:1

[Events]
//Background and Video events
0,0,"BG.jpg",0,0
//Break Periods
//Storyboard Layer 0 (Background)
//Storyboard Layer 1 (Fail)
//Storyboard Layer 2 (Pass)
//Storyboard Layer 3 (Foreground)
//Storyboard Sound Samples

[TimingPoints]
32,827.586206896552,4,2,0,60,1,0
12652,-71.4285714285714,4,2,0,60,0,0
13273,-90.9090909090909,4,2,0,60,0,0
24859,-125,4,2,0,60,0,0
26514,-100,4,2,0,60,0,0
33135,-80,4,2,0,60,0,0
36445,-57.1428571428571,4,2,0,60,0,0
39549,-71.4285714285714,4,2,0,60,0,0
39756,-58.8235294117647,4,2,0,75,0,1
43480,-52.6315789473684,4,2,0,75,0,1
43894,-58.8235294117647,4,2,0,75,0,1
49687,-71.4285714285714,4,2,0,75,0,0
50514,-71.4285714285714,4,2,0,75,0,0
52997,-58.8235294117647,4,2,0,75,0,1
56721,-52.6315789473684,4,2,0,75,0,1
57135,-58.8235294117647,4,2,0,75,0,1
62928,-71.4285714285714,4,2,0,75,0,0

[Colours]
Combo1 : 137,69,69
Combo2 : 0,255,255
Combo3 : 0,128,192
Combo4 : 255,128,0

[HitObjects]
129,302,12652,5,0,1:0:0:0:
172,300,12756,1,0,1:0:0:0:
215,299,12859,1,8,0:2:0:0:
258,297,12963,1,8,0:0:0:0:
302,296,13066,2,0,L|368:294,1,52.4999983978272,2|2,0:0|0:0,0:0:0:0:
410,156,13273,6,0,P|354:214|354:295,1,165.000005035401,4|0,1:0|0:0,0:0:0:0:
451,254,13894,1,0,0:0:0:0:
328,123,14100,2,0,L|223:126,1,82.5000025177003,8|0,0:0|0:0,0:0:0:0:
85,126,14514,1,0,0:0:0:0:
165,54,14721,1,0,0:0:0:0:
165,197,14928,6,0,L|157:364,1,165.000005035401,0|0,1:0|0:0,0:0:0:0:
85,126,15652,1,0,1:0:0:0:
85,126,15756,2,0,P|85:78|58:31,1,82.5000025177003,8|0,0:0|0:0,0:0:0:0:
103,246,16169,1,0,0:0:0:0:
158,174,16376,1,0,0:0:0:0:
268,251,16583,6,0,L|104:247,1,165.000005035401,0|0,1:0|0:0,0:0:0:0:
85,126,17204,1,0,0:0:0:0:
331,205,17411,2,0,P|344:243|339:284,1,82.5000025177003,8|0,0:0|0:0,0:0:0:0:
191,371,17825,2,0,L|201:289,1,82.5000025177003,0|0,0:0|0:0,0:0:0:0:
269,110,18238,6,0,P|307:162|407:161,1,165.000005035401,0|0,1:0|0:0,0:0:0:0:
161,32,18963,1,0,1:0:0:0:
161,32,19066,2,0,B|174:73|174:73|161:119,1,82.5000025177003,8|0,0:0|0:0,0:0:0:0:
93,201,19480,1,0,1:0:0:0:
90,77,19687,1,0,0:0:0:0:
170,235,19894,6,0,P|118:281|31:259,1,165.000005035401,0|0,1:0|0:0,0:0:0:0:
93,201,20514,1,0,0:0:0:0:
243,279,20721,2,0,B|256:243|256:243|249:194,1,82.5000025177003,8|0,0:0|0:0,0:0:0:0:
160,153,21135,2,0,L|170:235,1,82.5000025177003,0|0,0:0|0:0,0:0:0:0:
268,363,21549,6,0,L|250:198,1,165.000005035401,0|0,1:0|0:0,0:0:0:0:
419,63,22273,1,0,1:0:0:0:
419,63,22376,2,0,P|391:94|352:109,1,82.5000025177003,8|0,0:0|0:0,0:0:0:0:
246,76,22790,1,0,0:0:0:0:
343,25,22997,1,0,0:0:0:0:
194,143,23204,6,0,P|164:100|206:2,1,165.000005035401,0|0,1:0|0:0,0:0:0:0:
246,76,23825,1,0,0:0:0:0:
81,180,24032,2,0,L|86:77,1,82.5000025177003,8|0,0:0|0:0,0:0:0:0:
146,235,24445,2,0,P|113:259|60:262,1,82.5000025177003,0|0,0:0|0:0,0:0:0:0:
194,143,24859,6,0,B|271:152|271:152|296:141|296:141|375:154,1,180,0|0,1:0|0:0,0:0:0:0:
250,64,25687,1,8,0:0:0:0:
314,232,25894,1,0,1:0:0:0:
235,54,26100,1,8,0:0:0:0:
326,244,26307,1,0,1:0:0:0:
425,88,26514,6,0,P|455:141|438:208,1,112.5,4|0,1:0|0:0,0:0:0:0:
448,190,26928,1,0,1:0:0:0:
370,153,27135,1,0,0:0:0:0:
314,232,27342,1,0,1:0:0:0:
314,232,27445,2,0,P|256:232|197:204,1,112.5,0|0,0:0|1:0,0:0:0:0:
111,102,27963,1,0,0:0:0:0:
111,102,28066,1,0,0:0:0:0:
111,102,28169,6,0,B|124:141|124:141|120:220,1,112.5,0|0,1:0|0:0,0:0:0:0:
120,212,28583,1,0,1:0:0:0:
274,144,28790,1,0,0:0:0:0:
188,274,28997,1,0,1:0:0:0:
188,274,29100,2,0,P|141:299|75:286,1,112.5,0|0,0:0|1:0,0:0:0:0:
111,102,29618,1,0,0:0:0:0:
111,102,29721,1,0,0:0:0:0:
111,102,29825,6,0,P|165:89|236:89,1,112.5,0|0,1:0|0:0,0:0:0:0:
221,87,30238,1,0,1:0:0:0:
182,196,30445,1,0,0:0:0:0:
296,274,30652,1,0,1:0:0:0:
296,274,30756,2,0,B|290:235|290:235|300:160,1,112.5,0|0,0:0|1:0,0:0:0:0:
378,307,31273,1,0,0:0:0:0:
378,307,31376,1,0,0:0:0:0:
378,307,31480,6,0,P|351:341|278:357,1,112.5,0|0,1:0|0:0,0:0:0:0:
286,358,31894,1,0,1:0:0:0:
160,311,32100,1,0,0:0:0:0:
296,274,32307,1,0,1:0:0:0:
296,274,32411,1,0,0:0:0:0:
296,274,32514,1,0,0:0:0:0:
209,372,32721,1,0,1:0:0:0:
212,238,32928,1,0,0:0:0:0:
212,238,33032,1,0,0:0:0:0:
212,238,33135,6,0,P|214:211|210:172,7,46.875,0|0|0|0|0|0|0|0,1:0|0:0|1:0|0:0|1:0|0:0|1:0|0:0,0:0:0:0:
118,148,33963,2,0,P|117:124|119:101,7,46.875,0|0|0|0|0|0|0|0,1:0|0:0|1:0|0:0|1:0|0:0|1:0|0:0,0:0:0:0:
168,12,34790,5,0,1:0:0:0:
189,39,34894,1,0,0:0:0:0:
219,58,34997,1,0,1:0:0:0:
253,65,35100,1,0,0:0:0:0:
287,59,35204,1,0,1:0:0:0:
321,53,35307,1,0,0:0:0:0:
355,60,35411,1,0,1:0:0:0:
385,79,35514,1,0,0:0:0:0:
406,107,35617,5,0,1:0:0:0:
384,134,35721,1,0,0:0:0:0:
354,153,35824,1,0,1:0:0:0:
320,160,35927,1,0,0:0:0:0:
287,154,36031,1,0,1:0:0:0:
252,148,36134,1,0,0:0:0:0:
218,155,36238,1,0,1:0:0:0:
188,174,36341,1,0,0:0:0:0:
167,202,36445,6,0,P|170:223|171:246,14,32.8125003129244,2|2|2|2|2|2|2|2|0|0|0|0|0|0|0,1:2|0:0|0:0|0:0|0:0|0:0|0:0|0:0|0:0|0:0|0:0|0:0|0:0|0:0|0:0,0:0:0:0:
107,282,37273,2,0,P|104:303|103:326,14,32.8125003129244,0|0|0|0|0|0|0|0|0|0|0|0|0|0|0,0:0|0:0|0:0|0:0|0:0|0:0|0:0|0:0|0:0|0:0|0:0|0:0|0:0|0:0|0:0,0:0:0:0:
165,364,38100,1,2,0:0:0:0:
165,364,39135,5,0,1:0:0:0:
208,362,39239,1,0,1:0:0:0:
251,361,39342,1,8,0:0:0:0:
294,359,39446,1,8,0:0:0:0:
338,358,39549,2,0,L|404:356,1,52.4999983978272,2|2,0:0|0:0,0:0:0:0:
254,280,39756,6,0,P|254:210|323:137,1,170.000003242493,4|0,1:0|0:0,0:0:0:0:
447,254,40169,2,0,L|362:242,1,85.0000016212464,0|0,0:0|0:0,0:0:0:0:
318,139,40445,1,0,0:0:0:0:
307,353,40583,6,0,P|235:368|165:298,1,170.000003242493,8|0,0:0|0:0,0:0:0:0:
167,307,40928,1,0,0:0:0:0:
167,307,40997,1,0,0:0:0:0:
270,199,41135,2,0,P|271:241|254:280,1,85.0000016212464,0|0,0:0|0:0,0:0:0:0:
203,135,41411,5,0,1:0:0:0:
340,139,41549,1,0,0:0:0:0:
371,141,41618,1,0,0:0:0:0:
403,144,41687,1,0,0:0:0:0:
435,147,41756,1,0,0:0:0:0:
466,150,41825,2,0,B|457:108|457:108|471:61,2,85.0000016212464,0|0|0,0:0|0:0|0:0,0:0:0:0:
387,324,42238,6,0,L|394:229,1,85.0000016212464,8|0,0:0|0:0,0:0:0:0:
340,139,42514,1,0,0:0:0:0:
208,286,42652,2,0,L|303:293,1,85.0000016212464,0|0,0:0|0:0,0:0:0:0:
393,239,42928,1,0,0:0:0:0:
194,208,43066,6,0,P|136:255|156:347,1,170.000003242493,0|0,1:0|0:0,0:0:0:0:
318,204,43480,1,0,0:0:0:0:
208,286,43618,1,0,0:0:0:0:
387,324,43756,1,0,0:0:0:0:
255,162,43894,6,0,P|285:134|332:130,1,85.0000016212464,8|0,0:0|0:0,0:0:0:0:
477,242,44169,1,0,0:0:0:0:
477,242,44238,1,0,0:0:0:0:
477,242,44307,2,0,L|384:238,1,85.0000016212464
318,204,44583,1,0,0:0:0:0:
387,324,44721,5,0,1:0:0:0:
433,157,44859,1,0,0:0:0:0:
432,125,44928,1,0,0:0:0:0:
431,93,44997,1,0,0:0:0:0:
430,61,45066,1,0,0:0:0:0:
430,29,45135,2,0,P|468:19|514:32,1,85.0000016212464,0|0,0:0|0:0,0:0:0:0:
333,78,45411,1,0,0:0:0:0:
414,237,45549,6,0,P|433:199|433:157,2,85.0000016212464,8|0|0,0:0|0:0|0:0,0:0:0:0:
325,332,45963,2,0,P|357:334|386:323,2,63.7500012159348,0|0|0,3:0|3:0|3:0,0:0:0:0:
90,249,46376,6,0,P|162:222|256:254,1,170.000003242493,4|0,1:0|0:0,0:0:0:0:
248,247,46721,1,0,0:0:0:0:
248,247,46790,1,0,0:0:0:0:
65,336,46928,2,0,P|28:315|4:276,1,85.0000016212464,0|0,0:0|0:0,0:0:0:0:
107,111,47204,5,8,0:0:0:0:
90,249,47342,1,0,0:0:0:0:
12,170,47480,1,0,0:0:0:0:
185,190,47618,2,0,L|281:181,1,85.0000016212464,0|0,0:0|0:0,0:0:0:0:
107,111,47894,1,0,0:0:0:0:
90,249,48032,5,0,1:0:0:0:
179,79,48169,1,0,0:0:0:0:
160,53,48238,1,0,0:0:0:0:
133,36,48307,1,0,0:0:0:0:
102,32,48376,1,0,0:0:0:0:
71,41,48445,1,0,0:0:0:0:
185,190,48583,2,0,L|269:182,1,85.0000016212464,0|0,0:0|0:0,0:0:0:0:
368,296,48859,6,0,L|366:386,2,85.0000016212464,8|0|0,0:0|0:0|0:0,0:0:0:0:
493,235,49273,2,0,L|491:150,2,85.0000016212464,0|0|0,0:0|0:0|0:0,0:0:0:0:
293,269,49687,6,0,P|328:228|417:234,1,139.999995727539,0|0,1:0|0:0,0:0:0:0:
409,228,50032,1,0,0:0:0:0:
409,228,50100,1,0,0:0:0:0:
366,381,50238,1,0,0:0:0:0:
368,296,50376,1,0,0:0:0:0:
506,344,50514,6,0,L|436:340,2,69.9999978637696,8|0|0,0:0|0:0|0:0,0:0:0:0:
368,296,50928,2,0,L|298:300,2,69.9999978637696,0|0|0,0:0|0:0|0:0,0:0:0:0:
230,344,51342,6,0,P|257:288|226:211,1,139.999995727539,2|0,1:2|0:0,0:0:0:0:
167,279,51687,1,0,0:0:0:0:
167,279,51756,2,0,L|95:281,1,69.9999978637696
40,210,51963,1,0,3:0:0:0:
40,210,52066,1,0,3:0:0:0:
40,210,52169,6,0,B|36:184|36:184|40:149,2,52.4999983978272,8|8|0,0:0|0:0|1:0,0:0:0:0:
167,279,52583,2,0,B|171:305|171:305|167:340,2,52.4999983978272,8|8|0,0:0|0:0|1:0,0:0:0:0:
157,232,52894,1,2,0:0:0:0:
157,232,52997,6,0,P|244:232|286:144,1,170.000003242493,4|0,1:0|0:0,0:0:0:0:
426,287,53411,2,0,P|385:279|342:285,1,85.0000016212464,0|0,0:0|0:0,0:0:0:0:
256,347,53687,1,0,0:0:0:0:
197,154,53825,6,0,P|244:87|326:90,1,170.000003242493,8|0,0:0|0:0,0:0:0:0:
326,90,54169,1,0,0:0:0:0:
326,90,54238,1,0,0:0:0:0:
421,202,54376,1,0,0:0:0:0:
286,168,54514,1,0,0:0:0:0:
461,124,54652,5,0,1:0:0:0:
340,276,54790,1,0,0:0:0:0:
316,256,54859,1,0,0:0:0:0:
298,229,54928,1,0,0:0:0:0:
287,199,54997,1,0,0:0:0:0:
286,168,55066,1,0,0:0:0:0:
458,41,55204,2,0,P|468:82|461:124,1,85.0000016212464,0|0,0:0|0:0,0:0:0:0:
294,80,55480,6,0,L|379:85,1,85.0000016212464,8|0,0:0|0:0,0:0:0:0:
493,192,55756,1,0,0:0:0:0:
294,303,55894,2,0,L|379:299,1,85.0000016212464,0|0,0:0|0:0,0:0:0:0:
493,192,56170,1,0,0:0:0:0:
294,192,56307,6,0,B|218:192|218:192|200:197|200:197|105:197,1,170.000003242493,0|0,1:0|0:0,0:0:0:0:
235,275,56721,1,0,0:0:0:0:
186,118,56859,1,0,0:0:0:0:
141,294,56997,1,0,0:0:0:0:
294,192,57135,6,0,P|337:185|380:194,1,85.0000016212464,8|0,0:0|0:0,0:0:0:0:
237,357,57411,1,0,0:0:0:0:
237,357,57480,1,0,0:0:0:0:
237,357,57549,2,0,P|226:313|238:271,2,85.0000016212464,0|0|0,0:0|0:0|0:0,0:0:0:0:
433,324,57963,5,0,1:0:0:0:
305,316,58101,1,0,0:0:0:0:
336,317,58169,1,0,0:0:0:0:
368,319,58238,1,0,0:0:0:0:
400,321,58307,1,0,0:0:0:0:
432,323,58376,1,0,0:0:0:0:
237,357,58514,1,0,0:0:0:0:
309,237,58652,1,0,0:0:0:0:
153,277,58790,6,0,B|196:286|196:286|244:273,2,85.0000016212464,8|0|0,0:0|0:0|0:0,0:0:0:0:
32,265,59204,2,0,B|24:298|24:298|35:350,2,63.7500012159348,0|0|0,3:0|3:0|3:0,0:0:0:0:
150,111,59618,6,0,B|169:166|169:166|153:277,1,170.000003242493,4|0,1:0|0:0,0:0:0:0:
153,277,59963,1,0,0:0:0:0:
153,277,60032,1,0,0:0:0:0:
77,178,60169,1,0,0:0:0:0:
245,222,60307,1,0,0:0:0:0:
150,111,60445,6,0,P|150:65|173:25,2,85.0000016212464,8|0|0,0:0|0:0|0:0,0:0:0:0:
266,250,60859,1,0,0:0:0:0:
226,85,60997,1,0,0:0:0:0:
153,277,61135,1,0,0:0:0:0:
300,153,61273,5,0,1:0:0:0:
352,341,61411,1,0,0:0:0:0:
383,339,61480,1,0,0:0:0:0:
415,338,61549,1,0,0:0:0:0:
447,336,61618,1,0,0:0:0:0:
479,335,61687,1,0,0:0:0:0:
416,163,61825,2,0,P|401:201|415:254,1,85.0000016212464,0|0,0:0|0:0,0:0:0:0:
474,77,62100,6,0,P|433:59|386:61,2,85.0000016212464,8|0|0,0:0|0:0|0:0,0:0:0:0:
323,130,62514,2,0,P|280:129|242:112,2,85.0000016212464,0|0|0,0:0|0:0|0:0,0:0:0:0:
162,31,62928,6,0,L|166:194,1,139.999995727539,0|0,1:0|0:0,0:0:0:0:
165,170,63273,1,0,0:0:0:0:
165,170,63342,1,0,0:0:0:0:
242,112,63480,1,0,0:0:0:0:
300,42,63618,1,0,0:0:0:0:
323,130,63756,6,0,P|331:165|316:217,2,69.9999978637696,8|0|0,0:0|0:0|0:0,0:0:0:0:
288,280,64169,2,0,P|323:288|375:273,2,69.9999978637696,0|0|0,0:0|0:0|0:0,0:0:0:0:
254,169,64583,6,0,L|420:179,1,139.999995727539,2|0,1:2|0:0,0:0:0:0:
465,231,64928,1,0,0:0:0:0:
465,231,64997,2,0,P|480:202|480:156,1,69.9999978637696
417,97,65204,1,0,3:0:0:0:
417,97,65307,1,0,3:0:0:0:
417,97,65411,6,0,B|417:69|417:69|428:43,2,52.4999983978272,8|8|0,0:0|0:0|1:0,0:0:0:0:
326,199,65825,2,0,B|326:227|326:227|315:253,2,52.4999983978272,8|8|0,0:0|0:0|1:0,0:0:0:0:
251,208,66135,1,2,0:0:0:0:
251,208,66238,5,4,1:0:0:0:
