osu file format v9

[General]
AudioFilename: THYME - Forever we can make it!.mp3
AudioLeadIn: 2000
PreviewTime: 48618
Countdown: 0
SampleSet: Soft
StackLeniency: 0.7
Mode: 0
LetterboxInBreaks: 1

[Editor]
DistanceSpacing: 0.8
BeatDivisor: 2
GridSize: 4

[Metadata]
Title:forever we can make it! (TV Size)
Artist:THYME
Creator:Ignacio
Version:Forever xier can make it!
Source:To Love-Ru
Tags:osuplayer111 Vicho-kun xierbaliti Weezy Verdisphena

[Difficulty]
HPDrainRate:4
CircleSize:4
OverallDifficulty:4
ApproachRate:6
SliderMultiplier:1.2
SliderTickRate:1

[Events]
//Background and Video events
0,0,"BG.jpg"
//Break Periods
//Storyboard Layer 0 (Background)
//Storyboard Layer 1 (Fail)
//Storyboard Layer 2 (Pass)
//Storyboard Layer 3 (Foreground)
//Storyboard Sound Samples
//Background Colour Transformations
3,100,0,0,0

[TimingPoints]
7290,324.324324324324,4,2,2,60,1,0
48803,-100,4,2,2,60,0,1
84154,-100,4,2,2,60,0,0

[Colours]
Combo1 : 160,66,255
Combo2 : 255,136,255
Combo3 : 255,255,128
Combo4 : 255,140,85

[HitObjects]
256,80,2100,1,4
256,304,2749,1,0
416,192,3398,2,0,B|352:232|352:232|304:200|240:232,1,180
252,226,4046,2,0,B|192:192|128:224,1,120,0|8
160,128,4695,6,0,B|112:88|48:96,2,120,0|8|0
216,208,5668,1,8
296,160,5992,2,0,B|344:204|416:176,1,120,4|8
476,112,6641,5,8
412,240,6965,1,8
276,284,7289,6,0,B|240:232|152:240,1,120,4|8
170,238,7776,1,0
136,148,8100,1,0
136,148,8262,1,8
68,216,8587,2,0,B|128:228|196:168,1,120,0|8
179,181,9073,1,0
224,268,9398,1,0
224,268,9560,1,8
304,216,9884,6,0,B|352:184|428:188,1,120,0|8
500,240,10533,2,0,B|452:192|464:120,1,120,0|8
500,100,11019,2,0,B|424:144|316:116,1,180,0|8
284,92,11668,1,0
284,188,11992,1,0
236,200,12154,1,8
152,152,12479,6,0,B|176:276,1,120,4|8
185,316,12965,1,0
100,272,13289,1,0
100,272,13452,2,0,B|172:272|236:240,1,120,8|0
216,248,14100,5,8
216,248,14262,2,0,B|232:176|308:152,1,120
289,159,14749,1,8
380,132,15073,1,0
476,144,15398,1,8
432,56,15722,5,0
432,56,15884,2,0,B|428:188,1,120,8|0
428,175,16371,2,0,B|364:208|364:272,1,120,8|0
364,269,16857,1,8
284,220,17181,1,0
284,220,17344,1,8
228,300,17668,6,0,B|132:200,1,120
144,213,18154,1,0
92,132,18479,2,0,B|28:120,2,60,0|8|0
92,132,18965,1,0
188,152,19289,1,8
188,152,19452,2,0,B|208:84|284:68,1,120,8|0
316,64,19938,1,8
396,116,20262,6,0,B|452:92|516:104,2,120,0|8|0
412,212,21235,1,8
412,212,21398,2,0,B|352:256|276:232,1,120,8|0
252,236,21884,2,0,B|232:312,2,60,8|0|0
264,140,22533,1,8
264,140,22695,1,0
264,140,22857,6,0,B|200:116|192:52,1,120,4|8
104,92,23506,2,0,B|44:100,2,60,0|0|8
132,184,24154,2,0,B|124:248|144:308,1,120,0|8
142,302,24641,1,0
232,336,24965,1,0
232,336,25127,1,8
324,304,25452,2,0,B|344:244|420:228,1,120,0|8
420,136,26100,2,0,B|480:152,2,60,0|0|4
352,68,26749,6,0,B|280:88,1,60,0|8
268,44,27073,6,0,B|256:128,1,60,0|8
300,128,27398,6,0,B|220:140,1,60,4|8
208,104,27722,6,0,B|208:168,1,60,4|8
232,204,28046,6,0,B|160:176,1,60,4|4
176,182,28371,2,0,B|156:112|88:108,1,120,4|8
56,196,29019,1,0
124,264,29344,5,4
124,264,29506,1,4
124,264,29668,2,0,B|168:292|244:280,1,120,4|0
324,232,30317,1,0
396,296,30641,6,0,B|456:284,1,60,4|0
454,284,30965,2,0,B|448:212|500:176,1,120,4|8
472,84,31614,1,0
376,100,31938,6,0,B|304:84,1,60,4|0
276,108,32262,2,0,B|216:112,1,60,4|0
168,100,32587,1,8
144,228,32911,1,8
272,196,33235,6,4,B|332:216,2,60
140,176,33884,2,0,B|64:168,2,60,8|0|0
232,272,34533,6,4,B|244:332,2,60
252,140,35181,2,0,B|268:60,2,60,8|0|0
168,240,35830,6,0,B|120:288,3,60,4|4|4|0
168,240,36479,2,0,B|240:268|288:240|288:240|368:256,1,180,8|0
388,264,37127,2,0,B|344:112|480:44,1,240,4|4
120,96,38425,5,8
120,96,38749,1,8
392,288,39722,5,8
392,288,40046,2,0,B|420:256|348:240|448:200|352:164|432:136|384:100|404:60|380:40,1,240,8|0
292,60,41019,6,0,B|232:32|168:64,2,120,4|0|8
232,136,41992,1,0
176,212,42317,2,0,B|236:240|300:208,1,120,4|0
292,211,42803,2,0,B|340:176|408:176,1,120,8|0
404,176,43289,1,8
500,184,43614,5,4
336,284,44262,1,8
264,108,44911,2,0,B|212:60|140:64|68:96|28:140|40:216,1,300
156,280,46208,5,0
252,112,46857,1,8
400,232,47506,1,0
256,192,47830,12,4,48803
184,104,49452,6,0,B|104:120,2,60,0|0|8
268,192,50100,2,0,B|316:84,1,120,0|8
420,148,50749,2,0,B|496:168,2,60,0|0|8
336,236,51398,5,0
272,136,51722,1,8
180,212,52046,1,0
248,312,52371,1,8
364,284,52695,6,0,B|328:188|400:96,1,180,0|8
388,112,53506,2,0,B|305:128,1,60,0|8
268,120,53830,6,0,B|280:48,1,60,0|4
256,180,54317,1,8
236,300,54641,2,0,B|248:220,2,60,0|0|8
144,224,55289,1,0
136,344,55614,1,8
40,276,55938,2,0,B|0:332,2,60,0|0|8
44,156,56587,5,0
124,64,56911,1,8
240,36,57235,1,0
360,48,57560,2,0,B|436:72,1,60,8|0
424,184,58046,2,0,B|352:192,1,60,0|8
364,312,58533,2,0,B|424:340,3,60
364,312,59181,6,0,B|320:264|236:272,1,120,8|8
136,292,59830,1,0
136,292,59992,1,0
136,292,60154,2,0,B|128:156,1,120,8|0
120,52,60803,1,8
120,52,60965,1,0
120,52,61127,2,0,B|40:80,2,60,0|0|8
216,124,61776,5,0
300,208,62100,1,8
380,120,62425,1,0
296,36,62749,1,8
216,124,63073,6,0,B|244:216|212:312,1,180,0|8
215,301,63884,2,0,B|280:312,1,60,0|8
336,308,64208,6,0,B|328:228,1,60
316,128,64695,1,0
316,128,64857,1,0
316,128,65019,2,0,B|384:144|456:124,2,120
196,148,65992,1,0
196,148,66154,1,0
196,148,66317,2,0,B|128:128|56:148,2,120
296,212,67289,1,0
196,280,67614,1,0
304,332,67938,1,0
256,192,68262,12,4,69560
336,260,69884,5,0
336,260,70046,2,0,B|416:284,1,60,0|8
436,164,70533,2,0,B|508:140,2,60,8|0|0
328,108,71181,1,8
328,108,71344,1,0
328,108,71506,2,0,B|276:148|204:144,1,120,0|8
160,124,71992,1,0
156,64,72154,5,0
164,184,72479,1,8
276,228,72803,1,0
356,136,73127,1,8
284,40,73452,2,0,B|216:12,2,60,0|0|8
224,144,74100,2,0,B|212:232|128:244,1,120,0|8
157,236,74587,6,0,B|256:288,1,60
324,308,75073,1,0
212,348,75398,2,0,B|152:376,2,60,0|0|8
324,308,76046,6,0,B|300:248|328:136,1,120,0|8
317,189,76533,2,0,B|248:204,1,60
140,224,77019,1,8
144,104,77344,6,0,B|76:120,2,60,0|0|8
252,52,77992,2,0,B|320:80,1,60
307,74,78317,1,8
307,74,78479,2,0,B|284:132|296:196|296:196|356:172,1,180,4|8
464,140,79289,2,0,B|452:208|488:284,2,120,0|8|4
484,20,80262,5,8
484,20,80425,1,0
372,64,80749,1,0
372,64,80911,1,8
252,52,81235,5,0
144,104,81560,1,8
240,176,81884,2,0,B|312:168,2,60,0|0|8
132,228,82533,6,0,B|136:296,1,60
135,287,82857,1,8
248,324,83181,1,0
248,324,83344,2,0,B|320:292,1,60,0|8
404,236,83830,6,0,B|340:204|336:112,1,120,0|8
338,140,84317,2,0,B|272:176|188:152,1,120
222,159,84803,1,8
132,80,85127,6,0,B|56:72,2,60,0|0|8
128,200,85776,2,0,B|64:208,2,60,0|0|8
208,292,86425,2,0,B|156:380,2,60,0|0|8
328,292,87073,2,0,B|376:368,3,60
328,292,87722,2,0,B|328:212|420:184,1,120,4|0
388,196,88208,1,0
388,196,88371,1,0
388,196,88695,1,0
256,192,89019,12,0,90154
