osu file format v9

[General]
AudioFilename: THYME - Forever we can make it!.mp3
AudioLeadIn: 2000
PreviewTime: 48618
Countdown: 0
SampleSet: Soft
StackLeniency: 0.7
Mode: 0
LetterboxInBreaks: 1

[Editor]
DistanceSpacing: 0.8
BeatDivisor: 2
GridSize: 4

[Metadata]
Title:forever we can make it! (TV Size)
Artist:THYME
Creator:Ignacio
Version:Forever Weezy can make it!
Source:To Love-Ru
Tags:osuplayer111 Vicho-kun xierbaliti Weezy Verdisphena

[Difficulty]
HPDrainRate:2
CircleSize:3
OverallDifficulty:2
ApproachRate:3
SliderMultiplier:0.8
SliderTickRate:1

[Events]
//Background and Video events
0,0,"BG.jpg"
//Break Periods
//Storyboard Layer 0 (Background)
//Storyboard Layer 1 (Fail)
//Storyboard Layer 2 (Pass)
//Storyboard Layer 3 (Foreground)
//Storyboard Sound Samples
//Background Colour Transformations
3,100,0,0,0

[TimingPoints]
7290,324.324324324324,4,2,2,60,1,0
7614,-100,4,2,1,60,0,0
7938,-100,4,2,2,60,0,0
8911,-100,4,2,1,60,0,0
9235,-100,4,2,2,60,0,0
11506,-100,4,2,1,60,0,0
11830,-100,4,2,2,60,0,0
12803,-100,4,2,1,60,0,0
13127,-100,4,2,2,60,0,0
14100,-100,4,2,1,60,0,0
14425,-100,4,2,2,60,0,0
16695,-100,4,2,1,60,0,0
17019,-100,4,2,2,60,0,0
17992,-100,4,2,1,60,0,0
18317,-100,4,2,2,60,0,0
19289,-100,4,2,1,60,0,0
19614,-100,4,2,2,60,0,0
28046,-100,4,2,1,60,0,0
28371,-100,4,2,2,60,0,0
30965,-100,4,2,1,60,0,0
31289,-100,4,2,2,60,0,0
31614,-100,4,2,1,60,0,0
31938,-100,4,2,2,60,0,0
32262,-100,4,2,1,60,0,0
32587,-100,4,2,2,60,0,0
33235,-100,4,2,1,60,0,0
33560,-100,4,2,2,60,0,0
34857,-100,4,2,1,60,0,0
35181,-100,4,2,2,60,0,0
36154,-100,4,2,1,60,0,0
36479,-100,4,2,2,60,0,0
40046,-100,4,2,1,60,0,0
40371,-100,4,2,2,60,0,0
43938,-100,4,2,1,60,0,0
44262,-100,4,2,2,60,0,0
46533,-100,4,2,1,60,0,0
46857,-100,4,2,2,60,0,0
48803,-100,4,2,2,60,0,1
54317,-100,4,2,1,60,0,1
54641,-100,4,2,2,60,0,1
55614,-100,4,2,1,60,0,1
55938,-100,4,2,2,60,0,1
59506,-100,4,2,1,60,0,1
59830,-100,4,2,2,60,0,1
60803,-100,4,2,1,60,0,1
61127,-100,4,2,2,60,0,1
68262,-100,4,2,1,60,0,1
68911,-100,4,2,2,60,0,1
69884,-100,4,2,1,60,0,1
70208,-100,4,2,2,60,0,1
70533,-100,4,2,1,60,0,1
70857,-100,4,2,2,60,0,1
75073,-100,4,2,1,60,0,1
75398,-100,4,2,2,60,0,1
76371,-100,4,2,1,60,0,1
76695,-100,4,2,2,60,0,1
80262,-100,4,2,1,60,0,1
80587,-100,4,2,2,60,0,1
84154,-100,4,2,2,60,0,0
86749,-100,4,2,1,60,0,0
87073,-100,4,2,2,60,0,0
87398,-100,4,2,1,60,0,0
87722,-100,4,2,2,60,0,0
89019,-100,4,2,1,60,0,0
89344,-100,4,2,2,60,0,0

[Colours]
Combo1 : 160,66,255
Combo2 : 255,136,255
Combo3 : 255,255,128
Combo4 : 255,140,85

[HitObjects]
256,216,7289,6,0,B|256:284|144:284|144:212,1,160,4|0
256,160,8587,2,0,B|256:92|368:92|368:164,1,160,0|0
384,280,9884,1,0
256,296,10533,1,0
128,280,11181,2,0,B|84:252|76:208|84:160|140:128,1,160,0|0
256,168,12479,6,0,B|256:100|368:100|368:172,1,160,4|0
256,224,13776,2,0,B|256:292|144:292|144:220,1,160,0|0
128,104,15073,1,0
256,84,15722,1,0
384,104,16371,2,0,B|428:132|440:172|428:216|372:244,1,160
256,200,17668,6,0,B|204:168|148:184|128:232|144:288,1,160,4|0
256,200,18965,2,0,B|308:168|364:184|384:232|368:288,1,160
372,380,20262,1,0
256,328,20911,1,0
140,380,21560,1,0
140,316,21884,6,0,B|140:232,1,80
140,140,22695,2,0,B|156:72|244:88,1,120
348,140,23830,5,0
432,236,24479,1,8
348,332,25127,1,0
264,236,25776,1,8
180,140,26425,1,0
124,112,26749,2,0,B|72:180|72:180,2,80,8|0|0
184,76,27722,6,0,B|272:28|348:88,1,160,4|4
336,208,29019,1,0
336,208,29344,2,0,B|248:256|172:196,1,160,4|0
184,140,30317,1,0
184,140,30641,2,0,B|88:152|84:252,3,160
100,308,32911,6,0,B|188:356|264:296,1,160,4|0
340,212,34208,1,0
356,148,34533,2,0,B|268:100|192:160,1,160,4|0
184,212,35506,1,4
132,252,35830,2,0,B|36:240|32:140,1,160
148,92,37127,2,0,B|244:104|248:204,1,160,4|0
260,324,38425,5,4
260,324,38749,1,0
376,268,39398,1,0
376,268,39722,2,0,B|376:108,1,160
256,64,41019,6,0,B|164:64,1,80
112,76,41668,2,0,B|36:160,1,80
60,200,42317,1,0
60,200,42965,1,0
188,200,43614,6,0,B|352:200,1,160
448,284,44911,2,0,B|376:324,3,80
316,336,46208,2,0,B|144:336,1,160
100,228,47506,2,0,B|244:156,1,160
368,136,48803,6,0,B|432:200,2,80,4|0|0
240,136,50100,2,0,B|176:200,2,80
252,264,51398,1,0
268,328,51722,1,0
332,312,52046,1,0
320,248,52371,1,0
316,184,52695,6,0,B|332:92|256:48,1,160
192,56,53668,1,0
168,116,53992,6,0,B|12:192,1,160,4|0
148,212,55289,2,0,B|-8:288,1,160
128,316,56587,1,0
180,352,56911,1,0
244,352,57235,1,0
300,320,57560,1,0
284,260,57884,6,0,B|352:180,1,80
400,196,58533,1,0
452,156,58857,1,0
416,100,59181,6,0,B|344:40|268:104,1,160,4|0
340,208,60479,2,0,B|256:268|176:204,1,160
72,184,61776,2,0,B|28:104,1,80
60,56,62425,1,0
60,56,62749,1,0
360,168,64046,5,0
360,168,64371,2,0,B|296:228|212:180,1,160
272,68,65668,2,0,B|200:32|112:72,1,160
72,188,66965,1,0
128,224,67289,6,0,B|200:272,1,80
256,292,67938,2,0,B|380:368|492:280,1,240
388,200,69560,6,0,B|308:136|236:212,2,160,4|0|0
320,308,71506,1,0
196,336,72154,2,0,B|116:360,1,80
84,304,72803,2,0,B|28:240,1,80
72,196,73452,6,0,B|184:196,1,80
216,196,74100,2,0,B|312:196,1,80
356,176,74749,6,0,B|356:88|260:60,1,160,4|0
248,188,76046,2,0,B|176:240|88:192,1,160
44,312,77344,2,0,B|124:348,1,80
180,348,77992,1,0
244,344,78317,1,0
276,288,78641,6,0,B|252:236|272:188,1,80
308,164,79289,1,0
320,100,79614,1,0
260,76,79938,6,0,B|192:0|100:56,1,160,4|0
176,156,81235,2,0,B|148:196|168:240,2,80
252,260,82533,1,0
196,292,82857,1,0
132,292,83181,1,0
80,332,83506,1,0
108,76,84803,5,0
172,76,85127,2,0,B|172:156|172:240,1,160
248,344,86425,2,0,B|172:388|92:348,2,160
304,316,88046,1,0
332,192,88695,6,0,B|376:100|284:44,1,160
260,140,89830,2,0,B|224:176|176:152,1,80,0|4
