osu file format v9

[General]
AudioFilename: THYME - Forever we can make it!.mp3
AudioLeadIn: 0
PreviewTime: 48618
Countdown: 0
SampleSet: Normal
StackLeniency: 0.7
Mode: 0
LetterboxInBreaks: 1

[Editor]
DistanceSpacing: 1
BeatDivisor: 4
GridSize: 8

[Metadata]
Title:forever we can make it! (TV Size)
Artist:THYME
Creator:Ignacio
Version:Forever Vicho can make it!
Source:To Love-Ru
Tags:osuplayer111 Vicho-kun xierbaliti Weezy Verdisphena

[Difficulty]
HPDrainRate:6
CircleSize:4
OverallDifficulty:7
ApproachRate:8
SliderMultiplier:1.8
SliderTickRate:1

[Events]
//Background and Video events
0,0,"BG.jpg"
//Break Periods
//Storyboard Layer 0 (Background)
//Storyboard Layer 1 (Fail)
//Storyboard Layer 2 (Pass)
//Storyboard Layer 3 (Foreground)
//Storyboard Sound Samples
//Background Colour Transformations
3,100,0,0,0

[TimingPoints]
7290,324.324324324324,4,1,2,60,1,0
48803,-100,4,1,2,60,0,1
84154,-100,4,1,2,60,0,0

[Colours]
Combo1 : 160,66,255
Combo2 : 255,136,255
Combo3 : 255,255,128
Combo4 : 255,140,85

[HitObjects]
136,296,6803,1,8
136,296,6965,1,8
136,296,7127,1,8
136,296,7289,6,0,B|232:256|304:328,1,180,4|8
400,304,7776,2,0,B|440:216|376:128,1,180
296,80,8262,2,0,B|272:120|224:128,1,90,8|0
168,40,8587,1,0
80,88,8749,1,0
80,88,8830,1,0
80,88,8911,1,8
144,168,9073,2,0,B|64:232|80:344,1,180
176,312,9560,2,0,B|216:288|264:304,1,90,8|0
352,272,9884,6,0,B|384:240|384:184,1,90
336,104,10208,2,0,B|304:144|248:136,1,90,8|0
264,48,10533,1,0
352,16,10695,1,0
432,64,10857,2,0,B|480:88|480:136,1,90,8|0
464,224,11181,5,0
376,208,11344,1,0
376,208,11425,1,0
376,208,11506,1,8
376,208,11668,2,0,B|344:168|360:112,1,90,0|0
352,40,11992,1,0
272,96,12154,1,8
272,192,12317,2,0,B|285:236|253:276,1,90,0|4
168,320,12641,5,0
88,256,12803,1,8
168,200,12965,2,0,B|152:152|192:104,2,90,0|0|0
216,288,13452,2,0,B|120:264|40:320,1,180,8|0
56,216,13938,1,0
56,216,14100,1,8
56,216,14262,2,0,B|96:120|216:104,1,180
280,152,14749,1,8
320,64,14911,1,0
280,152,15073,6,0,B|312:192|288:248,1,90
176,320,15398,2,0,B|144:280|168:216,1,90,8|0
152,136,15722,1,0
224,72,15884,1,0
280,152,16046,1,8
360,88,16208,2,0,B|432:160|384:272,1,180,0|0
320,320,16695,1,8
248,248,16857,2,0,B|178:178|66:226,1,180,0|0
80,120,17344,1,8
144,40,17506,1,0
224,96,17668,6,0,B|328:56|392:152,1,180,4|8
320,232,18154,1,0
232,264,18317,1,0
288,336,18479,2,0,B|336:352|384:320,1,90,0|8
416,248,18803,2,0,B|448:208|424:144,1,90,0|0
424,72,19127,2,0,B|368:72|336:128,1,90,0|8
346,111,19452,1,0
256,144,19614,6,0,B|200:144|176:96,2,90,0|0|8
312,224,20100,1,0
312,224,20262,1,0
240,296,20425,1,0
240,296,20587,1,8
144,264,20749,2,0,B|104:232|120:168,1,90,0|0
128,88,21073,1,0
128,88,21235,1,8
224,72,21398,2,0,B|304:136|256:240,1,180,0|0
280,328,21884,5,8
376,344,22046,1,0
432,264,22208,1,0
336,248,22371,2,0,B|296:208,2,45,0|0|8
280,328,22695,1,0
192,296,22857,6,0,B|120:232|152:120,1,180,4|8
208,56,23344,1,0
208,56,23506,1,0
296,96,23668,2,0,B|336:128|392:112,1,90,0|8
448,176,23992,1,0
400,256,24154,2,0,B|408:304|384:352,1,90
304,320,24479,5,8
216,336,24641,2,0,B|168:352|112:328,1,90,0|0
72,264,24965,1,0
72,264,25127,2,0,B|16:176|72:80,1,180,8|0
176,32,25614,1,0
176,32,25776,2,0,B|231:114|175:218,1,180,8|0
280,280,26262,1,0
376,208,26425,2,0,B|321:126|377:22,1,180,8|0
248,80,26911,5,0
248,96,27073,1,0
248,112,27235,1,0
248,128,27398,1,0
248,144,27560,5,8
192,224,27722,1,8
224,320,27884,1,8
128,344,28046,6,0,B|56:272|104:160,1,180,6|0
160,104,28533,1,0
256,128,28695,2,0,B|326:198|278:310,1,180,12|0
368,344,29181,5,0
368,344,29344,1,10
464,304,29506,1,8
464,304,29668,1,8
392,232,29830,1,0
392,232,29992,1,12
440,144,30154,6,0,B|424:96|368:80,1,90
280,88,30479,2,0,B|232:112|176:88,1,90,0|10
96,64,30803,1,8
96,64,30884,1,0
96,64,30965,1,10
128,160,31127,2,0,B|144:208|112:272,1,90,0|14
96,344,31452,1,0
184,304,31614,5,2
280,328,31776,1,0
280,328,31938,1,10
320,240,32100,1,8
440,256,32262,1,10
320,240,32425,1,2
440,256,32587,1,12
392,168,32749,5,0
320,104,32911,1,0
224,112,33073,2,0,B|184:128|128:112,1,90,0|10
80,200,33398,1,8
152,264,33560,1,8
88,336,33722,1,0
152,264,33884,2,0,B|184:304|240:304,1,90,12|0
312,360,34208,6,0,B|344:320|328:264,1,90,0|0
376,184,34533,1,10
416,160,34614,1,0
432,112,34695,1,8
336,88,34857,1,0
336,88,35019,2,0,B|303:49|245:55,2,90,0|12|0
272,168,35506,5,0
272,168,35668,1,0
184,208,35830,2,0,B|200:256|256:272,1,90,10|8
312,336,36154,2,0,B|360:312|416:336,1,90,2|0
456,256,36479,2,0,B|480:208|464:168,1,90,2|0
392,104,36803,2,0,B|416:56|472:56,2,90,2|0|2
360,200,37289,1,2
360,200,37452,1,0
360,200,37614,2,0,B|280:144|176:168,1,180,2|0
184,264,38100,6,0,B|160:304|104:304,1,90
56,216,38425,1,12
136,56,38587,1,0
320,72,38749,1,12
448,192,39235,5,0
448,192,39317,1,0
448,192,39398,1,0
408,280,39560,1,0
312,320,39722,2,0,B|264:304|248:248,1,90,10|0
80,224,40046,2,0,B|128:240|144:296,1,90,10|0
140,285,40289,1,0
140,285,40371,1,0
184,176,40533,1,0
184,176,40695,1,0
184,176,40857,1,0
184,176,41019,6,0,B|192:72|304:48,1,180,10|2
448,224,41668,2,0,B|440:328|328:352,1,180,10|2
248,312,42154,2,0,B|216:271|167:268,1,90,0|10
80,232,42479,1,8
80,232,42641,1,10
80,232,42803,2,0,B|16:152|48:48,1,180,2|0
144,40,43289,2,0,B|184:72|240:64,1,90,8|0
296,160,43614,6,0,B|344:72|464:72,2,180,4|0|8
384,224,44425,1,0
384,224,44587,2,0,B|432:240|448:288,1,90
360,336,44911,2,0,B|280:296|176:312,1,180,8|8
56,232,45398,2,0,B|136:192|240:208,1,180,8|4
304,136,45884,2,0,B|264:104|272:48,1,90,8|0
400,80,46208,6,0,B|464:152|440:256,1,180,8|0
296,360,46857,2,0,B|232:288|256:184,1,180,8|0
254,191,47344,1,0
254,191,47506,1,4
392,48,47830,1,0
392,48,47992,1,0
296,72,48154,5,0
272,72,48235,1,0
248,72,48317,1,0
224,72,48398,1,0
200,72,48479,1,0
176,72,48560,1,0
152,72,48641,1,0
128,72,48722,1,0
104,72,48803,5,4
32,144,48965,1,0
112,208,49127,1,8
208,168,49289,1,0
208,168,49371,1,0
208,168,49452,1,0
256,256,49614,2,0,B|352:256,1,90,0|8
432,304,49938,6,0,B|464:264|448:208,1,90,0|0
424,128,50262,1,0
328,88,50425,1,8
232,112,50587,2,0,B|216:64|240:24,2,90
176,192,51073,1,8
232,272,51235,6,0,B|248:320|224:376,2,90,0|0|0
328,248,51722,2,0,B|418:202|435:83,1,180,8|0
360,40,52208,1,0
264,80,52371,1,8
168,64,52533,2,0,B|72:104|56:224,1,180
152,232,53019,1,8
152,232,53181,2,0,B|151:180|209:145,1,90,0|0
248,240,53506,1,0
248,240,53587,1,0
248,240,53668,2,0,B|248:291|195:320,1,90,8|0
304,344,53992,6,0,B|408:360|456:256,1,180,0|8
384,192,54479,1,0
384,192,54560,1,0
384,192,54641,2,0,B|312:120,1,90
144,72,54965,2,0,B|216:144,1,90,8|0
248,240,55289,6,0,B|215:343|103:335,1,180,0|8
80,248,55776,2,0,B|32:224,2,45
152,176,56100,2,0,B|112:144|112:96,1,90,0|8
256,128,56425,1,0
256,128,56506,1,0
256,128,56587,2,0,B|296:160|296:208,1,90
400,264,56911,2,0,B|368:304|320:304,1,90,8|0
256,376,57235,2,0,B|216:344|216:296,1,90
176,208,57560,2,0,B|136:120|24:120,1,180,8|0
30,120,58046,1,0
96,32,58208,1,8
192,80,58371,1,0
288,32,58533,5,0
336,32,58614,1,0
376,56,58695,1,0
400,96,58776,1,0
408,144,58857,1,0
400,184,58938,1,0
368,216,59019,1,0
280,176,59181,5,4
256,272,59344,1,0
256,272,59425,1,0
256,272,59506,1,8
176,328,59668,2,0,B|120:328|88:288,1,90,0|0
80,192,59992,5,0
80,192,60154,2,0,B|112:160|114:110,1,90,8|0
200,64,60479,1,0
272,128,60641,1,0
272,128,60722,1,0
272,128,60803,1,8
256,224,60965,2,0,B|264:272|312:296,1,90
400,336,61289,1,0
400,336,61452,2,0,B|384:224|480:160,1,180,8|0
432,80,61938,5,0
432,80,62019,1,0
432,80,62100,2,0,B|384:80|352:32,1,90,8|0
256,56,62425,1,0
256,56,62587,1,0
256,56,62749,2,0,B|184:136|64:112,1,180,8|0
72,208,63235,2,0,B|48:248|72:296,1,90,0|8
176,344,63560,2,0,B|200:304|176:256,1,90
168,144,63884,5,0
168,144,64046,1,8
168,144,64208,2,0,B|216:56|328:64,1,180
400,120,64695,1,8
400,120,64857,2,0,B|368:152|368:208,1,90
360,304,65181,1,0
360,304,65262,1,0
360,304,65344,2,0,B|328:344|272:336,1,90,8|0
192,336,65668,6,0,B|160:240|64:208,1,180,0|8
88,112,66154,2,0,B|96:64|144:48,1,90,0|0
216,120,66479,1,0
288,192,66641,1,8
264,288,66803,2,0,B|344:344|440:320,1,180
448,224,67289,2,0,B|400:200|392:144,1,90,8|0
368,64,67614,1,0
272,80,67776,1,0
272,80,67857,1,0
272,80,67938,1,8
200,160,68100,1,0
128,79,68262,5,0
102,76,68344,1,0
74,80,68425,1,0
50,96,68506,1,0
32,114,68587,1,0
22,135,68668,1,0
19,160,68749,1,0
23,189,68830,1,0
39,214,68911,1,0
57,231,68992,1,0
78,241,69073,1,0
104,244,69154,1,0
132,239,69235,1,0
200,160,69398,5,0
288,200,69560,1,4
344,280,69722,1,0
344,280,69803,1,0
344,280,69884,2,0,B|400:264|416:208,1,90,8|0
392,128,70208,1,0
320,48,70371,1,0
320,48,70533,1,8
224,88,70695,5,0
224,88,70857,2,0,B|120:48|56:144,1,180,0|8
128,208,71344,1,0
128,208,71425,1,0
128,208,71506,1,0
176,296,71668,2,0,B|224:312|272:280,1,90,0|8
352,224,71992,2,0,B|320:184|344:120,1,90,0|0
256,88,72317,6,0,B|215:49|153:68,1,90,0|8
144,160,72641,1,0
112,256,72803,2,0,B|56:256|32:208,2,90,0|0|8
176,336,73289,5,0
224,248,73452,1,0
296,312,73614,1,0
344,224,73776,1,8
440,272,73938,2,0,B|488:288,2,45
344,224,74262,2,0,B|360:176|320:136,1,90,0|8
200,56,74587,2,0,B|176:104|216:144,1,90
224,248,74911,5,0
224,248,74992,1,0
224,248,75073,1,8
168,328,75235,2,0,B|120:320|96:272,1,90
72,128,75560,1,0
72,128,75641,1,0
72,128,75722,2,0,B|120:136|144:184,1,90,8|0
224,248,76046,2,0,B|328:232|368:136,1,180,0|8
304,72,76533,2,0,B|256:72|224:32,2,90
408,40,77019,1,8
440,136,77181,1,0
336,176,77344,6,0,B|320:224|264:232,1,90
270,230,77587,1,0
270,230,77668,1,8
224,328,77830,2,0,B|256:368|328:376,2,90
128,280,78317,2,0,B|128:176|48:112,1,180,8|0
112,40,78803,1,0
200,96,78965,1,8
200,96,79127,1,0
304,56,79289,5,0
304,56,79371,1,0
304,56,79452,1,0
304,56,79533,1,0
304,56,79614,1,0
304,56,79695,1,0
304,56,79776,1,0
304,56,79857,1,0
304,56,79938,6,0,B|408:72|440:176,1,180,4|8
384,256,80425,1,0
384,256,80506,1,0
384,256,80587,2,0,B|343:224|287:230,1,90
240,312,80911,2,8,B|208:352|143:338,1,90,8|0
120,248,81235,6,0,B|117:151|34:81,1,180,0|8
128,32,81722,1,0
128,32,81803,1,0
128,32,81884,2,0,B|176:32|216:64,1,90
280,144,82208,2,8,B|328:144|368:112,1,90,8|0
440,40,82533,6,0,B|496:112|472:216,1,180,0|8
432,312,83019,1,0
432,312,83100,1,0
432,312,83181,1,0
328,320,83344,1,0
328,320,83506,2,0,B|256:256|144:272,1,180,8|0
72,208,83992,6,0,B|48:160|64:112,1,90,0|8
160,8,84317,2,0,B|184:56|168:104,1,90
256,144,84641,1,0
352,120,84803,1,8
352,120,84965,1,0
352,120,85127,6,0,B|432:176|424:288,1,180,4|8
336,312,85614,1,0
336,312,85695,1,0
336,312,85776,2,0,B|296:288|240:296,1,90
160,336,86100,1,8
160,336,86262,1,0
160,336,86425,2,0,B|80:280|88:168,1,180,0|8
168,48,86911,5,0
168,48,86992,1,0
168,48,87073,2,0,B|200:80|200:136,1,90
208,232,87398,1,8
208,232,87560,2,0,B|312:240|344:336,1,180
424,280,88046,2,0,B|456:240|432:184,1,90,8|0
352,56,88371,2,0,B|320:96|344:152,1,90
288,232,88695,1,8
288,232,88857,1,0
240,320,89019,1,4
125,289,89181,5,0
80,272,89262,1,0
53,242,89344,1,0
37,198,89425,1,0
54,152,89506,1,0
85,118,89587,1,0
127,110,89668,1,0
200,200,89830,5,8
336,320,89992,1,8
360,152,90154,1,8
