osu file format v9

[General]
AudioFilename: THYME - Forever we can make it!.mp3
AudioLeadIn: 0
PreviewTime: 48618
Countdown: 0
SampleSet: Normal
StackLeniency: 0.7
Mode: 1
LetterboxInBreaks: 1

[Editor]
Bookmarks: 48780
DistanceSpacing: 0.9
BeatDivisor: 4
GridSize: 8

[Metadata]
Title:forever we can make it! (TV Size)
Artist:THYME
Creator:Ignacio
Version:Forever Verdis can make it!
Source:To Love-Ru
Tags:osuplayer111 Vicho-kun xierbaliti Weezy Verdisphena

[Difficulty]
HPDrainRate:5
CircleSize:5
OverallDifficulty:5
ApproachRate:5
SliderMultiplier:1.4
SliderTickRate:0.5

[Events]
//Background and Video events
0,0,"BG.jpg"
//Break Periods
//Storyboard Layer 0 (Background)
//Storyboard Layer 1 (Fail)
//Storyboard Layer 2 (Pass)
//Storyboard Layer 3 (Foreground)
//Storyboard Sound Samples
//Background Colour Transformations
3,100,0,0,0

[TimingPoints]
7290,324.324324324324,4,1,0,80,1,0
28046,-133.333333333333,4,1,0,80,0,0
38425,-200,4,1,0,80,0,0
43614,-142.857142857143,4,1,0,80,0,0
46208,-111.111111111111,4,1,0,80,0,0
48803,-100,4,1,0,80,0,1
85127,-100,4,1,0,80,0,0

[Colours]
Combo1 : 160,66,255
Combo2 : 255,136,255
Combo3 : 255,255,128
Combo4 : 255,140,85

[HitObjects]
128,88,1614,5,8
208,200,1776,5,8
344,160,1938,5,8
472,112,2100,5,4
408,240,2262,5,0
376,304,2344,5,0
312,272,2425,5,8
272,136,2587,5,8
408,96,2749,5,0
288,168,2911,5,0
184,72,3073,5,8
96,176,3235,5,8
192,280,3398,5,0
288,176,3560,5,0
336,120,3641,5,0
392,160,3722,5,8
480,272,3884,5,8
392,288,4046,5,0
288,144,4371,5,8
376,160,4533,5,0
288,320,4857,5,0
312,232,5019,5,8
192,96,5344,5,0
280,104,5506,5,0
368,88,5668,5,8
312,120,5830,5,0
480,224,5992,5,0
432,232,6073,5,0
384,232,6154,5,0
336,224,6235,5,0
288,216,6317,5,8
240,208,6398,5,8
192,208,6479,5,8
144,216,6560,5,8
184,200,6641,5,0
272,176,6803,5,0
360,144,6965,5,6
448,120,7127,5,6
368,80,7289,5,4
200,144,7614,5,8
264,200,7776,5,0
376,336,8100,5,0
392,248,8262,5,8
408,160,8425,5,8
360,208,8587,5,0
360,136,8749,5,8
232,72,9073,5,0
200,208,9398,5,0
264,184,9560,5,8
376,96,9884,5,0
432,144,10046,5,0
448,176,10127,5,0
448,208,10208,5,8
400,256,10371,5,0
336,288,10533,5,0
304,296,10614,5,0
328,272,10695,5,8
368,216,10857,5,8
328,152,11019,5,0
200,224,11344,5,0
168,224,11425,5,0
200,208,11506,5,8
232,192,11587,5,8
264,176,11668,5,8
320,128,11830,5,8
384,160,11992,5,0
80,184,12154,5,8
88,256,12317,5,8
152,224,12479,5,6
224,224,12641,5,0
288,192,12803,5,8
352,152,12965,5,8
400,288,13290,5,8
368,296,13371,5,8
392,264,13452,5,0
440,208,13614,5,0
456,136,13776,5,8
424,72,13938,5,8
368,112,14100,5,0
352,144,14181,5,0
296,112,14262,5,8
280,256,14587,5,0
184,248,14749,5,8
192,176,14911,5,0
200,144,14992,5,0
232,128,15073,5,8
304,112,15235,5,8
336,128,15317,5,8
360,152,15398,5,0
376,224,15560,5,0
384,256,15641,5,0
400,224,15722,5,8
424,160,15884,5,8
440,232,16046,5,0
448,160,16208,5,8
312,208,16533,5,8
280,216,16614,5,8
256,192,16695,5,0
240,160,16776,5,0
272,144,16857,5,0
288,72,17019,5,8
360,88,17181,5,0
376,160,17344,5,8
368,192,17425,5,8
384,224,17506,5,8
416,240,17587,5,8
384,232,17668,5,8
352,296,17830,5,0
240,200,17992,5,8
240,232,18073,5,0
240,264,18154,5,0
120,288,18317,5,8
104,216,18479,5,0
176,160,18641,5,8
208,96,18803,5,0
232,72,18884,5,0
320,136,18965,5,8
312,104,19046,5,0
280,72,19127,5,0
384,232,19290,5,8
336,280,19452,5,0
240,200,19614,5,8
232,272,19776,5,0
120,288,19938,5,8
176,240,20100,5,8
208,216,20181,5,8
240,208,20262,5,0
312,184,20425,5,0
344,176,20506,5,0
320,136,20587,5,8
248,136,20749,5,0
384,232,20911,5,8
376,200,20992,5,0
368,168,21073,5,0
384,136,21154,5,8
416,144,21235,5,0
392,176,21317,5,0
376,208,21398,5,0
368,240,21479,5,0
120,288,21560,5,8
192,288,21722,5,0
176,160,21884,5,8
224,216,22046,5,0
248,240,22127,5,0
320,136,22208,5,8
352,200,22371,5,8
384,264,22533,5,0
408,192,22695,5,4
264,184,23019,5,0
320,144,23181,5,8
408,32,23506,5,0
432,104,23668,5,0
456,168,23830,5,8
320,216,24154,5,0
248,200,24317,5,0
280,136,24479,5,8
312,72,24641,5,8
352,128,24803,5,0
368,200,24965,5,0
408,256,25127,5,8
280,184,25452,5,0
416,136,25776,5,8
344,264,26100,5,0
272,280,26262,5,0
240,216,26425,5,8
176,88,26749,5,8
160,120,26830,5,8
144,152,26911,5,8
128,184,26992,5,8
160,176,27073,5,0
192,168,27154,5,0
224,160,27235,5,0
256,152,27317,5,0
288,160,27398,5,8
240,208,27560,5,8
312,232,27722,5,0
376,200,27884,5,8
416,168,28046,5,4
480,48,28371,5,6
432,256,28857,5,0
408,280,28938,5,0
424,248,29019,5,8
448,176,29181,5,8
408,144,29344,5,4
224,224,29668,5,6
208,64,30154,5,0
232,80,30235,5,0
240,104,30317,5,8
264,152,30479,5,8
408,144,30641,5,4
384,40,30965,5,6
368,144,31289,5,4
304,232,31614,5,8
360,248,31776,5,8
408,224,31938,5,0
448,184,32100,5,0
456,128,32262,5,4
456,72,32425,5,0
360,120,32749,5,0
336,120,32830,5,0
312,128,32911,5,8
264,160,33073,5,8
264,104,33235,5,4
208,96,33398,5,4
256,80,33560,5,6
280,144,33884,5,0
280,160,33965,5,0
296,168,34046,5,8
328,176,34208,5,8
360,160,34371,5,0
392,144,34533,5,0
424,160,34695,5,4
408,128,34857,5,6
424,224,35181,5,0
384,200,35344,5,0
392,224,35425,5,8
336,208,35506,5,8
288,200,35668,5,0
288,152,35830,5,4
320,112,35992,5,4
368,96,36154,5,6
400,192,36479,5,4
368,232,36641,5,4
400,192,36803,5,6
304,168,37127,5,8
136,264,37776,5,8
272,80,38425,5,6
296,120,38587,5,4
344,104,38749,5,6
240,296,39722,5,6
272,288,39884,5,6
296,264,40046,5,0
312,232,40208,5,6
328,160,40533,5,6
376,104,40857,5,8
392,112,40938,5,8
408,128,41019,5,0
408,160,41181,5,0
408,200,41344,5,8
416,272,41668,5,0
352,248,41992,5,8
320,240,42154,5,8
304,208,42317,5,0
272,200,42479,5,0
280,168,42641,5,8
248,168,42803,5,8
216,160,42965,6,0,B|88:104,1,140
200,72,43776,5,8
272,80,43857,5,8
336,112,43938,5,0
200,72,44100,5,8
272,80,44181,5,8
336,112,44262,5,0
200,72,44425,5,8
272,80,44506,5,8
336,112,44587,5,0
200,72,44749,5,8
272,80,44830,5,8
336,112,44911,5,0
200,72,45073,5,8
272,80,45154,5,8
336,112,45235,5,0
368,152,45398,5,8
408,176,45560,5,0
400,224,45722,5,0
432,184,45884,5,8
448,136,46046,5,8
400,184,46208,5,0
352,232,46371,5,0
320,248,46452,5,0
288,240,46533,5,8
272,176,46695,5,0
248,152,46776,5,0
272,128,46857,5,8
312,80,47019,5,0
344,72,47100,5,0
368,96,47181,5,8
400,152,47344,5,0
408,184,47425,5,0
416,216,47506,5,8
352,224,47668,5,0
288,248,47830,5,0
280,280,47911,5,0
280,248,47992,5,8
256,192,48154,5,8
232,168,48235,5,8
208,144,48317,5,8
184,128,48398,5,8
216,144,48479,5,0
240,152,48560,5,0
216,168,48641,5,0
360,104,48803,5,8
424,128,48965,5,8
440,160,49046,5,8
456,192,49127,5,0
432,256,49289,5,0
400,240,49371,5,0
416,208,49452,5,8
256,192,49614,5,8
312,144,49776,5,0
368,104,49938,5,8
360,176,50100,5,8
352,208,50181,5,8
376,184,50262,5,0
408,168,50344,5,8
440,176,50425,5,0
464,152,50506,5,8
480,120,50587,5,8
432,168,50749,5,8
408,192,50830,5,8
416,224,50911,5,0
384,288,51073,5,0
344,224,51235,5,8
272,216,51398,5,8
240,232,51479,5,8
240,200,51560,5,0
248,128,51722,5,8
320,112,51884,5,0
120,192,52046,5,8
184,168,52208,5,0
256,136,52371,5,8
264,208,52533,5,0
288,232,52614,5,0
320,208,52695,5,8
376,168,52857,5,8
448,144,53019,5,8
480,160,53100,5,8
472,192,53181,5,0
448,224,53262,5,0
432,256,53344,5,8
416,288,53425,5,8
384,296,53506,5,8
384,224,53668,5,0
408,192,53749,5,8
416,160,53830,5,8
336,120,53992,5,8
248,128,54154,5,8
208,144,54235,5,8
224,184,54317,5,0
256,264,54479,5,0
320,208,54641,5,8
376,144,54803,5,8
304,168,54965,5,0
272,192,55046,5,0
304,176,55127,5,8
328,104,55289,5,8
288,112,55371,5,8
256,128,55452,5,8
224,152,55533,5,8
248,184,55614,5,0
272,216,55695,5,0
288,248,55776,5,8
320,232,55857,5,0
216,272,55938,5,8
248,256,56019,5,0
144,256,56100,5,8
176,248,56181,5,0
208,232,56262,5,8
280,208,56425,5,8
352,224,56587,5,0
392,80,56911,5,8
416,152,57073,5,0
456,216,57235,5,0
384,184,57398,5,6
240,144,57722,5,6
240,40,58046,5,8
208,64,58127,5,8
240,80,58208,5,0
312,80,58371,5,8
352,88,58452,5,8
368,120,58533,5,0
376,160,58614,5,0
416,152,58695,5,8
432,120,58776,5,8
432,160,58857,5,0
416,192,58938,5,0
416,232,59019,5,8
344,256,59181,5,0
272,232,59344,5,0
240,216,59425,5,0
264,192,59506,5,8
320,136,59668,5,8
352,112,59749,5,8
376,144,59830,5,0
376,184,59911,5,0
408,168,59992,5,8
384,240,60154,5,0
384,136,60317,5,8
312,160,60479,5,8
312,200,60560,5,0
240,192,60641,5,8
208,216,60722,5,8
240,232,60803,5,0
280,168,60965,5,8
320,104,61127,5,8
352,80,61208,5,8
368,112,61289,5,0
368,152,61371,5,0
392,184,61452,5,8
448,136,61614,5,8
416,208,61776,5,8
400,240,61857,5,8
424,264,61938,5,0
400,296,62019,5,0
240,232,62100,5,8
168,232,62262,5,8
200,160,62425,5,0
272,136,62587,5,8
288,168,62668,5,0
320,152,62749,5,8
376,88,62830,5,8
416,80,62911,5,0
400,112,62992,5,0
424,144,63073,5,8
384,208,63235,5,8
368,240,63317,5,8
376,280,63398,5,0
320,328,63560,5,0
272,272,63722,5,8
240,208,63884,5,8
240,168,63965,5,8
264,144,64046,5,0
216,88,64208,5,8
160,136,64371,5,0
152,176,64452,5,0
152,216,64533,5,0
192,216,64614,5,0
232,208,64695,5,8
264,192,64776,5,8
296,176,64857,5,8
368,208,65019,5,0
392,176,65100,5,0
400,136,65181,5,0
424,104,65262,5,0
424,144,65344,5,8
408,216,65506,5,8
344,248,65668,5,0
304,256,65749,5,0
264,256,65830,5,0
256,224,65911,5,8
288,248,65992,5,0
272,144,66073,5,8
280,104,66154,5,8
208,128,66317,5,0
192,160,66398,5,0
176,192,66479,5,0
240,232,66641,5,8
304,272,66803,5,8
256,224,66965,2,0,B|424:80|72:72|72:72|216:272|160:224,1,560
312,48,68425,5,8
480,112,68506,5,8
352,208,68587,5,0
328,240,68668,5,0
352,272,68749,5,0
288,232,68911,5,8
256,216,68992,5,8
280,192,69073,5,0
304,168,69154,5,0
344,168,69235,5,0
384,176,69317,5,0
376,136,69398,5,8
296,88,69560,5,8
200,104,69722,5,8
160,128,69803,5,8
208,144,69884,5,0
280,200,70046,5,0
360,144,70208,5,8
432,80,70371,5,8
360,136,70533,5,0
440,192,70695,5,8
368,256,70857,5,8
320,264,70938,5,8
272,264,71019,5,8
248,224,71100,5,0
272,184,71181,5,8
320,104,71344,5,8
400,152,71506,5,8
408,200,71587,5,0
440,160,71668,5,8
456,208,71749,5,0
440,256,71830,5,0
392,248,71911,5,0
400,200,71992,5,8
320,160,72154,5,8
272,152,72235,5,8
272,200,72317,5,0
320,280,72479,5,0
384,216,72641,5,8
424,128,72803,5,0
368,72,72884,5,0
400,104,72965,5,8
488,136,73127,5,8
304,168,73452,5,8
64,144,73533,5,8
104,160,73614,5,0
152,184,73695,5,0
128,272,73776,5,8
168,184,73938,5,8
240,128,74100,5,8
272,160,74181,5,0
304,192,74262,5,0
320,248,74344,5,8
360,264,74425,5,0
312,272,74506,5,0
352,248,74587,5,8
392,160,74749,5,8
408,64,74911,5,8
448,80,74992,5,8
456,128,75073,5,0
440,224,75235,5,0
432,272,75317,5,0
448,320,75398,5,8
416,288,75479,5,0
368,272,75560,5,8
280,240,75722,5,0
232,240,75803,5,0
208,200,75884,5,8
280,136,76046,5,8
320,160,76127,5,8
280,136,76208,5,8
328,152,76289,5,0
368,168,76371,5,0
352,208,76452,5,0
392,192,76533,5,8
304,152,76695,5,8
256,144,76776,5,8
288,112,76857,5,0
384,104,76938,5,8
384,104,77019,5,8
184,216,77100,5,0
224,192,77181,5,8
176,312,77262,5,0
224,312,77344,5,0
224,120,77668,5,8
312,160,77830,5,8
360,240,77992,5,0
352,144,78154,5,6
176,224,78479,5,6
112,48,78803,5,8
160,56,78884,5,8
200,80,78965,5,0
288,104,79127,5,8
336,120,79208,5,8
376,144,79289,5,0
360,240,79452,5,0
440,184,79614,5,8
472,96,79776,5,8
424,192,79938,5,0
400,240,80019,5,0
392,296,80100,5,0
336,304,80181,5,0
288,288,80262,5,8
240,256,80344,5,8
200,224,80425,5,8
168,184,80506,5,8
216,160,80587,5,0
272,152,80668,5,0
304,192,80749,5,0
352,176,80830,5,0
352,120,80911,5,8
256,72,81073,5,8
160,112,81235,5,8
128,160,81317,5,8
112,208,81398,5,8
144,248,81479,5,8
200,240,81560,5,0
256,232,81641,5,0
312,224,81722,5,0
368,216,81803,5,0
344,264,81884,5,8
472,224,81965,5,0
448,272,82046,5,0
480,320,82127,5,0
392,104,82208,5,8
392,104,82371,5,8
288,120,82533,5,0
488,40,82857,5,8
384,64,83019,5,8
336,160,83181,5,0
232,160,83344,5,8
400,296,83668,5,8
288,120,83992,5,8
320,128,84073,5,8
352,136,84154,5,0
392,184,84317,5,8
408,208,84398,5,8
432,232,84479,5,0
368,240,84641,5,0
416,200,84803,5,8
440,144,84965,5,8
376,152,85127,5,4
160,256,85776,5,4
160,0,86425,5,4
248,240,87073,5,4
248,56,87560,5,4
312,224,88046,5,4
240,224,88208,5,0
272,208,88289,5,0
304,192,88371,5,8
376,168,88533,5,8
368,240,88695,5,0
424,184,88857,5,8
424,112,89019,5,0
384,104,89100,5,0
344,112,89181,5,0
304,120,89262,5,0
280,144,89344,5,8
280,216,89506,5,8
344,256,89668,5,0
328,184,89830,5,6
272,136,89992,5,6
200,112,90154,5,6
