osu file format v9

[General]
AudioFilename: THYME - Forever we can make it!.mp3
AudioLeadIn: 0
PreviewTime: 48618
Countdown: 0
SampleSet: Normal
StackLeniency: 0.7
Mode: 0
LetterboxInBreaks: 1

[Editor]
DistanceSpacing: 1.4
BeatDivisor: 4
GridSize: 8

[Metadata]
Title:forever we can make it! (TV Size)
Artist:THYME
Creator:Ignacio
Version:Forever Ignacio can make it!
Source:To Love-Ru
Tags:osuplayer111 Vicho-kun xierbaliti Weezy Verdisphena

[Difficulty]
HPDrainRate:6
CircleSize:4
OverallDifficulty:7
ApproachRate:7
SliderMultiplier:1.2
SliderTickRate:1

[Events]
//Background and Video events
0,0,"BG.jpg"
//Break Periods
//Storyboard Layer 0 (Background)
//Storyboard Layer 1 (Fail)
//Storyboard Layer 2 (Pass)
//Storyboard Layer 3 (Foreground)
//Storyboard Sound Samples
//Background Colour Transformations
3,100,0,0,0

[TimingPoints]
7290,324.324324324324,4,1,2,60,1,0
7614,-100,4,1,2,55,0,0
7776,-100,4,1,2,60,0,0
10533,-100,4,1,2,55,0,0
10695,-100,4,1,2,60,0,0
12479,-100,4,1,2,55,0,0
12641,-100,4,1,2,58,0,0
12965,-100,4,1,2,60,0,0
13614,-100,4,1,2,55,0,0
13776,-100,4,1,2,60,0,0
14100,-100,4,1,2,55,0,0
14262,-100,4,1,2,60,0,0
15722,-100,4,1,2,55,0,0
15884,-100,4,1,2,60,0,0
18479,-100,4,1,2,56,0,0
18641,-100,4,1,2,57,0,0
18803,-100,4,1,2,58,0,0
18965,-100,4,1,2,59,0,0
19127,-100,4,1,2,60,0,0
22208,-100,4,1,2,55,0,0
22371,-100,4,1,2,60,0,0
22695,-100,4,1,2,55,0,0
28046,-100,4,1,2,55,0,0
28208,-100,4,1,2,57,0,0
28371,-100,4,1,2,60,0,0
29344,-100,4,1,2,55,0,0
29506,-100,4,1,2,57,0,0
29668,-100,4,1,2,60,0,0
31614,-100,4,1,2,55,0,0
31776,-100,4,1,2,57,0,0
31938,-100,4,1,2,60,0,0
32749,-100,4,1,2,55,0,0
32911,-100,4,1,2,57,0,0
33235,-100,4,1,2,60,0,0
34533,-100,4,1,2,55,0,0
34695,-100,4,1,2,57,0,0
34857,-100,4,1,2,60,0,0
38425,-100,4,1,2,55,0,0
38587,-100,4,1,2,57,0,0
38749,-100,4,1,2,60,0,0
39722,-100,4,1,2,55,0,0
39884,-100,4,1,2,57,0,0
40046,-100,4,1,2,60,0,0
43614,-100,4,1,2,55,0,0
44911,-100,4,1,2,60,0,0
46208,-100,4,1,2,59,0,0
48803,-100,4,1,2,60,0,1
49452,-100,4,1,2,55,0,1
49614,-100,4,1,2,57,0,1
49776,-100,4,1,2,60,0,1
54641,-100,4,1,2,55,0,1
54803,-100,4,1,2,57,0,1
54965,-100,4,1,2,60,0,1
58533,-100,4,1,1,55,0,1
58695,-100,4,1,1,57,0,1
58857,-100,4,1,2,60,0,1
68262,-100,4,1,1,53,0,1
68425,-100,4,1,1,55,0,1
68587,-100,4,1,1,57,0,1
68749,-100,4,1,2,60,0,1
70208,-100,4,1,2,55,0,1
70371,-100,4,1,2,57,0,1
70533,-100,4,1,2,60,0,1
71506,-100,4,1,2,55,0,1
71668,-100,4,1,2,57,0,1
71830,-100,4,1,2,60,0,1
75398,-100,4,1,2,55,0,1
75560,-100,4,1,2,57,0,1
75722,-100,4,1,2,60,0,1
78641,-100,4,1,2,55,0,1
79289,-100,4,1,1,55,0,1
79452,-100,4,1,1,57,0,1
79614,-100,4,1,2,60,0,1
80587,-100,4,1,2,55,0,1
80749,-100,4,1,2,57,0,1
80911,-100,4,1,2,60,0,1
81884,-100,4,1,2,55,0,1
82046,-100,4,1,2,57,0,1
82208,-100,4,1,2,60,0,1
84154,-100,4,1,2,60,0,0
84479,-100,4,1,1,30,0,0
87965,-100,4,1,1,50,0,0
89830,-100,4,1,2,60,0,0
89992,-100,4,1,2,62,0,0
90154,-100,4,1,2,65,0,0

[Colours]
Combo1 : 160,66,255
Combo2 : 255,136,255
Combo3 : 255,255,128
Combo4 : 255,140,85

[HitObjects]
112,304,7289,5,4
248,224,7614,1,0
328,248,7776,1,0
448,136,8100,1,0
376,96,8262,2,0,B|312:104|248:72,1,120,0|0
184,32,8749,2,0,B|112:48|88:120,1,120,0|0
40,264,9398,5,0
40,264,9560,2,0,B|96:304|176:272,1,120
240,280,10046,1,0
312,328,10208,1,0
280,160,10533,1,0
280,160,10695,1,0
120,104,11019,2,0,B|232:128|296:40,1,180
456,56,11830,1,4
392,208,12154,6,0,B|392:280,1,60,8|0
352,336,12479,1,0
272,360,12641,1,0
192,360,12803,1,8
112,336,12965,1,0
232,232,13290,2,0,B|232:168,1,60,0|8
232,96,13614,1,0
232,96,13776,1,0
80,40,14100,5,8
80,40,14262,1,0
40,192,14587,2,0,B|120:192,1,60,0|8
176,192,14911,1,0
256,192,15073,1,0
376,304,15398,1,8
416,152,15722,1,0
416,152,15884,1,0
296,48,16208,2,0,B|216:16|200:112|112:64,1,180,0|8
112,232,17019,5,4
256,304,17344,1,8
336,288,17506,1,0
400,232,17668,1,0
256,160,17992,1,8
256,160,18154,1,0
120,80,18479,5,0
192,40,18641,1,8
256,96,18803,1,0
320,40,18965,1,0
392,80,19127,1,0
440,232,19452,2,0,B|384:288,1,60
336,320,19776,5,0
272,272,19938,2,0,B|272:192,2,60,8|0|0
192,296,20425,2,0,B|192:360,2,60,0|8|0
112,272,20911,1,0
112,272,21073,1,0
64,208,21235,1,8
64,208,21398,1,0
256,64,21884,5,8
416,48,22208,1,0
416,48,22371,1,0
472,200,22695,2,0,B|440:288|320:288,1,180,0|8
112,296,23506,2,0,B|72:368,2,60,0|0|8
248,192,24154,6,0,B|176:208|128:168,1,120,0|8
96,136,24641,1,0
232,40,24965,1,0
232,40,25127,1,8
352,160,25452,2,0,B|372:100|448:84,1,120,0|8
448,256,26100,2,0,B|508:272,2,60,0|0|8
288,200,26749,6,0,B|216:220,1,60,4|8
160,168,27073,6,0,B|148:252,1,60,0|8
104,296,27398,6,0,B|184:308,1,60,4|8
232,344,27722,6,0,B|280:296,1,60,0|8
360,296,28046,5,4
432,248,28208,1,0
464,328,28371,1,8
112,88,29344,5,4
72,160,29506,1,0
152,160,29668,1,8
376,64,30154,5,0
296,48,30317,1,8
232,96,30479,1,0
248,176,30641,1,0
400,224,30965,1,8
400,224,31289,1,0
296,352,31614,5,8
256,280,31776,1,0
216,352,31938,1,0
72,288,32262,1,8
72,288,32425,1,0
64,128,32749,6,0,B|136:128,1,60,0|8
200,128,33073,1,0
280,128,33235,1,0
360,128,33398,1,0
440,128,33560,1,8
144,304,34533,5,4
224,320,34695,1,0
304,304,34857,1,8
112,160,35344,6,0,B|160:104,1,60
72,88,35668,2,0,B|120:32,1,60
272,64,36154,1,8
360,72,36317,1,0
416,136,36479,1,0
392,296,36803,1,8
312,296,36965,1,0
312,296,37127,2,0,B|192:368|80:296,1,240
64,80,38425,5,4
128,128,38587,1,0
144,48,38749,1,8
448,304,39722,5,4
384,256,39884,1,0
368,336,40046,1,8
64,264,41019,5,4
32,192,41181,1,0
64,120,41344,1,8
216,56,41668,2,0,B|272:88|336:56,1,120,0|8
464,144,42317,1,0
424,216,42479,2,0,B|440:248|464:264,2,60,0|8|0
288,304,43127,6,0,B|352:304,2,60,0|8|0
216,336,43614,2,0,B|136:368|40:320|32:224,1,240
184,184,44587,1,8
184,184,44911,1,4
344,216,45235,1,8
416,184,45398,2,0,B|448:136|440:64,1,120
216,48,46208,6,0,B|136:16|40:64|32:160,1,240
184,192,47181,1,8
288,312,47506,1,0
368,328,47668,1,0
448,312,47830,1,8
448,312,47992,1,0
48,112,48803,6,0,B|96:160|72:224,1,120,4|8
192,336,49452,1,0
216,256,49614,1,0
240,176,49776,1,8
384,264,50100,2,0,B|360:328|400:384,1,120,0|8
464,328,50587,1,0
504,248,50749,2,0,B|528:184|488:128,1,120,0|8
336,64,51398,5,0
256,96,51560,1,0
176,104,51722,2,0,B|112:104|112:128|40:120,2,120,8|0|8
176,248,52695,1,4
304,176,53019,2,0,B|360:208|368:280,2,120,8|0|8
448,80,53992,6,0,B|376:112|408:184,1,120,0|8
440,344,54641,1,0
368,304,54803,1,0
296,344,54965,1,8
184,216,55289,2,0,B|200:280|144:328,1,120,0|8
88,264,55776,1,0
24,208,55938,6,0,B|8:144|64:96,1,120,0|8
224,72,56587,1,0
304,104,56749,1,0
384,128,56911,2,0,B|440:128|440:128|464:144|504:144,2,120,8|0|8
224,72,57884,2,0,B|152:72|120:144,1,120,4|8
72,296,58533,6,0,B|40:336,6,30
136,240,59181,2,0,B|256:240,1,120,4|8
400,328,59830,1,0
472,280,59992,1,0
392,248,60154,1,8
472,104,60479,6,0,B|400:112|352:48,1,120,0|8
280,80,60965,1,0
200,40,61127,2,0,B|200:160,1,120,0|8
288,304,61776,1,0
208,328,61938,1,0
128,312,62100,2,0,B|72:312|72:312|48:328|8:328,2,120,8|0|8
288,304,63073,5,4
456,328,63398,2,0,B|504:280|480:200,1,120,8|0
416,168,63884,1,0
344,120,64046,2,0,B|296:168|320:248,2,120,8|0|8
424,88,64857,1,0
352,40,65019,2,0,B|208:40,1,120,0|8
40,112,65668,2,0,B|168:112,1,120,0|8
320,168,66317,5,0
272,232,66479,1,0
208,288,66641,2,0,B|160:288|160:288|128:304|128:304|64:304,2,120,8|0|8
272,344,67452,1,0
272,344,67614,1,0
64,80,68262,6,0,B|96:48,14,30
8,144,69560,2,0,B|56:192|136:160,1,120,4|8
232,40,70208,1,0
296,96,70371,1,0
368,56,70533,1,8
480,184,70857,2,0,B|432:232|352:200,1,120,0|8
280,344,71506,1,0
216,288,71668,1,0
144,328,71830,1,8
256,200,72154,5,4
104,128,72479,2,0,B|104:200|40:232,2,120,8|0|8
168,72,73289,1,0
256,64,73452,1,0
336,80,73614,1,0
408,128,73776,2,0,B|408:200|472:232,2,120,8|0|8
280,240,74749,6,0,B|304:288|288:328|240:352,1,120,0|8
88,328,75398,1,0
56,248,75560,1,0
104,176,75722,1,8
224,56,76046,2,0,B|280:112|352:48,1,120,0|8
416,80,76533,1,0
480,144,76695,6,0,B|432:192|456:256,1,120,0|8
304,320,77344,1,0
224,288,77506,1,0
136,296,77668,2,0,B|72:296|72:320|16:320,2,120,8|0|8
208,144,78641,2,0,B|280:144|328:192,1,120,4|8
416,320,79289,6,0,B|416:360,6,30
472,256,79938,2,0,B|512:192|472:120,1,120,4|8
312,136,80587,1,0
232,112,80749,1,0
296,56,80911,1,8
128,48,81235,6,0,B|56:72|56:144,1,120,0|8
96,208,81722,1,0
176,256,81884,2,0,B|176:328,2,60,0|0|8
272,120,82533,1,0
352,144,82695,1,0
432,176,82857,2,0,B|432:296,2,120,8|0|8
208,328,83830,2,0,B|80:328,1,120,0|8
256,192,84479,12,4,88046
176,176,89830,5,0
256,128,89992,1,0
336,176,90154,1,4
