osu file format v9

[General]
AudioFilename: gekitou.mp3
AudioLeadIn: 1500
PreviewTime: 13290
Countdown: 0
SampleSet: Normal
StackLeniency: 0.7
Mode: 0
LetterboxInBreaks: 1

[Editor]
DistanceSpacing: 0.7
BeatDivisor: 2
GridSize: 8

[Metadata]
Title:Gekitou
Artist:THYME
Creator:LKs
Version:Normal
Source:To LOVE-Ru
Tags:Pokie

[Difficulty]
HPDrainRate:2
CircleSize:3
OverallDifficulty:3
ApproachRate:4
SliderMultiplier:1.2
SliderTickRate:2

[Events]
//Background and Video events
0,0,"BG.jpg"
//Break Periods
//Storyboard Layer 0 (Background)
//Storyboard Layer 1 (Fail)
//Storyboard Layer 2 (Pass)
//Storyboard Layer 3 (Foreground)
//Storyboard Sound Samples
//Background Colour Transformations
3,100,163,162,255

[TimingPoints]
508,405.405405405405,4,1,2,60,1,0
925,-100,4,1,2,48,0,0
1533,-100,4,1,2,54,0,0
1938,-100,4,1,2,60,0,0
2547,-100,4,1,2,48,0,0
3560,-100,4,1,2,55,0,0
5080,-100,4,1,2,40,0,0
5587,-100,4,1,2,40,0,0
5992,-100,4,1,2,43,0,0
6398,-100,4,1,2,49,0,0
6803,-100,4,1,2,54,0,0
11668,-100,4,1,1,35,0,0
11972,-100,4,1,2,40,0,0
12175,-100,4,1,1,35,0,0
12378,-100,4,1,2,51,0,0
12783,-100,4,1,2,50,0,0
12986,-100,4,1,2,55,0,0
15925,-100,4,1,2,46,0,0
16432,-100,4,1,2,40,0,0
17344,-100,4,1,2,46,0,0
18337,-100,4,1,2,40,0,0
18560,-100,4,1,2,46,0,0
19776,-100,4,1,2,49,0,0
20182,-100,4,1,2,55,0,0
23425,-100,4,1,2,49,0,0
23810,-100,4,1,2,46,0,0
24337,-100,4,1,2,54,0,0
25047,-100,4,1,2,48,0,0
26445,-100,4,1,2,55,0,0
31432,-100,4,1,2,46,0,0
32749,-100,4,1,2,55,0,0
37107,-100,4,1,2,58,0,0
37513,-100,4,1,2,64,0,0
39236,-133.333333333333,4,2,1,60,0,0
39844,-133.333333333333,4,2,1,48,0,0
40249,-133.333333333333,4,2,1,60,0,0
41060,-133.333333333333,4,2,1,48,0,0
41668,-133.333333333333,4,2,1,51,0,0
42074,-133.333333333333,4,2,1,60,0,0
42479,-133.333333333333,4,2,1,48,0,0
43087,-133.333333333333,4,2,1,45,0,0
43695,-133.333333333333,4,2,1,51,0,0
44303,-133.333333333333,4,2,1,54,0,0
44911,-133.333333333333,4,2,1,45,0,0
45317,-133.333333333333,4,2,1,60,0,0
46330,-133.333333333333,4,2,1,45,0,0
46938,-133.333333333333,4,2,1,60,0,0
47547,-133.333333333333,4,2,1,45,0,0
47952,-133.333333333333,4,2,1,45,0,0
48256,-133.333333333333,4,2,1,51,0,0
48560,-133.333333333333,4,2,1,60,0,0
49574,-133.333333333333,4,2,1,51,0,0
50182,-133.333333333333,4,2,1,60,0,0
50790,-133.333333333333,4,2,1,51,0,0
51803,-133.333333333333,4,2,1,60,0,0
52391,-133.333333333333,4,2,2,60,0,0
53812,-133.333333333333,4,2,2,60,0,0
65364,-100,4,2,2,60,0,0

[Colours]
Combo1 : 193,51,112
Combo2 : 213,234,89
Combo3 : 129,129,252

[HitObjects]
232,88,508,5,0
272,248,1318,1,0
353,225,1724,1,0
424,272,2129,2,0,B|493:189|432:96,1,180,0|0
320,56,3345,5,0
248,16,3751,2,0,B|179:99|240:192,1,180,0|0
248,328,4967,1,0
248,328,5170,1,2
248,328,5372,6,0,B|184:352|120:328,1,120,2|0
48,304,6183,2,0,B|80:232|168:248,1,120,0|0
184,176,6994,5,0
272,88,7602,1,0
272,88,7805,2,0,B|336:96|400:64,1,120
448,128,8616,1,0
400,244,9224,1,0
400,244,9426,2,0,B|336:220|304:148,1,120
272,88,10237,2,0,B|128:88|128:88|96:104,2,180,0|0|0
344,128,11859,2,0,B|312:200,1,60,2|2
320,184,12264,6,0,B|328:256,1,60,2|2
232,320,12872,2,0,B|225:260,1,60,0|2
224,216,13278,1,0
224,216,13480,6,0,B|176:160|96:184,1,120,0|8
40,80,14494,1,0
40,80,14697,2,0,B|160:80,1,120,8|0
232,40,15507,1,8
344,88,16116,6,0,B|352:136|336:176,1,60,0|8
344,147,16521,2,0,B|344:200|320:232,1,60
304,288,17129,2,0,B|240:272|168:304,1,120,8|0
144,296,17737,6,0,B|128:272|136:224,1,60,0|8
134,237,18142,2,0,B|128:200|152:160,1,60
212,131,18751,5,8
212,131,18953,1,0
300,131,19359,1,0
300,131,19562,1,8
376,88,19967,5,0
440,40,20372,1,8
440,40,20575,2,0,B|504:128|440:240,1,180,0|8
416,280,21589,2,0,B|352:264|272:288,1,120,0|8
297,281,22197,2,0,B|352:240|352:160,1,120
352,136,22805,1,8
304,64,23210,5,0
240,112,23616,1,8
240,112,23818,2,0,B|184:80|120:80,1,120
125,80,24426,2,0,B|104:144|120:208,1,120,8|0
136,280,25237,2,0,B|208:288,1,60,8|0
272,256,25845,2,0,B|344:264,1,60,0|8
400,312,26453,6,0,B|445:253|397:189,1,120,0|8
376,120,27264,1,0
336,112,27467,1,0
296,104,27670,2,0,B|232:88|168:104,1,120,8|0
112,160,28480,6,0,B|96:240,1,60,8|0
184,264,29089,2,0,B|200:320,1,60,0|8
208,176,29697,2,0,B|280:192|352:176,1,120,0|8
408,160,30507,1,0
432,120,30710,1,0
440,72,30913,2,0,B|384:32|312:64,1,120,8|0
325,58,31521,2,0,B|280:112|312:184,1,120
320,208,32129,5,0
272,280,32535,1,8
192,256,32940,1,0
136,192,33345,6,0,B|64:208,1,60,8|0
96,112,33953,2,0,B|154:98,1,60,0|8
240,88,34562,1,0
320,96,34967,6,0,B|384:112,1,60,8|0
440,168,35575,2,0,B|384:192,1,60,0|8
384,191,35980,2,0,B|352:256,1,60
384,336,36589,6,0,B|232:336,1,120,8|0
216,304,37197,2,0,B|256:232,1,60,0|8
245,251,37602,2,0,B|240:184,1,60,0|0
320,120,38210,6,0,B|312:56,1,60,8|0
216,32,38818,2,0,B|223:91,1,60,0|8
168,168,39426,6,0,B|24:160,2,134.999995976687,4|0|4
248,240,41251,2,0,B|408:248,1,134.999995976687,0|4
382,246,42264,1,4
400,160,42670,6,0,B|424:24,2,134.999995976687,4|0|4
304,104,44494,2,0,B|272:264,1,134.999995976687,0|4
277,236,45507,1,4
216,296,45913,6,0,B|72:312,2,134.999995976687,4|0|4
176,176,47737,2,0,B|216:88,1,89.9999973177911
213,94,48345,2,0,B|256:84|256:84|317:102,1,89.9999973177911,4|4
328,192,49156,6,0,B|462:206,2,134.999995976687,4|0|4
253,270,50980,2,0,B|221:233|221:233|221:164,1,89.9999973177911,4|0
221,191,51589,2,0,B|221:95,1,89.9999973177911,0|4
159,48,52399,6,0,B|95:48|39:72|15:136|31:208|79:248,1,269.999991953373,4|8
144,304,54021,1,0
216,248,54426,2,0,B|304:240,2,89.9999973177911,8|0|8
160,176,55643,6,0,B|176:136|208:104|264:88|320:104|360:136|376:184,1,269.999991953373,0|8
392,264,57264,2,0,B|400:320|360:368,2,89.9999973177911,0|8|0
373,176,58480,1,8
400,88,58886,6,0,B|320:16|264:80|232:136|144:40,1,269.999991953373,0|8
64,48,60507,2,0,B|40:96|48:152,1,89.9999973177911,0|8
48,224,61318,2,0,B|48:280|80:320,1,89.9999973177911,0|8
160,280,62129,6,0,B|224:200|288:280|352:336|416:248,1,269.999991953373,0|8
432,176,63751,2,0,B|424:120|392:88,1,89.9999973177911,0|8
320,48,64562,2,8,B|264:48|232:88,1,89.9999973177911,0|8
192,192,65372,6,4,B|104:192,1,60,4|4
296,296,66183,2,4,B|224:296,1,60
384,192,66994,2,4,B|400:120,3,60,4|4|4|4
