osu file format v9

[General]
AudioFilename: gekitou.mp3
AudioLeadIn: 1500
PreviewTime: 13290
Countdown: 0
SampleSet: Normal
StackLeniency: 0.7
Mode: 0
LetterboxInBreaks: 1

[Editor]
DistanceSpacing: 0.9
BeatDivisor: 2
GridSize: 16

[Metadata]
Title:Gekitou
Artist:THYME
Creator:LKs
Version:Easy
Source:To LOVE-Ru
Tags:Pokie

[Difficulty]
HPDrainRate:2
CircleSize:3
OverallDifficulty:2
ApproachRate:3
SliderMultiplier:0.8
SliderTickRate:0.5

[Events]
//Background and Video events
0,0,"BG.jpg"
//Break Periods
//Storyboard Layer 0 (Background)
//Storyboard Layer 1 (Fail)
//Storyboard Layer 2 (Pass)
//Storyboard Layer 3 (Foreground)
//Storyboard Sound Samples
//Background Colour Transformations
3,100,163,162,255

[TimingPoints]
508,405.405405405405,4,1,2,60,1,0
13492,-100,4,1,2,50,0,0

[Colours]
Combo1 : 193,51,112
Combo2 : 213,234,89
Combo3 : 129,129,252

[HitObjects]
448,224,508,2,0,B|288:240|272:240,1,160,4|0
192,288,1926,2,0,B|128:295,1,40
48,192,2940,1,0
128,64,3751,6,0,B|256:64,1,120
272,80,4562,2,0,B|416:80,1,120
416,96,5372,1,0
464,152,5778,2,0,B|464:232|448:264|384:312,1,160
336,272,6994,6,0,B|336:112,1,160,4|0
256,48,8413,2,0,B|256:112,1,40
256,224,9426,1,0
128,304,10237,6,0,B|128:224|144:192|208:144,1,160,0|0
288,144,11656,1,0
326,161,11859,2,0,B|368:192|384:224|384:304,1,160,0|0
240,320,13480,5,4
128,304,14089,1,0
96,288,14291,2,0,B|96:208,1,80,0|8
36,164,15102,2,0,B|36:84|36:68|52:68|100:68,1,120
180,48,16318,1,8
244,80,16724,5,0
340,128,17332,2,0,B|404:128,1,40
416,192,17940,1,8
380,256,18345,2,0,B|252:256,2,120,0|0|8
420,316,19967,5,4
480,224,20575,2,0,B|480:160,1,40
416,144,21183,1,8
352,104,21589,2,0,B|336:168|320:216,1,80
288,176,22197,2,0,B|272:240|240:296,1,120,0|8
176,320,23210,6,0,B|112:320|48:304,2,120,0|0|8
160,248,24832,2,0,B|80:192,1,80
95,203,25440,1,0
44,108,26048,1,8
112,80,26453,6,0,B|192:64|274:80,1,160,4|0
336,112,27670,1,8
404,88,28075,2,0,B|416:144|432:224,2,120,0|0|8
336,112,29697,5,0
352,224,30305,1,0
252,188,30913,2,0,B|240:240|231:290,1,80,8|0
128,240,31926,1,0
144,128,32535,1,8
80,96,32940,1,4
256,320,34562,6,0,B|256:176,1,120
256,96,35778,1,8
192,128,36183,2,0,B|128:176|80:208,2,120,0|0|8
256,160,37805,2,0,B|320:208|368:240,2,120,0|0|8
256,80,39426,5,4
160,48,40035,2,0,B|128:144|112:176,1,120
192,240,41251,2,0,B|288:272|320:288,1,120
304,281,42264,1,0
256,336,42670,5,0
368,320,43278,2,0,B|384:240|400:176,1,120
480,128,44494,2,0,B|400:112|336:96,1,120
362,102,45507,1,0
304,144,45913,5,4
192,160,46521,2,0,B|209:225|196:280,1,120
96,240,47737,2,0,B|79:175|92:120,1,120
91,121,48751,1,0
160,96,49156,5,0
256,48,49764,2,0,B|336:64|384:80,1,120
480,64,50980,2,0,B|464:144|448:192,1,120
451,180,51994,1,0
384,208,52399,5,4
288,272,53008,2,0,B|256:144,1,120,8|8
196,120,54022,1,0
132,84,54427,2,0,B|100:180,1,80,8|0
56,212,55238,2,0,B|72:260,1,40,8|0
68,249,55643,5,0
160,304,56251,2,0,B|272:320|288:320|304:320,1,120,8|8
308,252,57265,1,0
332,184,57670,2,0,B|432:200,1,80,8|0
471,157,58481,2,0,B|487:109,1,40,8|0
483,119,58887,5,0
400,64,59495,2,0,B|336:48|256:32,1,120,8|0
212,52,60508,2,0,B|180:100,1,40,0|8
180,116,60914,2,0,B|148:164,1,40,0|8
149,184,61319,6,0,B|118:241|96:272,2,80,8|8|0
240,240,62738,1,8
336,288,63346,1,0
368,224,63751,6,0,B|368:128,1,80,0|8
368,144,64562,1,8
256,48,65373,6,0,B|256:112,1,40,4|4
256,192,66184,1,4
256,192,66387,1,4
256,296,66995,2,4,B|256:336,3,40
