osu file format v14

[General]
AudioFilename: THX Surround Test WAV 16bit - High Quality.mp3
AudioLeadIn: 0
PreviewTime: -1
Countdown: 1
SampleSet: None
StackLeniency: 0.2
Mode: 0
LetterboxInBreaks: 1
WidescreenStoryboard: 0

[Editor]
Bookmarks: 11232,15698
DistanceSpacing: 0.5
BeatDivisor: 4
GridSize: 4
TimelineZoom: 1

[Metadata]
Title:Surround Test
TitleUnicode:Surround Test
Artist:THX
ArtistUnicode:THX
Creator:- DT -
Version:WWWWWWWAAAAAAAAAAAAAAAAAAAMMMMMMMMMMMMMMMMMMMMMMMMMMMMMMMMMMMMMMMMMMMMMMM
Source:
Tags:
BeatmapID:728211
BeatmapSetID:328304

[Difficulty]
HPDrainRate:5
CircleSize:4
OverallDifficulty:8.7
ApproachRate:9.6
SliderMultiplier:1.4
SliderTickRate:1

[Events]
//Background and Video events
0,0,"maxresdefault.jpg",0,0
//Break Periods
//Storyboard Layer 0 (Background)
//Storyboard Layer 1 (Fail)
//Storyboard Layer 2 (Pass)
//Storyboard Layer 3 (Foreground)
//Storyboard Sound Samples

[TimingPoints]
70.1099981574755,279.06976744186,4,2,0,20,1,0

[HitObjects]
112,96,70,5,0,0:0:0:0:
116,100,139,1,0,0:0:0:0:
120,104,209,1,0,0:0:0:0:
124,108,279,1,0,0:0:0:0:
204,144,349,5,0,0:0:0:0:
208,148,418,1,0,0:0:0:0:
212,152,488,1,0,0:0:0:0:
216,156,558,1,0,0:0:0:0:
256,232,628,5,0,0:0:0:0:
260,240,698,1,0,0:0:0:0:
264,248,767,1,0,0:0:0:0:
268,256,837,1,0,0:0:0:0:
332,324,907,5,0,0:0:0:0:
344,328,977,1,0,0:0:0:0:
356,328,1046,1,0,0:0:0:0:
368,328,1116,1,0,0:0:0:0:
416,260,1186,5,0,0:0:0:0:
416,248,1256,1,0,0:0:0:0:
416,236,1325,1,0,0:0:0:0:
416,220,1395,1,0,0:0:0:0:
412,192,1465,1,0,0:0:0:0:
400,168,1535,1,0,0:0:0:0:
380,148,1604,1,0,0:0:0:0:
356,132,1674,1,0,0:0:0:0:
328,124,1744,5,0,0:0:0:0:
316,156,1814,1,0,0:0:0:0:
288,176,1884,1,0,0:0:0:0:
256,192,1953,1,0,0:0:0:0:
220,196,2023,1,0,0:0:0:0:
184,192,2093,1,0,0:0:0:0:
156,172,2163,1,0,0:0:0:0:
132,148,2232,1,0,0:0:0:0:
112,120,2302,5,0,0:0:0:0:
96,144,2372,1,0,0:0:0:0:
72,156,2442,1,0,0:0:0:0:
44,156,2511,1,0,0:0:0:0:
28,132,2581,1,0,0:0:0:0:
32,104,2651,1,0,0:0:0:0:
52,84,2721,1,0,0:0:0:0:
80,80,2791,1,0,0:0:0:0:
104,88,2860,5,0,0:0:0:0:
132,104,2930,1,0,0:0:0:0:
164,112,3000,1,0,0:0:0:0:
196,116,3070,1,0,0:0:0:0:
232,112,3139,1,0,0:0:0:0:
264,104,3209,1,0,0:0:0:0:
296,92,3279,1,0,0:0:0:0:
332,84,3349,1,0,0:0:0:0:
364,92,3418,5,0,0:0:0:0:
392,120,3488,1,0,0:0:0:0:
400,156,3558,1,0,0:0:0:0:
376,188,3628,1,0,0:0:0:0:
336,188,3698,1,0,0:0:0:0:
300,180,3767,1,0,0:0:0:0:
260,172,3837,1,0,0:0:0:0:
220,172,3907,1,0,0:0:0:0:
188,192,3977,5,0,0:0:0:0:
164,228,4046,1,0,0:0:0:0:
168,268,4116,1,0,0:0:0:0:
208,284,4186,1,0,0:0:0:0:
252,284,4256,1,0,0:0:0:0:
212,296,4325,1,0,0:0:0:0:
172,300,4395,1,0,0:0:0:0:
132,284,4465,1,0,0:0:0:0:
104,252,4535,5,0,0:0:0:0:
88,212,4604,1,0,0:0:0:0:
100,168,4674,1,0,0:0:0:0:
124,128,4744,1,0,0:0:0:0:
168,104,4814,5,0,0:0:0:0:
216,104,4884,1,0,0:0:0:0:
260,124,4953,1,0,0:0:0:0:
288,164,5023,1,0,0:0:0:0:
296,216,5093,5,0,0:0:0:0:
288,268,5163,1,0,0:0:0:0:
260,312,5232,1,0,0:0:0:0:
216,340,5302,1,0,0:0:0:0:
160,336,5372,5,0,0:0:0:0:
112,308,5442,1,0,0:0:0:0:
84,260,5511,1,0,0:0:0:0:
72,204,5581,1,0,0:0:0:0:
92,160,5651,5,0,0:0:0:0:
120,124,5721,1,0,0:0:0:0:
152,96,5791,1,0,0:0:0:0:
184,76,5860,1,0,0:0:0:0:
216,64,5930,1,0,0:0:0:0:
248,68,6000,1,0,0:0:0:0:
276,76,6070,1,0,0:0:0:0:
296,92,6139,1,0,0:0:0:0:
308,108,6209,1,0,0:0:0:0:
316,124,6279,1,0,0:0:0:0:
320,136,6349,1,0,0:0:0:0:
320,148,6418,1,0,0:0:0:0:
316,160,6488,5,0,0:0:0:0:
312,176,6558,1,0,0:0:0:0:
308,192,6628,1,0,0:0:0:0:
308,208,6698,1,0,0:0:0:0:
316,228,6767,5,0,0:0:0:0:
336,240,6837,1,0,0:0:0:0:
364,244,6907,1,0,0:0:0:0:
392,228,6977,1,0,0:0:0:0:
412,200,7046,5,0,0:0:0:0:
416,164,7116,1,0,0:0:0:0:
404,132,7186,1,0,0:0:0:0:
380,108,7256,1,0,0:0:0:0:
344,100,7325,5,0,0:0:0:0:
308,120,7395,1,0,0:0:0:0:
276,140,7465,1,0,0:0:0:0:
240,148,7535,1,0,0:0:0:0:
200,152,7604,5,0,0:0:0:0:
160,140,7674,1,0,0:0:0:0:
132,108,7744,1,0,0:0:0:0:
140,68,7814,1,0,0:0:0:0:
184,52,7884,5,0,0:0:0:0:
224,72,7953,1,0,0:0:0:0:
236,116,8023,1,0,0:0:0:0:
236,160,8093,1,0,0:0:0:0:
236,208,8163,5,0,0:0:0:0:
260,252,8232,1,0,0:0:0:0:
300,280,8302,1,0,0:0:0:0:
348,292,8372,1,0,0:0:0:0:
396,312,8442,5,0,0:0:0:0:
344,304,8511,1,0,0:0:0:0:
292,304,8581,1,0,0:0:0:0:
240,316,8651,1,0,0:0:0:0:
188,328,8721,1,0,0:0:0:0:
136,324,8791,1,0,0:0:0:0:
88,304,8860,1,0,0:0:0:0:
36,316,8930,1,0,0:0:0:0:
68,360,9000,5,0,0:0:0:0:
80,304,9070,1,0,0:0:0:0:
72,248,9139,1,0,0:0:0:0:
92,196,9209,1,0,0:0:0:0:
104,140,9279,1,0,0:0:0:0:
96,84,9349,1,0,0:0:0:0:
80,32,9418,5,0,0:0:0:0:
40,72,9488,1,0,0:0:0:0:
56,124,9558,1,0,0:0:0:0:
104,140,9628,1,0,0:0:0:0:
144,120,9698,1,0,0:0:0:0:
180,100,9767,1,0,0:0:0:0:
216,92,9837,1,0,0:0:0:0:
252,96,9907,1,0,0:0:0:0:
280,112,9977,1,0,0:0:0:0:
304,124,10046,1,0,0:0:0:0:
328,128,10116,1,0,0:0:0:0:
348,120,10186,1,0,0:0:0:0:
364,116,10256,1,0,0:0:0:0:
376,116,10325,1,0,0:0:0:0:
384,120,10395,1,0,0:0:0:0:
388,124,10465,1,0,0:0:0:0:
392,136,10535,5,0,0:0:0:0:
396,148,10604,1,0,0:0:0:0:
392,160,10674,1,0,0:0:0:0:
388,168,10744,1,0,0:0:0:0:
384,176,10814,1,0,0:0:0:0:
376,184,10884,1,0,0:0:0:0:
360,192,10953,5,0,0:0:0:0:
344,196,11023,1,0,0:0:0:0:
328,196,11093,1,0,0:0:0:0:
312,196,11163,1,0,0:0:0:0:
288,192,11232,5,0,0:0:0:0:
264,188,11302,1,0,0:0:0:0:
240,180,11372,1,0,0:0:0:0:
216,172,11442,1,0,0:0:0:0:
188,156,11511,5,0,0:0:0:0:
168,132,11581,1,0,0:0:0:0:
152,104,11651,1,0,0:0:0:0:
144,72,11721,1,0,0:0:0:0:
156,36,11791,5,0,0:0:0:0:
184,12,11860,1,0,0:0:0:0:
220,4,11930,1,0,0:0:0:0:
256,12,12000,1,0,0:0:0:0:
288,44,12070,5,0,0:0:0:0:
316,80,12139,1,0,0:0:0:0:
340,120,12209,1,0,0:0:0:0:
356,164,12279,1,0,0:0:0:0:
356,216,12349,5,0,0:0:0:0:
340,264,12418,1,0,0:0:0:0:
300,300,12488,1,0,0:0:0:0:
252,324,12558,1,0,0:0:0:0:
192,320,12628,5,0,0:0:0:0:
136,300,12698,1,0,0:0:0:0:
100,256,12767,1,0,0:0:0:0:
72,204,12837,1,0,0:0:0:0:
36,252,12907,1,0,0:0:0:0:
96,252,12977,1,0,0:0:0:0:
144,216,13046,1,0,0:0:0:0:
176,164,13116,1,0,0:0:0:0:
220,124,13186,1,0,0:0:0:0:
276,108,13256,1,0,0:0:0:0:
316,124,13325,5,0,0:0:0:0:
348,156,13395,1,0,0:0:0:0:
392,160,13465,1,0,0:0:0:0:
428,132,13535,1,0,0:0:0:0:
440,80,13604,5,0,0:0:0:0:
412,36,13674,1,0,0:0:0:0:
360,24,13744,1,0,0:0:0:0:
316,52,13814,1,0,0:0:0:0:
288,104,13884,5,0,0:0:0:0:
268,160,13953,1,0,0:0:0:0:
232,208,14023,1,0,0:0:0:0:
184,240,14093,1,0,0:0:0:0:
124,236,14163,5,0,0:0:0:0:
72,212,14232,1,0,0:0:0:0:
68,152,14302,5,0,0:0:0:0:
32,200,14372,1,0,0:0:0:0:
48,256,14442,5,0,0:0:0:0:
100,280,14511,1,0,0:0:0:0:
148,244,14581,5,0,0:0:0:0:
176,192,14651,1,0,0:0:0:0:
236,204,14721,5,0,0:0:0:0:
280,244,14791,1,0,0:0:0:0:
340,268,14860,5,0,0:0:0:0:
404,244,14930,1,0,0:0:0:0:
428,180,15000,1,0,0:0:0:0:
404,116,15070,1,0,0:0:0:0:
348,84,15139,1,0,0:0:0:0:
288,104,15209,1,0,0:0:0:0:
260,164,15279,1,0,0:0:0:0:
272,228,15349,1,0,0:0:0:0:
324,268,15418,5,0,0:0:0:0:
324,268,15488,1,0,0:0:0:0:
352,292,15558,1,0,0:0:0:0:
312,300,15628,1,0,0:0:0:0:
268,276,15698,1,0,0:0:0:0:
228,236,15767,1,0,0:0:0:0:
228,172,15837,1,0,0:0:0:0:
224,100,15907,1,0,0:0:0:0:
96,40,15977,5,0,0:0:0:0:
96,108,16046,1,0,0:0:0:0:
100,180,16116,1,0,0:0:0:0:
100,252,16186,1,0,0:0:0:0:
136,312,16256,1,0,0:0:0:0:
204,328,16325,1,0,0:0:0:0:
264,292,16395,1,0,0:0:0:0:
284,224,16465,1,0,0:0:0:0:
324,164,16535,1,0,0:0:0:0:
388,140,16604,1,0,0:0:0:0:
452,168,16674,1,0,0:0:0:0:
472,236,16744,1,0,0:0:0:0:
436,296,16814,1,0,0:0:0:0:
368,312,16884,1,0,0:0:0:0:
304,284,16953,1,0,0:0:0:0:
252,240,17023,1,0,0:0:0:0:
212,184,17093,1,0,0:0:0:0:
164,132,17163,1,0,0:0:0:0:
96,112,17232,5,0,0:0:0:0:
120,168,17302,1,0,0:0:0:0:
164,124,17372,1,0,0:0:0:0:
224,100,17442,1,0,0:0:0:0:
288,100,17511,1,0,0:0:0:0:
348,124,17581,1,0,0:0:0:0:
412,116,17651,1,0,0:0:0:0:
388,176,17721,1,0,0:0:0:0:
408,236,17791,1,0,0:0:0:0:
440,288,17860,1,0,0:0:0:0:
476,332,17930,5,0,0:0:0:0:
420,328,18000,1,0,0:0:0:0:
368,304,18070,1,0,0:0:0:0:
316,288,18139,1,0,0:0:0:0:
260,284,18209,1,0,0:0:0:0:
204,296,18279,1,0,0:0:0:0:
148,288,18349,1,0,0:0:0:0:
96,308,18418,1,0,0:0:0:0:
128,260,18488,1,0,0:0:0:0:
148,208,18558,1,0,0:0:0:0:
152,160,18628,5,0,0:0:0:0:
156,112,18698,1,0,0:0:0:0:
184,72,18767,1,0,0:0:0:0:
232,68,18837,1,0,0:0:0:0:
272,96,18907,1,0,0:0:0:0:
308,128,18977,1,0,0:0:0:0:
356,132,19046,1,0,0:0:0:0:
404,120,19116,1,0,0:0:0:0:
444,92,19186,1,0,0:0:0:0:
464,48,19256,1,0,0:0:0:0:
424,36,19325,5,0,0:0:0:0:
428,76,19395,1,0,0:0:0:0:
444,116,19465,1,0,0:0:0:0:
464,152,19535,1,0,0:0:0:0:
476,192,19604,1,0,0:0:0:0:
456,228,19674,1,0,0:0:0:0:
428,256,19744,1,0,0:0:0:0:
388,268,19814,1,0,0:0:0:0:
352,276,19884,5,0,0:0:0:0:
316,272,19953,1,0,0:0:0:0:
284,260,20023,1,0,0:0:0:0:
260,236,20093,1,0,0:0:0:0:
248,204,20163,1,0,0:0:0:0:
244,168,20232,1,0,0:0:0:0:
228,136,20302,1,0,0:0:0:0:
196,120,20372,1,0,0:0:0:0:
168,132,20442,5,0,0:0:0:0:
152,156,20511,1,0,0:0:0:0:
132,176,20581,1,0,0:0:0:0:
104,184,20651,1,0,0:0:0:0:
76,176,20721,1,0,0:0:0:0:
56,156,20791,1,0,0:0:0:0:
60,128,20860,1,0,0:0:0:0:
68,100,20930,1,0,0:0:0:0:
60,72,21000,1,0,0:0:0:0:
84,88,21070,1,0,0:0:0:0:
112,88,21139,1,0,0:0:0:0:
140,80,21209,1,0,0:0:0:0:
168,72,21279,1,0,0:0:0:0:
196,72,21349,1,0,0:0:0:0:
220,84,21418,1,0,0:0:0:0:
244,100,21488,1,0,0:0:0:0:
264,112,21558,5,0,0:0:0:0:
284,116,21628,1,0,0:0:0:0:
304,120,21698,1,0,0:0:0:0:
324,124,21767,1,0,0:0:0:0:
340,136,21837,1,0,0:0:0:0:
356,152,21907,1,0,0:0:0:0:
364,172,21977,1,0,0:0:0:0:
368,192,22046,1,0,0:0:0:0:
364,212,22116,1,0,0:0:0:0:
356,232,22186,1,0,0:0:0:0:
344,248,22256,1,0,0:0:0:0:
328,260,22325,1,0,0:0:0:0:
308,268,22395,1,0,0:0:0:0:
288,272,22465,1,0,0:0:0:0:
268,268,22535,1,0,0:0:0:0:
248,264,22604,1,0,0:0:0:0:
232,248,22674,1,0,0:0:0:0:
220,232,22744,1,0,0:0:0:0:
204,216,22814,1,0,0:0:0:0:
184,208,22884,1,0,0:0:0:0:
164,208,22953,1,0,0:0:0:0:
144,212,23023,1,0,0:0:0:0:
128,224,23093,1,0,0:0:0:0:
116,240,23163,1,0,0:0:0:0:
108,260,23232,1,0,0:0:0:0:
108,280,23302,1,0,0:0:0:0:
116,300,23372,1,0,0:0:0:0:
128,316,23442,1,0,0:0:0:0:
144,328,23511,1,0,0:0:0:0:
164,336,23581,1,0,0:0:0:0:
184,340,23651,1,0,0:0:0:0:
204,340,23721,1,0,0:0:0:0:
216,332,23791,5,0,0:0:0:0:
224,324,23860,1,0,0:0:0:0:
232,316,23930,1,0,0:0:0:0:
240,308,24000,1,0,0:0:0:0:
248,300,24070,1,0,0:0:0:0:
256,292,24139,1,0,0:0:0:0:
264,284,24209,1,0,0:0:0:0:
272,276,24279,1,0,0:0:0:0:
280,268,24349,1,0,0:0:0:0:
288,260,24418,1,0,0:0:0:0:
300,252,24488,1,0,0:0:0:0:
308,240,24558,1,0,0:0:0:0:
320,232,24628,1,0,0:0:0:0:
328,220,24698,1,0,0:0:0:0:
336,212,24767,1,0,0:0:0:0:
348,204,24837,1,0,0:0:0:0:
356,192,24907,1,0,0:0:0:0:
368,184,24977,1,0,0:0:0:0:
376,172,25046,1,0,0:0:0:0:
388,164,25116,1,0,0:0:0:0:
396,152,25186,1,0,0:0:0:0:
408,144,25256,1,0,0:0:0:0:
420,136,25325,1,0,0:0:0:0:
428,124,25395,1,0,0:0:0:0:
440,116,25465,1,0,0:0:0:0:
448,104,25535,1,0,0:0:0:0:
456,96,25604,1,0,0:0:0:0:
468,88,25674,1,0,0:0:0:0:
476,76,25744,1,0,0:0:0:0:
