osu file format v14

[General]
AudioFilename: NEVER SAY NEVER - THREE LIGHTS DOWN KINGS.mp3
AudioLeadIn: 1500
PreviewTime: 59122
Countdown: 0
SampleSet: Soft
StackLeniency: 0.7
Mode: 0
LetterboxInBreaks: 0
WidescreenStoryboard: 0

[Editor]
DistanceSpacing: 1.2
BeatDivisor: 4
GridSize: 4
TimelineZoom: 2.1

[Metadata]
Title:NEVER SAY NEVER -TV SIZE ENDING ver-
TitleUnicode:NEVER SAY NEVER -TV SIZE ENDING ver-
Artist:THREE LIGHTS DOWN KINGS
ArtistUnicode:THREE LIGHTS DOWN KINGS
Creator:tutuhaha
Version:Normal
Source:デュラララ!!×2 承
Tags:Durarara!! x2 Shou No_Gu qoot8123
BeatmapID:594259
BeatmapSetID:259541

[Difficulty]
HPDrainRate:3
CircleSize:2.5
OverallDifficulty:3
ApproachRate:5
SliderMultiplier:0.9
SliderTickRate:1

[Events]
//Background and Video events
Video,0,"NEVER SAY NEVER.flv"
0,0,"2.png",0,0
//Break Periods
//Storyboard Layer 0 (Background)
//Storyboard Layer 1 (Fail)
//Storyboard Layer 2 (Pass)
//Storyboard Layer 3 (Foreground)
//Storyboard Sound Samples

[TimingPoints]
205,309.278350515464,4,2,1,80,1,0
2215,-100,4,2,1,40,0,0
2369,-100,4,2,2,80,0,0
17524,-100,4,2,1,40,0,0
37318,-100,4,2,2,70,0,0
37936,-100,4,2,1,70,0,0
38555,-100,4,2,2,70,0,0
39174,-100,4,2,1,70,0,0
39792,-100,4,2,2,70,0,0
40411,-100,4,2,1,70,0,0
41029,-100,4,2,2,70,0,0
41648,-100,4,2,1,70,0,0
42266,-100,4,2,2,70,0,0
42885,-100,4,2,1,70,0,0
43503,-100,4,2,2,70,0,0
44122,-100,4,2,1,70,0,0
44741,-100,4,2,2,70,0,0
45359,-100,4,2,1,70,0,0
45978,-100,4,2,2,70,0,0
46596,-100,4,2,1,60,0,0
47215,-100,4,2,2,80,0,0
51854,-100,4,2,2,30,0,0
52163,-100,4,2,2,50,0,0
57112,-100,4,2,1,70,0,0
59586,-100,4,2,2,80,0,1
68864,-100,4,2,1,30,0,1
69483,-100,4,2,2,80,0,1
81854,-100,4,2,2,50,0,1
82782,-100,4,2,2,80,0,1
84174,-100,4,2,2,80,0,0
84947,-100,4,2,2,50,0,0
85024,-100,4,2,1,5,0,0

[Colours]
Combo1 : 255,192,0
Combo2 : 0,202,0
Combo3 : 18,124,255
Combo4 : 242,24,57

[HitObjects]
40,36,205,6,0,P|36:80|48:128,1,90,2|2,0:0|0:0,0:0:0:0:
88,224,823,2,0,P|80:276|52:320,1,90,2|2,0:0|0:0,0:0:0:0:
168,336,1442,2,0,L|272:324,1,90,6|2,0:0|0:0,0:0:0:0:
300,228,2060,2,0,L|356:232,2,45,2|8|2,0:0|0:0|0:0,0:0:0:0:
200,188,2679,5,6,0:0:0:0:
108,132,2988,1,8,0:0:0:0:
12,80,3297,2,0,P|48:40|92:24,1,90,2|8,0:0|0:0,0:0:0:0:
188,52,3916,2,0,L|292:72,1,90,2|8,0:0|0:0,0:0:0:0:
380,44,4534,1,2,0:0:0:0:
380,44,4689,1,0,0:0:0:0:
380,44,4844,2,0,P|384:92|404:136,1,90,8|2,0:0|0:0,0:0:0:0:
456,224,5462,5,8,0:0:0:0:
488,328,5772,2,0,L|392:340,1,90,2|8,0:0|0:0,0:0:0:0:
316,272,6390,2,0,L|220:260,1,90,2|8,0:0|0:0,0:0:0:0:
140,192,7009,2,0,P|128:164|128:140,2,45,2|0|8,0:0|0:0|0:0,0:0:0:0:
128,300,7627,5,2,0:0:0:0:
220,356,7936,1,8,0:0:0:0:
328,340,8246,2,0,P|380:340|424:352,1,90,2|8,0:0|0:0,0:0:0:0:
480,260,8864,2,0,L|500:156,1,90,2|8,0:0|0:0,0:0:0:0:
400,128,9483,2,0,L|383:216,1,90,2|8,0:0|0:0,0:0:0:0:
276,208,10101,6,0,P|244:184|212:128,1,90,4|8,0:0|0:0,0:0:0:0:
204,88,10565,2,0,L|112:72,1,90,2|10,0:0|0:0,0:0:0:0:
20,20,11184,1,2,0:0:0:0:
36,128,11493,1,10,0:0:0:0:
44,236,11802,2,0,P|28:276|-4:324,1,90,2|2,0:0|0:0,0:0:0:0:
48,348,12266,6,0,L|152:336,1,90,8|4,0:0|0:0,0:0:0:0:
212,256,12885,1,8,0:0:0:0:
212,256,13040,2,0,P|256:260|316:252,1,90,2|10,0:0|0:0,0:0:0:0:
344,156,13658,1,2,0:0:0:0:
408,244,13967,1,10,0:0:0:0:
448,144,14277,1,2,0:0:0:0:
452,36,14586,2,0,L|400:28,1,45,2|10,0:0|0:0,0:0:0:0:
300,48,15050,6,0,P|248:40|152:44,2,135,4|2|8,0:0|0:0|0:0,0:0:0:0:
300,104,16132,2,0,L|276:208,1,90,0|10,0:0|0:0,0:0:0:0:
252,296,16751,1,2,0:0:0:0:
168,364,17060,2,0,P|152:332|148:308,1,45,2|8,0:0|0:0,0:0:0:0:
128,216,17524,6,0,L|20:196,1,90,8|8,0:0|0:0,0:0:0:0:
44,92,18143,2,0,L|132:108,1,90,8|8,0:0|0:0,0:0:0:0:
232,72,18761,1,8,0:0:0:0:
336,36,19070,1,8,0:0:0:0:
396,128,19380,2,0,L|484:144,1,90,8|8,0:0|0:0,0:0:0:0:
456,248,19998,6,0,P|384:272|364:380,2,180,8|8|8,0:0|0:0|0:0,0:0:0:0:
484,144,21545,2,0,L|500:56,2,90,8|8|8,0:0|0:0|0:0,0:0:0:0:
376,160,22473,6,0,P|312:188|204:132,2,180,8|8|8,0:0|0:0|0:0,0:0:0:0:
404,56,24019,2,0,L|500:56,2,90,8|8|8,0:0|0:0|0:0,0:0:0:0:
300,24,24947,6,0,P|280:100|324:196,1,180,8|8,0:0|0:0,0:0:0:0:
396,264,25875,1,8,0:0:0:0:
328,348,26184,2,0,L|228:332,1,90,8|8,0:0|0:0,0:0:0:0:
132,332,26802,2,0,L|32:348,1,90,8|8,0:0|0:0,0:0:0:0:
20,240,27421,6,0,P|76:184|76:76,1,180,8|8,0:0|0:0,0:0:0:0:
180,48,28349,1,8,0:0:0:0:
288,36,28658,2,0,L|384:32,2,90,8|8|8,0:0|0:0|0:0,0:0:0:0:
244,136,29586,1,8,0:0:0:0:
152,188,29895,6,0,P|132:252|172:364,1,180,8|8,0:0|0:0,0:0:0:0:
272,364,30823,1,8,0:0:0:0:
356,300,31132,2,0,P|343:212|283:147,1,180,8|8,0:0|0:0,0:0:0:0:
192,88,32060,1,8,0:0:0:0:
88,60,32369,6,0,L|76:156,1,90,8|8,0:0|0:0,0:0:0:0:
76,256,32988,2,0,L|88:352,1,90,8|8,0:0|0:0,0:0:0:0:
196,344,33607,2,0,L|207:254,1,90,8|8,0:0|0:0,0:0:0:0:
206,147,34225,2,0,L|194:57,1,90,8|8,0:0|0:0,0:0:0:0:
300,28,34844,5,12,0:0:0:0:
336,128,35153,1,8,0:0:0:0:
408,208,35462,2,0,P|436:168|440:120,1,90,8|8,0:0|0:0,0:0:0:0:
336,128,36081,2,0,P|300:188|340:296,1,180,8|8,0:0|0:0,0:0:0:0:
436,312,37009,1,8,0:0:0:0:
408,208,37318,6,0,P|444:148|404:44,1,180,4|8,0:0|0:0,0:0:0:0:
304,28,38246,1,2,0:0:0:0:
304,28,38400,2,0,L|148:36,1,135,2|2,0:0|0:0,0:0:0:0:
76,92,39174,2,0,P|108:128|156:144,1,90,8|2,0:0|0:0,0:0:0:0:
168,248,39792,6,0,P|248:224|344:264,1,180,6|8,0:0|0:0,0:0:0:0:
424,316,40720,1,2,0:0:0:0:
468,216,41029,2,0,P|468:168|448:120,1,90,0|2,0:0|0:0,0:0:0:0:
352,160,41648,2,0,P|308:136|278:94,1,90,8|2,0:0|0:0,0:0:0:0:
216,20,42266,6,0,P|176:80|64:104,1,180,4|8,0:0|0:0,0:0:0:0:
0,184,43194,1,2,0:0:0:0:
104,212,43503,2,0,L|204:232,1,90,0|2,0:0|0:0,0:0:0:0:
256,144,44122,2,0,P|288:136|348:136,1,90,8|0,0:0|0:0,0:0:0:0:
312,240,44741,6,0,L|304:340,1,90,4|2,0:0|0:0,0:0:0:0:
412,308,45359,2,0,L|419:218,1,90,8|2,0:0|0:0,0:0:0:0:
424,164,45823,2,0,P|452:112|436:36,1,135,2|2,0:0|0:0,0:0:0:0:
340,88,46596,2,0,L|248:68,1,90,8|0,0:0|0:0,0:0:0:0:
168,136,47215,6,0,P|120:112|68:108,1,90,6|8,0:0|0:0,0:0:0:0:
56,212,47833,2,0,L|68:320,1,90,2|8,0:0|0:0,0:0:0:0:
168,332,48452,2,0,L|158:242,1,90,2|8,0:0|0:0,0:0:0:0:
168,136,49070,1,2,0:0:0:0:
224,44,49380,1,8,0:0:0:0:
276,136,49689,6,0,P|316:104|332:60,2,90,6|8|2,0:0|0:0|0:0,0:0:0:0:
240,240,50617,1,8,0:0:0:0:
320,312,50926,2,0,L|424:312,1,90,2|8,0:0|0:0,0:0:0:0:
436,208,51545,2,0,L|344:208,1,90,2|0,0:0|1:0,0:0:0:0:
240,240,52163,6,0,P|188:264|72:120,1,270,4|0,0:0|0:0,0:0:0:0:
144,48,53400,2,0,L|420:44,1,270,2|0,0:0|0:0,0:0:0:0:
368,144,54637,6,0,P|425:149|376:360,2,360,4|2|2,0:0|0:0|0:0,0:0:0:0:
300,60,57421,5,0,0:0:0:0:
231,134,57730,2,0,L|144:156,1,90,2|0,0:0|0:0,0:0:0:0:
208,241,58349,2,0,L|296:220,1,90,2|0,0:0|0:0,0:0:0:0:
364,304,58967,2,0,P|432:304|468:288,1,90,2|0,0:0|0:0,0:0:0:0:
396,204,59586,6,0,P|380:160|344:128,1,90,6|8,0:0|0:0,0:0:0:0:
276,52,60205,2,0,L|168:40,1,90,2|8,0:0|0:0,0:0:0:0:
80,64,60823,2,0,P|104:96|108:148,1,90,2|8,0:0|0:0,0:0:0:0:
80,248,61442,2,0,L|24:256,2,45,2|0|8,0:0|0:0|0:0,0:0:0:0:
184,228,62060,6,0,P|220:220|284:224,2,90,2|8|2,0:0|0:0|0:0,0:0:0:0:
152,332,62988,1,8,0:0:0:0:
260,336,63297,2,0,P|296:344|360:340,1,90,2|8,0:0|0:0,0:0:0:0:
456,336,63916,1,2,0:0:0:0:
396,244,64225,1,8,0:0:0:0:
464,160,64534,6,0,P|476:112|472:64,1,90,2|8,0:0|0:0,0:0:0:0:
372,104,65153,1,2,0:0:0:0:
372,104,65308,1,0,0:0:0:0:
372,104,65462,2,0,P|316:96|280:80,1,90,8|0,0:0|0:0,0:0:0:0:
180,56,66081,1,8,0:0:0:0:
136,152,66390,2,0,L|46:145,1,90,2|8,0:0|0:0,0:0:0:0:
36,252,67009,6,0,L|125:258,1,90,2|8,0:0|0:0,0:0:0:0:
128,368,67627,2,0,L|232:376,1,90,2|8,0:0|0:0,0:0:0:0:
308,312,68246,2,0,P|336:272|340:224,1,90,2|8,0:0|0:0,0:0:0:0:
276,148,68864,2,0,L|264:92,2,45,8|8|8,0:0|0:0|0:0,0:0:0:0:
380,112,69483,6,0,P|392:68|432:32,1,90,6|8,0:0|0:0,0:0:0:0:
484,124,70101,2,0,L|516:164,2,45,2|0|8,0:0|0:0|0:0,0:0:0:0:
424,212,70720,2,0,P|412:256|372:292,1,90,6|8,0:0|0:0,0:0:0:0:
288,236,71339,2,0,L|256:196,2,45,2|0|8,0:0|0:0|0:0,0:0:0:0:
280,344,71957,6,0,L|180:360,1,90,6|8,0:0|0:0,0:0:0:0:
140,264,72576,2,0,L|40:280,1,90,2|8,0:0|0:0,0:0:0:0:
32,172,73194,2,0,L|120:154,1,90,2|8,0:0|0:0,0:0:0:0:
136,48,73813,2,0,L|224:30,1,90,2|8,0:0|0:0,0:0:0:0:
332,28,74431,5,2,0:0:0:0:
276,120,74741,1,8,0:0:0:0:
212,208,75050,2,0,L|176:260,2,45,2|0|8,0:0|0:0|0:0,0:0:0:0:
312,252,75668,2,0,P|356:244|408:256,2,90,2|8|2,0:0|0:0|0:0,0:0:0:0:
248,340,76596,1,8,0:0:0:0:
140,336,76906,6,0,L|44:308,1,90,2|8,0:0|0:0,0:0:0:0:
28,204,77524,2,0,L|114:178,1,90,2|8,0:0|0:0,0:0:0:0:
116,72,78143,2,0,P|168:84|216:76,1,90,2|8,0:0|0:0,0:0:0:0:
300,28,78761,1,2,0:0:0:0:
388,92,79070,1,8,0:0:0:0:
480,32,79380,1,4,0:0:0:0:
256,192,79534,12,4,81854,1:0:0:0:
256,272,82782,5,8,0:0:0:0:
148,252,83091,2,0,P|171:205|200:183,1,90,0|8,1:0|0:0,0:0:0:0:
310,183,83710,2,0,P|345:211|364:252,1,90,8|8,0:0|0:0,0:0:0:0:
256,44,84947,5,4,1:0:0:0:
256,192,85101,12,0,89122,0:0:0:0:
