osu file format v14

[General]
AudioFilename: NEVER SAY NEVER - THREE LIGHTS DOWN KINGS.mp3
AudioLeadIn: 1500
PreviewTime: 59122
Countdown: 0
SampleSet: Soft
StackLeniency: 0.7
Mode: 0
LetterboxInBreaks: 0
WidescreenStoryboard: 0

[Editor]
Bookmarks: 47691,89122
DistanceSpacing: 1.5
BeatDivisor: 8
GridSize: 4
TimelineZoom: 5.4

[Metadata]
Title:NEVER SAY NEVER -TV SIZE ENDING ver-
TitleUnicode:NEVER SAY NEVER -TV SIZE ENDING ver-
Artist:THREE LIGHTS DOWN KINGS
ArtistUnicode:THREE LIGHTS DOWN KINGS
Creator:tutuhaha
Version:Hard
Source:デュラララ!!×2 承
Tags:Durarara!! x2 Shou No_Gu qoot8123
BeatmapID:593655
BeatmapSetID:259541

[Difficulty]
HPDrainRate:5
CircleSize:3.5
OverallDifficulty:6
ApproachRate:8
SliderMultiplier:1.2
SliderTickRate:1

[Events]
//Background and Video events
Video,0,"NEVER SAY NEVER.flv"
0,0,"3.png",0,0
//Break Periods
//Storyboard Layer 0 (Background)
//Storyboard Layer 1 (Fail)
//Storyboard Layer 2 (Pass)
//Storyboard Layer 3 (Foreground)
//Storyboard Sound Samples

[TimingPoints]
205,309.278350515464,4,2,1,80,1,0
1906,-100,4,2,1,40,0,0
2060,-100,4,2,1,80,0,0
2215,-100,4,2,1,40,0,0
2369,-100,4,2,1,80,0,0
2524,-100,4,2,1,40,0,0
2679,-100,4,2,2,80,0,0
17524,-100,4,2,1,40,0,0
34844,-100,4,2,1,50,0,0
37318,-100,4,2,1,70,0,0
46596,-100,4,2,1,40,0,0
47215,-100,4,2,2,80,0,0
51545,-100,4,2,1,30,0,0
52163,-100,4,2,2,60,0,0
53246,-133.333333333333,4,2,2,80,0,0
54637,-200,4,2,2,30,0,0
55720,-133.333333333333,4,2,2,50,0,0
57112,-100,4,2,1,80,0,0
59586,-100,4,2,2,80,0,1
68864,-100,4,2,1,30,0,1
69483,-100,4,2,2,80,0,1
81854,-100,4,2,2,50,0,1
82163,-100,4,2,2,80,0,1
84174,-100,4,2,2,80,0,0
84947,-100,4,2,2,50,0,0
85024,-100,4,2,1,5,0,0

[Colours]
Combo1 : 255,192,0
Combo2 : 0,202,0
Combo3 : 18,124,255
Combo4 : 242,24,57

[HitObjects]
48,284,205,5,2,0:0:0:0:
200,184,514,1,2,0:0:0:0:
32,112,823,1,2,0:0:0:0:
184,12,1132,1,2,0:0:0:0:
112,144,1442,6,0,P|104:188|108:224,1,60,4|2,0:0|0:0,0:0:0:0:
172,264,1751,2,0,P|180:308|176:344,1,60,0|8,0:0|0:0,0:0:0:0:
264,356,2060,1,2,0:0:0:0:
268,264,2215,1,8,0:0:0:0:
260,176,2369,2,0,P|248:136|224:100,1,60,2|0,0:0|0:0,0:0:0:0:
120,144,2679,6,0,P|160:172|188:180,1,60,6|0,0:0|0:0,0:0:0:0:
344,216,2988,2,0,P|400:224|464:268,2,120,8|2|8,0:0|0:0|0:0,0:0:0:0:
188,228,3761,1,0,0:0:0:0:
188,228,3916,2,0,P|131:268|63:281,2,120,2|8|2,0:0|0:0|0:0,0:0:0:0:
264,176,4689,1,0,0:0:0:0:
256,88,4844,2,0,P|224:52|188:36,1,60,8|0,0:0|0:0,0:0:0:0:
56,148,5153,6,0,L|180:128,1,120,2|8,0:0|0:0,0:0:0:0:
408,200,5772,2,0,L|289:219,1,120,2|8,0:0|0:0,0:0:0:0:
160,344,6390,1,2,0:0:0:0:
208,164,6699,1,8,0:0:0:0:
86,276,7009,2,0,P|113:256|160:244,1,60,2|0,0:0|0:0,0:0:0:0:
228,268,7318,2,0,P|247:295|259:342,1,60,8|0,0:0|0:0,0:0:0:0:
160,344,7627,6,0,P|176:288|192:212,1,120,2|8,0:0|0:0,0:0:0:0:
232,32,8246,2,0,P|260:72|272:104,1,60,2|0,0:0|0:0,0:0:0:0:
314,204,8555,2,0,P|287:190|264:172,1,60,8|0,0:0|0:0,0:0:0:0:
452,76,8864,6,0,P|404:84|332:132,2,120,2|8|2,0:0|0:0|0:0,0:0:0:0:
448,168,9637,1,0,0:0:0:0:
476,252,9792,2,0,P|492:308|504:332,1,60,8|0,0:0|0:0,0:0:0:0:
348,280,10101,6,0,P|388:238|403:215,1,60,6|2,0:0|0:0,0:0:0:0:
448,168,10411,1,8,0:0:0:0:
452,76,10565,2,0,P|404:68|320:32,1,120,2|2,0:0|0:0,0:0:0:0:
252,20,11029,1,8,0:0:0:0:
160,24,11184,6,0,P|108:24|24:40,1,120,2|2,0:0|0:0,0:0:0:0:
24,124,11648,1,8,0:0:0:0:
112,136,11802,2,0,P|168:132|244:104,1,120,2|2,0:0|0:0,0:0:0:0:
256,196,12266,2,0,P|224:216|184:228,1,60,8|2,0:0|0:0,0:0:0:0:
316,128,12576,6,0,P|352:116|384:116,1,60,4|2,0:0|0:0,0:0:0:0:
464,116,12885,1,8,0:0:0:0:
420,196,13040,2,0,P|380:244|360:300,1,120,2|2,0:0|0:0,0:0:0:0:
344,384,13503,1,8,0:0:0:0:
276,324,13658,6,0,P|248:292|220:272,1,60,2|0,0:0|0:0,0:0:0:0:
144,292,13967,2,0,P|120:260|104:224,1,60,2|8,0:0|0:0,0:0:0:0:
48,76,14277,2,0,P|48:136|20:208,1,120,2|2,0:0|0:0,0:0:0:0:
140,108,14741,2,0,P|136:68|120:28,1,60,8|2,0:0|0:0,0:0:0:0:
200,180,15050,5,4,0:0:0:0:
200,180,15205,1,2,0:0:0:0:
184,268,15359,1,8,0:0:0:0:
144,348,15514,2,0,P|184:320|264:296,1,120,2|2,0:0|0:0,0:0:0:0:
336,268,15978,1,8,0:0:0:0:
424,264,16132,6,0,P|380:236|340:176,1,120,2|2,0:0|0:0,0:0:0:0:
272,124,16596,1,8,0:0:0:0:
192,84,16751,2,0,P|156:80|120:88,2,60,2|0|2,0:0|0:3|0:0,0:0:0:0:
272,32,17215,2,0,P|308:36|344:28,1,60,8|0,0:0|0:0,0:0:0:0:
272,124,17524,6,0,P|252:180|256:252,1,120,8|8,0:0|0:0,0:0:0:0:
324,296,17988,1,0,0:0:0:0:
324,296,18143,2,0,P|382:285|442:245,1,120,8|8,0:0|0:0,0:0:0:0:
480,176,18607,6,0,P|484:136|480:100,1,60,0|8,0:0|0:0,0:0:0:0:
400,84,18916,2,0,P|396:44|400:8,1,60,0|8,0:0|0:0,0:0:0:0:
308,40,19225,1,0,0:0:0:0:
308,40,19380,2,0,P|276:44|232:36,1,60,8|0,0:0|0:0,0:0:0:0:
160,124,19689,2,0,P|192:120|236:128,1,60,8|0,0:0|0:0,0:0:0:0:
88,184,19998,6,0,P|64:136|88:60,1,120,8|8,0:0|0:0,0:0:0:0:
172,208,20462,2,0,P|225:211|279:270,1,120,8|8,0:0|0:0,0:0:0:0:
192,296,20926,2,0,P|172:332|148:352,1,60,8|0,0:0|0:0,0:0:0:0:
104,272,21235,6,0,P|80:236|72:208,1,60,8|0,0:0|0:0,0:0:0:0:
32,96,21545,2,0,P|23:138|9:163,1,60,8|0,0:0|0:0,0:0:0:0:
116,136,21854,2,0,L|196:124,1,60,8|0,0:0|0:0,0:0:0:0:
300,184,22163,2,0,L|240:192,1,60,8|0,0:0|0:0,0:0:0:0:
344,104,22473,6,0,P|376:140|380:228,1,120,8|8,0:0|0:0,0:0:0:0:
248,96,22936,2,0,P|272:42|323:11,1,120,8|8,0:0|0:0,0:0:0:0:
408,36,23400,2,0,P|432:84|432:108,1,60,8|0,0:0|0:0,0:0:0:0:
248,96,23710,6,0,L|176:84,1,60,8|0,0:0|0:0,0:0:0:0:
144,164,24019,2,0,L|72:152,1,60,8|0,0:0|0:0,0:0:0:0:
180,252,24328,2,0,L|252:240,1,60,8|0,0:0|0:0,0:0:0:0:
284,320,24637,2,0,L|356:308,1,60,8|0,0:0|0:0,0:0:0:0:
312,104,24947,6,0,P|316:172|344:228,1,120,8|8,0:0|0:0,0:0:0:0:
416,260,25411,1,0,0:0:0:0:
416,260,25565,2,0,P|432:224|432:196,1,60,8|0,0:0|0:0,0:0:0:0:
400,64,25875,2,0,P|392:100|396:132,1,60,8|0,0:0|0:0,0:0:0:0:
328,280,26184,6,0,P|316:192|300:148,1,120,8|8,0:0|0:0,0:0:0:0:
168,48,26802,1,8,0:0:0:0:
168,48,27112,2,0,P|124:40|84:40,1,60,8|2,0:0|3:0,0:0:0:0:
252,92,27421,6,0,P|292:68|308:48,1,60,8|0,0:0|0:0,0:0:0:0:
176,136,27730,2,0,P|144:160|124:184,1,60,8|0,0:0|0:0,0:0:0:0:
60,228,28040,2,0,P|28:224|0:212,1,60,8|0,0:0|0:0,0:0:0:0:
80,312,28349,6,0,P|164:320|216:336,1,120,8|8,0:0|0:0,0:0:0:0:
288,328,28813,1,0,0:0:0:0:
288,328,28967,2,0,P|328:336|372:336,1,60,8|0,0:0|0:0,0:0:0:0:
424,292,29277,2,0,P|460:296|496:304,1,60,8|0,0:0|0:0,0:0:0:0:
348,256,29586,2,0,P|312:240|284:216,1,60,8|0,0:0|0:0,0:0:0:0:
372,108,29895,6,0,P|368:152|352:188,1,60,8|0,0:0|0:0,0:0:0:0:
208,216,30205,1,8,0:0:0:0:
208,216,30359,2,0,P|196:164|220:76,1,120,8|0,0:0|0:0,0:0:0:0:
292,68,30823,1,8,0:0:0:0:
372,108,30978,6,0,P|368:152|352:188,1,60,0|8,0:0|0:0,0:0:0:0:
444,204,31287,2,0,P|418:240|386:263,1,60,0|8,0:0|0:0,0:0:0:0:
464,320,31596,2,0,P|423:338|384:342,1,60,0|8,0:0|0:0,0:0:0:0:
288,256,31906,2,0,P|324:281|347:313,2,60,0|8|0,0:0|0:0|0:0,0:0:0:0:
200,248,32369,6,0,P|216:204|288:168,2,120,8|8|8,0:0|0:0|0:0,0:0:0:0:
240,332,33143,1,0,0:0:0:0:
152,328,33297,2,0,P|112:324|72:336,1,60,8|0,0:0|0:0,0:0:0:0:
12,284,33607,6,0,L|32:216,1,60,8|0,0:0|0:0,0:0:0:0:
52,140,33916,1,8,0:0:0:0:
80,56,34070,2,0,P|96:116|140:172,1,120,8|8,0:0|0:0,0:0:0:0:
216,136,34534,2,0,P|224:96|220:52,1,60,8|0,0:0|3:0,0:0:0:0:
196,224,34844,6,0,L|212:300,1,60,12|0,0:0|0:0,0:0:0:0:
316,224,35153,2,0,L|300:300,1,60,8|0,0:0|0:0,0:0:0:0:
196,140,35462,2,0,L|212:64,1,60,8|0,0:0|0:0,0:0:0:0:
316,140,35772,2,0,L|300:64,1,60,8|0,0:0|0:0,0:0:0:0:
116,180,36081,6,0,P|108:236|128:308,1,120,8|8,0:0|0:0,0:0:0:0:
396,180,36699,2,0,P|400:224|392:264,2,60,8|8|8,0:0|0:0|0:0,0:0:0:0:
316,140,37163,1,8,0:0:0:0:
300,228,37318,6,0,P|300:280|308:308,1,60,4|0,0:0|0:0,0:0:0:0:
232,168,37627,2,0,P|186:141|158:134,1,60,2|0,0:0|0:0,0:0:0:0:
316,140,37936,2,0,P|361:114|381:93,1,60,8|0,0:0|0:0,0:0:0:0:
478,126,38246,1,2,0:0:0:0:
478,126,38400,6,0,P|425:101|366:108,1,120,2|0,0:0|0:0,0:0:0:0:
216,156,38864,1,2,0:0:0:0:
216,156,39019,2,0,P|264:122|287:67,1,120,2|0,0:0|0:0,0:0:0:0:
156,16,39483,2,0,L|200:72,1,60,2|2,0:0|0:0,0:0:0:0:
267,231,39792,6,0,P|270:261|266:291,2,60,4|0|2,0:0|0:0|0:0,0:0:0:0:
335,172,40256,2,0,P|360:155|388:143,2,60,0|8|0,0:0|0:0|0:0,0:0:0:0:
252,144,40720,2,0,P|224:131|201:112,1,60,2|2,0:0|0:0,0:0:0:0:
39,98,41029,6,0,P|66:109|89:130,1,60,2|0,0:0|0:0,0:0:0:0:
156,192,41339,1,2,0:0:0:0:
216,260,41493,2,0,P|269:286|328:278,1,120,2|0,0:0|0:0,0:0:0:0:
240,168,41957,2,0,L|168:144,1,60,2|2,0:0|0:0,0:0:0:0:
328,192,42266,6,0,P|384:180|441:214,1,120,4|2,0:0|0:0,0:0:0:0:
344,364,42885,2,0,P|308:360|268:344,1,60,8|0,0:0|0:0,0:0:0:0:
208,308,43194,2,0,P|176:300|136:300,1,60,2|2,0:0|0:0,0:0:0:0:
60,312,43503,6,0,L|72:240,1,60
84,164,43813,1,2,0:0:0:0:
220,44,44122,1,8,0:0:0:0:
144,92,44277,2,0,P|128:52|132:16,2,60,0|2|2,0:0|0:0|0:0,0:0:0:0:
188,172,44741,6,0,P|208:216|204:252,1,60,0|0,0:0|0:0,0:0:0:0:
324,172,45050,2,0,P|304:216|308:252,1,60,2|0,0:0|0:0,0:0:0:0:
392,232,45359,2,0,L|456:232,2,60,8|0|2,0:0|0:0|0:0,0:0:0:0:
256,312,45823,6,0,L|116:312,1,120,2|0,0:0|0:0,0:0:0:0:
64,256,46287,2,0,P|96:232|128:224,1,60,2|2,0:0|0:0,0:0:0:0:
184,168,46596,2,0,P|152:144|120:136,1,60,8|8,0:0|0:0,0:0:0:0:
64,80,46906,2,0,P|96:56|128:48,1,60,8|8,0:0|0:0,0:0:0:0:
312,96,47215,6,0,P|248:100|188:60,1,120,6|8,0:0|0:0,0:0:0:0:
376,28,47679,1,0,0:0:0:0:
376,28,47833,2,0,L|436:48,1,60,2|0,0:0|0:0,0:0:0:0:
476,128,48143,2,0,L|416:148,1,60,8|0,0:0|0:0,0:0:0:0:
380,228,48452,6,0,P|328:216|252:248,1,120,2|8,0:0|0:0,0:0:0:0:
120,340,49070,2,0,L|176:296,1,60,2|0,0:0|0:0,0:0:0:0:
204,169,49380,2,0,P|180:187|164:212,1,60,8|0,0:0|0:0,0:0:0:0:
256,328,49689,6,0,P|311:347|369:336,1,120,6|8,0:0|0:0,0:0:0:0:
448,292,50153,1,0,0:0:0:0:
488,212,50308,2,0,L|472:144,1,60,2|0,0:0|0:0,0:0:0:0:
428,76,50617,2,0,L|444:8,1,60,8|0,0:0|0:0,0:0:0:0:
364,136,50926,6,0,L|350:194,1,60,2|0,0:0|0:0,0:0:0:0:
292,88,51235,2,0,L|276:20,1,60,8|0,0:0|0:0,0:0:0:0:
232,152,51545,2,0,L|248:200,3,30,8|8|8|8,0:0|0:0|0:0|0:0,0:0:0:0:
208,144,51854,2,0,L|188:180,3,30,8|8|8|8,0:0|0:0|0:0|0:0,0:0:0:0:
196,124,52163,6,0,P|156:112|128:84,1,60,4|0,0:0|0:0,0:0:0:0:
96,180,52473,2,0,L|92:252,1,60,2|0,0:0|0:0,0:0:0:0:
176,300,52782,2,0,L|179:240,1,60
268,264,53091,2,0,L|332:244,1,60,2|0,0:0|0:0,0:0:0:0:
356,228,53323,1,0,0:0:0:0:
356,228,53400,6,0,P|332:152|480:80,1,270.000010299683,2|0,0:0|0:0,0:0:0:0:
432,164,54637,1,4,1:0:0:0:
432,164,55720,5,0,0:0:0:0:
432,164,55797,1,0,0:0:0:0:
432,164,55875,2,0,P|444:96|392:36,2,135.000005149841,2|0|2,0:0|0:0|0:0,0:0:0:0:
256,192,57112,12,0,59277,0:0:0:0:
424,220,59586,6,0,P|384:200|352:200,1,60,6|0,0:0|0:0,0:0:0:0:
264,328,59895,2,0,P|316:324|376:280,1,120,8|2,0:0|0:0,0:0:0:0:
276,176,60359,1,0,0:0:0:0:
276,176,60514,2,0,L|292:256,1,60,8|0,0:0|0:0,0:0:0:0:
192,148,60823,6,0,P|168:100|88:64,1,120,2|8,0:0|0:0,0:0:0:0:
88,320,61442,2,0,L|160:320,1,60,2|0,0:0|0:0,0:0:0:0:
200,248,61751,6,0,P|268:236|340:252,2,120,8|2|8,0:0|0:0|0:0,0:0:0:0:
36,176,62679,1,2,0:0:0:0:
180,68,62988,1,8,0:0:0:0:
268,340,63297,6,0,L|332:328,1,60,2|0,0:0|0:0,0:0:0:0:
356,244,63607,2,0,L|420:256,1,60,8|0,0:0|0:0,0:0:0:0:
268,248,63916,2,0,P|248:216|240:176,1,60,2|0,0:0|0:0,0:0:0:0:
284,64,64225,2,0,P|304:96|312:136,1,60,8|0,0:0|0:0,0:0:0:0:
144,184,64534,5,2,0:0:0:0:
144,184,64689,1,0,0:0:0:0:
144,184,64844,2,0,P|136:248|168:320,1,120,8|2,0:0|0:0,0:0:0:0:
228,348,65308,1,0,0:0:0:0:
308,312,65462,2,0,P|328:280|336:244,1,60,8|0,0:0|0:0,0:0:0:0:
436,196,65772,6,0,L|364:180,1,60,2|0,0:0|0:0,0:0:0:0:
304,80,66081,2,0,L|362:93,1,60,8|0,0:0|0:0,0:0:0:0:
240,144,66390,2,0,P|216:104|236:20,1,120,2|8,0:0|0:0,0:0:0:0:
412,24,66854,1,0,0:0:0:0:
412,24,67009,6,0,P|440:64|444:96,1,60,2|0,0:0|0:0,0:0:0:0:
380,140,67318,2,0,P|352:180|348:212,1,60,8|0,0:0|0:0,0:0:0:0:
384,272,67627,2,0,P|412:312|416:344,1,60,2|0,0:0|0:0,0:0:0:0:
292,256,67936,2,0,P|264:216|260:184,1,60,8|0,0:0|0:0,0:0:0:0:
396,84,68246,6,0,P|424:144|424:212,1,120,2|8,0:0|0:0,0:0:0:0:
132,72,68864,2,0,L|88:40,3,30,8|8|8|8,0:0|0:0|0:0|0:0,0:0:0:0:
124,96,69174,2,0,L|80:128,3,30,8|8|8|8,0:0|0:0|0:0|0:0,0:0:0:0:
144,112,69483,6,0,P|196:120|288:96,1,120,6|8,0:0|0:0,0:0:0:0:
432,268,70101,2,0,L|364:248,1,60,2|0,0:0|0:0,0:0:0:0:
292,292,70411,2,0,L|224:312,1,60,8|0,0:0|0:0,0:0:0:0:
84,196,70720,6,0,P|130:221|224:230,1,120,6|8,0:0|0:0,0:0:0:0:
352,44,71339,2,0,P|304:56|280:76,1,60,2|0,0:0|0:0,0:0:0:0:
212,96,71648,2,0,P|164:84|140:64,1,60,8|0,0:0|0:0,0:0:0:0:
280,152,71957,6,0,P|344:168|388:220,2,120,6|8|2,0:0|0:0|0:0,0:0:0:0:
188,308,72885,1,8,0:0:0:0:
48,92,73194,6,0,L|48:16,1,60,2|0,0:0|0:0,0:0:0:0:
132,120,73503,2,0,L|132:44,1,60,8|0,0:0|0:0,0:0:0:0:
216,32,73813,2,0,L|216:92,1,60,2|0,0:0|0:0,0:0:0:0:
300,120,74122,2,0,L|300:44,1,60,8|0,0:0|0:0,0:0:0:0:
472,24,74431,6,0,P|412:52|380:116,1,120,2|8,0:0|0:0,0:0:0:0:
256,316,75050,1,2,0:0:0:0:
324,260,75205,1,0,0:0:0:0:
240,232,75359,1,8,0:0:0:0:
240,232,75668,6,0,P|204:224|164:228,1,60,2|0,0:0|0:0,0:0:0:0:
60,256,75978,2,0,P|84:228|101:192,1,60,8|0,0:0|0:0,0:0:0:0:
132,88,76287,2,0,P|143:123|166:155,1,60,2|0,0:0|0:0,0:0:0:0:
200,308,76596,2,0,P|188:343|165:375,1,60,8|0,0:0|0:0,0:0:0:0:
156,196,76906,6,0,P|184:152|256:112,1,120,2|8,0:0|0:0,0:0:0:0:
324,84,77369,1,0,0:0:0:0:
412,68,77524,2,0,P|452:68|500:64,1,60,2|0,0:0|0:0,0:0:0:0:
476,156,77833,2,0,P|440:172|416:196,1,60,8|0,0:0|0:0,0:0:0:0:
468,364,78143,6,0,P|488:307|492:248,2,120,2|8|2,0:0|0:0|0:0,0:0:0:0:
384,332,78916,1,0,0:0:0:0:
324,264,79070,2,0,P|316:228|316:184,1,60,8|0,0:0|0:0,0:0:0:0:
408,108,79380,6,0,P|336:100|292:56,1,120,4|8,0:0|0:0,0:0:0:0:
124,52,79998,2,0,L|136:176,1,120,0|8,0:0|0:0,0:0:0:0:
248,312,80617,6,0,L|236:192,1,120,0|8,0:0|0:0,0:0:0:0:
336,40,81235,2,0,P|392:56|436:108,1,120,0|8,0:0|0:0,0:0:0:0:
432,283,81854,6,0,P|392:327|336:344,1,120,4|8,1:0|0:0,0:0:0:0:
260,180,82473,2,0,L|272:148,3,30
240,120,82782,2,0,L|260:52,1,60,8|0,0:0|0:0,0:0:0:0:
380,92,83091,6,0,L|400:24,1,60,0|8,1:0|0:0,0:0:0:0:
480,196,83555,5,0,1:0:0:0:
480,196,83710,1,8,0:0:0:0:
256,62,84019,5,0,1:0:0:0:
256,62,84174,1,8,0:0:0:0:
256,88,84947,5,4,1:0:0:0:
256,192,85024,12,0,89122,0:0:0:0:
