osu file format v14

[General]
AudioFilename: NEVER SAY NEVER - THREE LIGHTS DOWN KINGS.mp3
AudioLeadIn: 1500
PreviewTime: 59122
Countdown: 0
SampleSet: Soft
StackLeniency: 0.7
Mode: 0
LetterboxInBreaks: 0
WidescreenStoryboard: 0

[Editor]
DistanceSpacing: 1.3
BeatDivisor: 8
GridSize: 4
TimelineZoom: 5.4

[Metadata]
Title:NEVER SAY NEVER -TV SIZE ENDING ver-
TitleUnicode:NEVER SAY NEVER -TV SIZE ENDING ver-
Artist:THREE LIGHTS DOWN KINGS
ArtistUnicode:THREE LIGHTS DOWN KINGS
Creator:tutuhaha
Version:Extra
Source:デュラララ!!×2 承
Tags:Durarara!! x2 Shou No_Gu qoot8123
BeatmapID:593141
BeatmapSetID:259541

[Difficulty]
HPDrainRate:7
CircleSize:4
OverallDifficulty:8
ApproachRate:9
SliderMultiplier:1.8
SliderTickRate:1

[Events]
//Background and Video events
Video,0,"NEVER SAY NEVER.flv"
0,0,"0.png",0,0
//Break Periods
//Storyboard Layer 0 (Background)
//Storyboard Layer 1 (Fail)
//Storyboard Layer 2 (Pass)
//Storyboard Layer 3 (Foreground)
//Storyboard Sound Samples

[TimingPoints]
205,309.278350515464,4,2,1,80,1,0
205,-83.3333333333333,4,2,1,80,0,0
1442,-100,4,2,1,80,0,0
1906,-100,4,2,1,40,0,0
2060,-100,4,2,1,80,0,0
2215,-100,4,2,1,40,0,0
2369,-100,4,2,1,80,0,0
2679,-100,4,2,2,80,0,0
17524,-133.333333333333,4,2,1,40,0,0
34844,-133.333333333333,4,2,1,50,0,0
37318,-100,4,2,1,70,0,0
46596,-100,4,2,1,40,0,0
47215,-100,4,2,2,80,0,0
51545,-100,4,2,2,40,0,0
51699,-100,4,2,2,60,0,0
53246,-200,4,2,2,80,0,0
53439,-200,4,2,2,30,0,0
54328,-200,4,2,2,80,0,0
54637,-200,4,2,2,30,0,0
55720,-200,4,2,2,50,0,0
57112,-100,4,2,1,80,0,0
58349,-100,4,2,1,80,0,0
59586,-100,4,2,2,80,0,1
68864,-100,4,2,1,30,0,1
69483,-100,4,2,2,80,0,1
81854,-100,4,2,2,50,0,1
81931,-100,4,2,2,80,0,1
84174,-100,4,2,2,80,0,0
84947,-100,4,2,2,60,0,0
85024,-100,4,2,1,5,0,0

[Colours]
Combo1 : 255,192,0
Combo2 : 0,202,0
Combo3 : 18,124,255
Combo4 : 242,24,57

[HitObjects]
68,52,205,6,0,P|152:56|188:80,1,107.999996704102,2|0,0:0|0:0,0:0:0:0:
420,216,514,2,0,L|308:188,1,107.999996704102,2|0,0:0|0:0,0:0:0:0:
68,332,823,6,0,P|152:328|188:304,1,107.999996704102,2|0,0:0|0:0,0:0:0:0:
68,52,1132,2,0,L|100:164,1,107.999996704102,2|0,0:0|0:0,0:0:0:0:
328,352,1442,6,0,L|296:240,1,90,4|0,0:0|0:0,0:0:0:0:
140,96,1751,1,2,0:0:0:0:
140,96,1906,1,8,3:0:0:0:
184,248,2060,1,0,0:0:0:0:
184,248,2215,1,8,3:0:0:0:
256,144,2369,1,0,3:1:0:0:
60,260,2524,1,0,0:0:0:0:
360,220,2679,6,0,P|392:180|400:132,1,90,6|0,0:0|0:0,0:0:0:0:
156,32,2988,2,0,P|120:104|184:216,1,180,8|2,0:0|0:0,0:0:0:0:
244,120,3452,1,0,0:0:0:0:
340,52,3607,2,0,L|448:52,1,90,8|0,0:0|0:0,0:0:0:0:
476,292,3916,6,0,B|372:292|372:292|304:332,1,180,2|8,0:0|0:0,0:0:0:0:
196,372,4380,1,0,0:0:0:0:
116,288,4534,1,2,0:0:0:0:
280,120,4689,1,0,0:0:0:0:
84,164,4844,1,8,0:0:0:0:
312,244,4998,1,0,0:0:0:0:
172,88,5153,6,0,P|184:176|224:284,2,180,2|8|2,0:0|0:0|0:0,0:0:0:0:
280,120,5926,1,0,0:0:0:0:
116,288,6081,1,8,0:0:0:0:
84,164,6235,1,0,0:0:0:0:
312,244,6390,6,0,P|356:224|400:188,1,90,2|0,0:0|0:0,0:0:0:0:
384,80,6699,1,8,0:0:0:0:
228,200,6854,1,0,0:0:0:0:
479,332,7009,2,0,P|436:319|392:312,1,90,2|0,0:0|0:0,0:0:0:0:
228,200,7318,2,0,P|180:192|132:176,1,90,8|0,0:0|0:0,0:0:0:0:
152,64,7627,5,2,0:0:0:0:
188,296,7782,1,0,0:0:0:0:
364,140,7936,2,0,P|340:220|280:316,1,180,8|2,0:0|0:0,0:0:0:0:
228,200,8400,1,0,0:0:0:0:
308,44,8555,1,8,0:0:0:0:
428,248,8710,1,0,0:0:0:0:
240,112,8864,6,0,P|192:92|128:88,1,90,2|0,0:0|0:0,0:0:0:0:
0,216,9174,2,0,P|40:235|84:244,1,90,8|0,0:0|0:0,0:0:0:0:
340,240,9483,1,0,0:0:0:0:
352,264,9560,1,0,0:0:0:0:
360,288,9637,1,0,0:0:0:0:
368,312,9715,1,0,0:0:0:0:
300,360,9792,1,0,0:0:0:0:
288,336,9869,1,0,0:0:0:0:
280,312,9946,1,0,0:0:0:0:
272,288,10024,1,0,0:0:0:0:
212,232,10101,6,0,P|212:184|232:140,1,90,4|2,2:0|0:0,0:0:0:0:
304,56,10411,1,8,0:0:0:0:
88,188,10565,2,0,P|36:204|-4:200,1,90,2|0,0:0|0:0,0:0:0:0:
124,40,10875,2,0,P|176:24|216:28,1,90,2|8,2:0|0:0,0:0:0:0:
364,160,11184,6,0,L|160:128,1,180,2|2,2:0|2:0,0:0:0:0:
72,108,11648,1,8,0:0:0:0:
256,52,11802,2,0,P|288:116|236:228,1,180,2|2,2:0|2:0,0:0:0:0:
168,136,12266,1,8,0:0:0:0:
400,164,12421,1,2,2:0:0:0:
172,40,12576,6,0,P|120:28|60:24,1,90,6|2,2:0|2:0,0:0:0:0:
180,236,12885,1,8,0:0:0:0:
206,124,13040,2,0,P|116:132|28:120,1,180,2|2,2:0|2:0,0:0:0:0:
288,44,13503,1,8,0:0:0:0:
444,200,13658,6,0,P|368:188|232:204,1,180,2|2,0:0|0:0,2:0:0:0:
180,276,14122,1,8,0:0:0:0:
88,348,14277,1,2,2:0:0:0:
140,180,14431,1,0,0:0:0:0:
284,280,14586,1,2,2:0:0:0:
52,244,14741,2,0,P|36:200|44:128,1,90,8|2,0:0|2:0,0:0:0:0:
256,28,15050,5,6,2:0:0:0:
36,68,15205,1,2,2:0:0:0:
244,152,15359,1,8,0:0:0:0:
148,4,15514,2,0,P|128:80|148:200,1,180,2|2,2:0|2:0,0:0:0:0:
256,368,15978,1,8,0:0:0:0:
332,280,16132,1,2,0:0:0:0:
448,264,16287,6,0,L|480:164,1,90,0|2,0:0|0:0,0:0:0:0:
268,106,16596,2,0,L|240:192,1,90,8|0,0:0|0:0,0:0:0:0:
136,348,16906,1,4,2:0:0:0:
132,168,17060,1,2,2:0:0:0:
244,308,17215,1,8,0:0:0:0:
68,260,17369,1,2,2:0:0:0:
244,308,17524,6,0,P|300:320|320:328,1,67.5000025749208,8|0,0:0|0:0,0:0:0:0:
392,292,17833,2,0,P|440:322|456:336,1,67.5000025749208,8|0,0:0|0:0,0:0:0:0:
268,108,18143,2,0,P|212:96|192:88,1,67.5000025749208,8|0,0:0|0:0,0:0:0:0:
120,124,18452,2,0,P|71:93|55:79,1,67.5000025749208,8|0,0:0|0:0,0:0:0:0:
20,164,18761,5,8,0:0:0:0:
48,248,18916,1,0,0:0:0:0:
120,124,19070,1,8,0:0:0:0:
172,52,19225,1,0,0:0:0:0:
136,220,19380,1,8,0:0:0:0:
128,308,19534,1,0,0:0:0:0:
44,80,19689,2,0,P|40:56|48:12,1,67.5000025749208,8|0,0:0|0:0,0:0:0:0:
200,164,19998,6,0,L|260:200,1,67.5000025749208,8|0,0:0|0:0,0:0:0:0:
324,140,20308,2,0,L|384:176,1,67.5000025749208,8|0,0:0|0:0,0:0:0:0:
336,252,20617,2,0,L|300:312,1,67.5000025749208,8|0,0:0|0:0,0:0:0:0:
248,84,20926,2,0,L|282:26,1,67.5000025749208,8|0,0:0|0:0,0:0:0:0:
376,32,21235,5,8,0:0:0:0:
376,32,21390,1,0,0:0:0:0:
464,200,21545,1,8,0:0:0:0:
464,200,21699,1,0,0:0:0:0:
464,104,21854,2,0,P|484:64|480:20,1,67.5000025749208,8|0,0:0|0:0,0:0:0:0:
360,144,22163,2,0,L|332:224,1,67.5000025749208,8|0,0:0|0:0,0:0:0:0:
136,112,22473,6,0,P|216:136|292:128,1,135.000005149842,8|8,0:0|0:0,0:0:0:0:
312,60,22936,1,0,0:0:0:0:
224,48,23091,1,8,0:0:0:0:
256,228,23246,1,0,0:0:0:0:
312,60,23400,1,8,0:0:0:0:
164,216,23555,1,0,0:0:0:0:
340,164,23710,6,0,P|280:144|192:136,1,135.000005149842,8|8,0:0|0:0,0:0:0:0:
32,302,24174,1,0,0:0:0:0:
32,302,24328,2,0,P|80:302|120:298,1,67.5000025749208,8|0,0:0|0:0,0:0:0:0:
164,216,24637,2,0,P|130:213|96:214,1,67.5000025749208,8|0,0:0|0:0,0:0:0:0:
316,224,24947,5,8,0:0:0:0:
240,176,25101,1,0,0:0:0:0:
320,136,25256,1,8,0:0:0:0:
308,312,25411,1,0,0:0:0:0:
236,260,25565,5,8,0:0:0:0:
396,184,25720,1,0,0:0:0:0:
388,272,25875,1,8,0:0:0:0:
240,176,26029,1,0,0:0:0:0:
380,356,26184,6,0,P|428:376|472:380,1,67.5000025749208,8|0,0:0|0:0,0:0:0:0:
164,212,26493,2,0,P|122:243|97:279,1,67.5000025749208,8|0,0:0|0:0,0:0:0:0:
396,96,26802,2,0,P|389:44|370:5,1,67.5000025749208,8|0,0:0|0:0,0:0:0:0:
296,24,27112,1,8,0:0:0:0:
316,208,27266,1,2,3:3:0:0:
216,60,27421,6,0,P|176:44|144:16,1,67.5000025749208,2|0,3:0|0:0,0:0:0:0:
12,92,27730,2,0,P|52:88|100:92,1,67.5000025749208,8|0,0:0|0:0,0:0:0:0:
216,168,28040,2,0,L|120:148,1,67.5000025749208,8|0,0:0|0:0,0:0:0:0:
252,256,28349,2,0,L|318:269,1,67.5000025749208,8|0,0:0|0:0,0:0:0:0:
488,192,28658,6,0,P|400:196|324:184,2,135.000005149842,8|8|8,0:0|0:0|0:0,0:0:0:0:
508,108,29431,1,0,0:0:0:0:
416,284,29586,1,8,0:0:0:0:
360,100,29741,1,0,0:0:0:0:
488,192,29895,6,0,P|452:188|396:188,1,67.5000025749208,8|0,0:0|0:0,0:0:0:0:
332,188,30205,1,8,0:0:0:0:
244,196,30359,1,0,0:0:0:0:
158,217,30514,2,0,P|114:229|74:233,1,67.5000025749208,8|0,0:0|0:0,0:0:0:0:
40,164,30823,1,8,0:0:0:0:
188,116,30978,1,0,0:0:0:0:
280,316,31132,6,0,P|204:316|128:296,1,135.000005149842,8|8,0:0|0:0,0:0:0:0:
92,232,31596,1,0,0:0:0:0:
180,220,31751,1,8,0:0:0:0:
76,356,31906,1,0,0:0:0:0:
40,164,32060,2,0,P|56:116|84:84,1,67.5000025749208,8|2,0:0|3:0,0:0:0:0:
140,52,32369,5,8,0:0:0:0:
272,152,32524,1,0,0:0:0:0:
292,52,32679,2,0,P|240:68|204:88,1,67.5000025749208,8|0,0:0|0:0,0:0:0:0:
172,140,32988,1,8,0:0:0:0:
272,152,33143,1,0,0:0:0:0:
216,224,33297,1,8,0:0:0:0:
140,52,33452,1,0,0:0:0:0:
356,128,33607,6,0,P|356:172|340:208,1,67.5000025749208,8|0,0:0|0:0,0:0:0:0:
303,329,33916,2,0,P|294:297|296:264,1,67.5000025749208,8|0,0:0|0:0,0:0:0:0:
444,144,34225,1,8,0:0:0:0:
428,232,34380,1,0,0:0:0:0:
304,329,34534,2,0,P|264:325|216:329,1,67.5000025749208,8|2,0:0|3:0,0:0:0:0:
100,140,34844,5,12,0:0:0:0:
187,159,34998,1,0,0:0:0:0:
159,74,35153,1,8,0:0:0:0:
43,207,35308,1,0,0:0:0:0:
131,222,35462,5,8,0:0:0:0:
71,55,35617,1,0,0:0:0:0:
187,159,35772,1,8,0:0:0:0:
15,123,35926,1,0,0:0:0:0:
224,24,36081,6,0,P|276:24|316:28,1,67.5000025749208,8|0,0:0|0:0,0:0:0:0:
444,180,36390,2,0,P|496:180|536:176,1,67.5000025749208,8|0,0:0|0:0,0:0:0:0:
372,56,36699,1,8,0:0:0:0:
276,116,36854,1,8,0:0:0:0:
224,24,37009,1,8,0:0:0:0:
368,196,37163,1,8,0:0:0:0:
372,56,37318,5,4,0:0:0:0:
144,184,37473,1,0,0:0:0:0:
88,284,37627,2,0,P|40:276|-16:248,1,90,2|0,0:0|0:0,0:0:0:0:
224,24,37936,1,8,0:0:0:0:
224,24,38091,2,0,P|241:65|248:109,1,90,0|2,0:0|0:0,0:0:0:0:
224,312,38400,1,2,0:0:0:0:
112,276,38555,6,0,P|60:276|0:288,1,90
336,356,38864,2,0,P|388:356|448:344,1,90,2|0,0:0|0:0,0:0:0:0:
488,248,39174,1,8,0:0:0:0:
380,204,39328,1,0,0:0:0:0:
496,72,39483,1,2,0:0:0:0:
488,248,39637,1,2,0:0:0:0:
284,164,39792,6,0,P|232:164|172:152,1,90,4|0,0:0|0:0,0:0:0:0:
116,72,40101,1,2,0:0:0:0:
232,76,40256,1,0,0:0:0:0:
232,252,40411,2,0,P|244:316|260:352,1,90,8|0,0:0|0:0,0:0:0:0:
344,264,40720,1,2,0:0:0:0:
232,76,40875,1,2,0:0:0:0:
448,104,41029,6,0,P|384:116|348:132,1,90
104,296,41339,1,2,0:0:0:0:
104,296,41493,2,0,P|40:284|4:268,1,90,0|8,0:0|0:0,0:0:0:0:
232,76,41802,1,0,0:0:0:0:
340,28,41957,2,0,P|392:36|460:64,1,90,2|2,0:0|0:0,0:0:0:0:
496,332,42266,6,0,P|456:288|436:248,1,90,4|0,0:0|0:0,0:0:0:0:
260,20,42576,2,0,P|288:88|284:220,1,180,2|8,0:0|0:0,0:0:0:0:
216,284,43040,1,0,0:0:0:0:
112,336,43194,2,0,P|60:344|12:340,1,90,2|2,0:0|0:0,0:0:0:0:
84,240,43503,5,0,0:0:0:0:
200,372,43658,1,0,0:0:0:0:
316,240,43813,1,2,0:0:0:0:
373,341,43967,2,0,P|328:343|284:336,1,90,0|8,0:0|0:0,0:0:0:0:
488,72,44277,1,0,0:0:0:0:
488,72,44431,2,0,P|436:92|404:124,1,90,2|2,0:0|0:0,0:0:0:0:
404,232,44741,5,4,0:0:0:0:
312,160,44895,1,0,0:0:0:0:
484,184,45050,1,2,0:0:0:0:
308,264,45205,1,0,0:0:0:0:
180,112,45359,2,0,P|180:64|196:24,1,90,8|0,0:0|0:0,0:0:0:0:
488,68,45668,1,2,0:0:0:0:
484,184,45823,6,0,P|484:232|468:272,1,90,2|0,0:0|0:0,0:0:0:0:
212,208,46132,1,0,0:0:0:0:
120,284,46287,2,0,P|112:340|120:388,1,90,2|0,0:0|0:0,0:0:0:0:
320,236,46596,6,0,L|372:228,1,45,8|8,0:0|0:0,0:0:0:0:
404,148,46751,2,0,L|359:154,1,45,8|8,0:0|0:0,0:0:0:0:
296,104,46906,5,8,0:0:0:0:
292,88,46983,1,8,0:0:0:0:
288,72,47060,1,8,0:0:0:0:
284,56,47137,1,8,0:0:0:0:
280,40,47215,6,0,P|272:92|252:144,1,90,6|0,2:0|0:0,0:0:0:0:
252,296,47524,2,0,P|260:348|280:400,1,90,8|0,0:0|0:0,0:0:0:0:
364,312,47833,1,2,0:0:0:0:
188,196,47988,1,0,0:0:0:0:
408,204,48143,2,0,P|456:208|504:228,1,90,8|0,0:0|0:0,0:0:0:0:
252,296,48452,6,0,P|284:232|296:192,1,90,2|0,0:0|0:0,0:0:0:0:
300,96,48761,1,8,0:0:0:0:
188,196,48916,1,0,0:0:0:0:
132,24,49070,2,0,P|132:80|140:136,1,90,2|0,0:0|0:0,0:0:0:0:
380,24,49380,2,0,P|380:80|372:136,1,90,8|0,0:0|0:0,0:0:0:0:
112,348,49689,6,0,P|112:296|168:212,1,135,6|0,0:0|0:0,0:0:0:0:
144,148,49998,2,0,L|32:124,1,90,8|0,0:0|0:0,0:0:0:0:
48,52,50230,1,0,0:0:0:0:
48,52,50308,2,0,P|112:36|156:40,1,90,2|0,0:0|0:0,0:0:0:0:
252,52,50617,1,8,0:0:0:0:
144,148,50772,1,0,0:0:0:0:
260,160,50926,5,2,0:0:0:0:
136,36,51081,1,0,0:0:0:0:
168,240,51235,2,0,P|204:288|216:340,1,90,8|0,0:0|0:0,0:0:0:0:
216,336,51467,1,0,0:0:0:0:
216,356,51545,1,4,1:0:0:0:
320,304,51699,1,0,3:0:0:0:
351,87,51854,1,0,3:0:0:0:
453,279,52009,1,2,0:0:0:0:
256,184,52163,5,2,0:0:0:0:
256,184,52318,1,0,0:0:0:0:
472,145,52473,1,2,0:0:0:0:
472,145,52627,1,0,0:0:0:0:
320,304,52782,1,2,0:0:0:0:
320,304,52936,1,0,0:0:0:0:
351,87,53091,1,2,0:0:0:0:
453,279,53246,5,0,0:0:0:0:
453,279,53323,1,0,0:0:0:0:
453,279,53400,2,0,P|504:240|396:236,1,270,2|0,0:0|0:0,0:0:0:0:
120,240,54637,6,0,P|56:232|160:180,1,315,4|0,1:0|0:0,0:0:0:0:
228,132,55797,1,0,0:0:0:0:
228,132,55875,2,0,P|188:72|124:44,2,135,2|0|2,0:0|0:0|0:0,0:0:0:0:
446,260,57112,5,0,0:0:0:0:
427,237,57189,1,0,0:0:0:0:
402,219,57266,1,0,0:0:0:0:
375,207,57344,1,0,0:0:0:0:
346,200,57421,1,0,0:0:0:0:
316,200,57498,1,0,0:0:0:0:
287,204,57576,1,0,0:0:0:0:
258,217,57653,1,0,0:0:0:0:
232,260,57730,5,0,0:0:0:0:
196,268,57808,1,0,0:0:0:0:
160,264,57885,1,0,0:0:0:0:
128,248,57962,1,0,0:0:0:0:
108,216,58040,1,0,0:0:0:0:
104,180,58117,1,0,0:0:0:0:
112,144,58194,1,0,0:0:0:0:
136,116,58272,1,0,0:0:0:0:
208,76,58349,6,0,L|218:32,3,45,0|0|0|0,0:0|0:0|0:0|0:0,0:0:0:0:
256,164,58658,2,0,L|266:207,3,45,0|0|0|0,0:0|0:0|0:0|0:0,0:0:0:0:
344,108,58967,2,0,L|354:64,3,45,0|0|0|0,0:0|0:0|0:0|0:0,0:0:0:0:
420,172,59277,5,0,0:0:0:0:
424,196,59354,1,0,0:0:0:0:
428,220,59431,1,0,0:0:0:0:
428,244,59509,1,0,0:0:0:0:
424,268,59586,6,0,P|424:324|408:376,1,90,6|0,0:0|0:0,0:0:0:0:
108,364,59895,2,0,P|108:308|124:256,1,90,8|0,0:0|0:0,0:0:0:0:
160,164,60205,1,2,0:0:0:0:
232,340,60359,1,0,0:0:0:0:
316,168,60514,2,0,P|312:116|296:72,1,90,8|0,0:0|0:0,0:0:0:0:
196,252,60823,6,0,P|260:260|308:252,1,90,2|0,0:0|0:0,0:0:0:0:
148,36,61132,2,0,P|84:28|36:36,1,90,8|0,0:0|0:0,0:0:0:0:
20,140,61442,1,2,0:0:0:0:
144,328,61596,1,0,0:0:0:0:
228,116,61751,2,0,P|236:60|232:4,1,90,8|0,0:0|0:0,0:0:0:0:
360,320,62060,6,0,P|448:280|524:216,1,180,2|8,0:0|0:0,0:0:0:0:
348,24,62524,1,0,0:0:0:0:
288,127,62679,2,0,P|297:171|316:212,1,90,2|0,0:0|0:0,0:0:0:0:
484,360,62988,1,8,0:0:0:0:
444,140,63143,1,0,0:0:0:0:
268,276,63297,6,0,P|208:268|148:276,1,90,2|0,0:0|0:0,0:0:0:0:
44,96,63607,2,0,P|67:151|104:199,1,90,8|0,0:0|0:0,0:0:0:0:
212,364,63916,1,2,0:0:0:0:
220,160,64070,1,0,0:0:0:0:
65,297,64225,2,0,P|44:337|16:372,1,90,8|0,0:0|0:0,0:0:0:0:
44,96,64534,5,2,0:0:0:0:
160,284,64689,1,0,0:0:0:0:
212,40,64844,2,0,P|228:144|296:216,1,180,8|2,0:0|0:0,0:0:0:0:
372,264,65308,1,0,0:0:0:0:
476,208,65462,2,0,P|504:156|508:108,1,90,8|0,0:0|0:0,0:0:0:0:
148,172,65772,6,0,P|204:256|236:368,2,180,2|8|2,0:0|0:0|0:0,0:0:0:0:
32,148,66545,1,0,0:0:0:0:
268,196,66699,2,0,P|320:200|368:192,1,90,8|0,0:0|0:0,0:0:0:0:
512,44,67009,6,0,L|404:76,1,90,2|0,0:0|0:0,0:0:0:0:
320,20,67318,2,0,L|212:52,1,90,8|0,0:0|0:0,0:0:0:0:
0,340,67627,2,0,L|108:308,1,90,2|0,0:0|0:0,0:0:0:0:
192,364,67936,2,0,L|300:332,1,90,8|0,0:0|0:0,0:0:0:0:
384,236,68246,5,2,0:0:0:0:
332,132,68400,1,0,0:0:0:0:
272,232,68555,1,8,0:0:0:0:
452,132,68710,1,0,0:0:0:0:
252,160,68864,5,8,0:0:0:0:
230,159,68942,1,8,0:0:0:0:
208,158,69019,1,8,0:0:0:0:
187,157,69096,1,8,0:0:0:0:
172,176,69174,5,8,0:0:0:0:
162,158,69251,1,8,0:0:0:0:
153,136,69328,1,8,0:0:0:0:
145,113,69406,1,8,0:0:0:0:
137,91,69483,5,6,0:0:0:0:
176,344,69637,1,0,0:0:0:0:
56,188,69792,2,0,P|32:144|0:104,1,90,8|0,0:0|0:0,0:0:0:0:
280,280,70101,2,0,P|330:281|380:273,1,90,2|0,0:0|0:0,0:0:0:0:
440,180,70411,1,8,0:0:0:0:
388,364,70565,1,0,0:0:0:0:
336,108,70720,5,6,0:0:0:0:
472,324,70875,1,0,0:0:0:0:
336,108,71029,2,0,P|336:56|328:0,1,90,8|0,0:0|0:0,0:0:0:0:
176,276,71339,2,0,P|176:328|184:384,1,90,2|0,0:0|0:0,0:0:0:0:
264,200,71648,1,8,0:0:0:0:
68,248,71802,1,0,0:0:0:0:
112,36,71957,6,0,P|136:100|148:152,1,90,6|0,0:0|0:0,0:0:0:0:
400,36,72266,2,0,P|376:100|364:152,1,90,8|0,0:0|0:0,0:0:0:0:
168,260,72576,2,0,P|112:252|64:224,1,90,2|0,0:0|0:0,0:0:0:0:
344,260,72885,2,0,P|400:252|448:224,1,90,8|0,0:0|0:0,0:0:0:0:
340,128,73194,5,2,0:0:0:0:
232,168,73349,1,0,0:0:0:0:
260,56,73503,1,8,0:0:0:0:
416,224,73658,1,0,0:0:0:0:
448,114,73813,1,2,0:0:0:0:
304,256,73967,1,0,0:0:0:0:
174,34,74122,2,0,P|246:50|290:70,1,90,8|0,0:0|0:0,0:0:0:0:
388,328,74431,6,0,P|432:352|500:368,1,90,2|0,0:0|0:0,0:0:0:0:
240,244,74741,2,0,P|197:270|149:320,1,90,8|0,0:0|0:0,0:0:0:0:
356,216,75050,1,2,0:0:0:0:
416,116,75205,1,0,0:0:0:0:
300,312,75359,2,0,P|273:354|223:402,1,90,8|0,0:0|0:0,0:0:0:0:
264,160,75668,5,2,0:0:0:0:
448,272,75823,1,0,0:0:0:0:
416,116,75978,2,0,P|442:73|492:25,1,90,8|0,0:0|0:0,0:0:0:0:
356,216,76287,1,2,0:0:0:0:
320,80,76442,1,0,0:0:0:0:
216,172,76596,2,0,P|165:170|99:150,1,90,8|0,0:0|0:0,0:0:0:0:
8,332,76906,6,0,P|80:284|176:256,1,180,2|8,0:0|0:0,0:0:0:0:
268,316,77369,1,0,0:0:0:0:
268,200,77524,1,2,0:0:0:0:
172,368,77679,1,0,0:0:0:0:
160,144,77833,2,0,P|164:88|180:52,1,90,8|0,0:0|0:0,0:0:0:0:
456,24,78143,6,0,L|352:24,1,90,2|0,0:0|0:0,0:0:0:0:
512,136,78452,2,0,L|420:136,1,90,8|0,0:0|0:0,0:0:0:0:
56,360,78761,2,0,L|160:360,1,90,2|0,0:0|0:0,0:0:0:0:
0,248,79070,2,0,L|92:248,1,90,8|0,0:0|0:0,0:0:0:0:
301,21,79380,6,0,L|270:137,1,90,4|0,0:0|0:0,0:0:0:0:
256,364,79689,1,8,0:0:0:0:
260,348,79766,1,0,0:0:0:0:
268,332,79844,1,0,0:0:0:0:
280,316,79921,1,0,0:0:0:0:
296,304,79998,6,0,L|360:296,1,45,0|0,0:0|0:0,0:0:0:0:
312,228,80153,2,0,L|376:220,1,45
324,152,80308,2,0,L|260:144,1,45,8|0,0:0|0:0,0:0:0:0:
308,76,80462,2,0,L|244:68,1,45
204,24,80617,5,0,0:0:0:0:
192,40,80694,1,0,0:0:0:0:
176,52,80772,1,0,0:0:0:0:
160,60,80849,1,0,0:0:0:0:
140,92,80926,5,8,0:0:0:0:
104,88,81003,1,0,0:0:0:0:
68,92,81081,1,0,0:0:0:0:
36,108,81158,1,0,0:0:0:0:
12,136,81235,6,0,L|20:200,1,45,0|0,0:0|0:0,0:0:0:0:
92,168,81390,2,0,L|88:232,1,45
165,222,81545,2,0,L|150:284,1,45,8|0,0:0|0:0,0:0:0:0:
228,284,81699,2,0,L|202:343,1,45
304,304,81854,6,4,P|316:240|424:176,1,180,4|8,1:0|0:0,0:0:0:0:
452,168,82241,5,0,0:0:0:0:
424,156,82318,1,0,0:0:0:0:
400,136,82395,1,0,0:0:0:0:
376,112,82473,1,0,0:0:0:0:
356,88,82550,1,0,0:0:0:0:
340,64,82627,1,0,0:0:0:0:
328,32,82705,1,0,0:0:0:0:
276,24,82782,6,0,P|264:72|268:100,1,45,8|0,0:0|0:0,0:0:0:0:
192,84,82936,2,0,P|205:131|223:153,1,45,0|0,0:0|0:0,0:0:0:0:
276,160,83091,5,0,1:0:0:0:
292,320,83246,1,8,0:0:0:0:
284,340,83555,5,0,1:0:0:0:
192,84,83710,1,8,0:0:0:0:
176,68,84019,5,0,1:0:0:0:
104,352,84174,1,8,0:0:0:0:
124,364,84947,5,4,1:0:0:0:
256,192,85024,12,0,89122,0:0:0:0:
