osu file format v14

[General]
AudioFilename: NEVER SAY NEVER - THREE LIGHTS DOWN KINGS.mp3
AudioLeadIn: 1500
PreviewTime: 59122
Countdown: 0
SampleSet: Soft
StackLeniency: 0.7
Mode: 0
LetterboxInBreaks: 0
WidescreenStoryboard: 0

[Editor]
DistanceSpacing: 0.9
BeatDivisor: 4
GridSize: 4
TimelineZoom: 2.1

[Metadata]
Title:NEVER SAY NEVER -TV SIZE ENDING ver-
TitleUnicode:NEVER SAY NEVER -TV SIZE ENDING ver-
Artist:THREE LIGHTS DOWN KINGS
ArtistUnicode:THREE LIGHTS DOWN KINGS
Creator:tutuhaha
Version:Easy
Source:デュラララ!!×2 承
Tags:Durarara!! x2 Shou No_Gu qoot8123
BeatmapID:593567
BeatmapSetID:259541

[Difficulty]
HPDrainRate:2
CircleSize:2
OverallDifficulty:2
ApproachRate:3
SliderMultiplier:0.6
SliderTickRate:1

[Events]
//Background and Video events
Video,0,"NEVER SAY NEVER.flv"
0,0,"1.png",0,0
//Break Periods
//Storyboard Layer 0 (Background)
//Storyboard Layer 1 (Fail)
//Storyboard Layer 2 (Pass)
//Storyboard Layer 3 (Foreground)
//Storyboard Sound Samples

[TimingPoints]
205,309.278350515464,4,2,2,80,1,0
2060,-100,4,2,2,80,0,0
17524,-100,4,2,1,40,0,0
37318,-100,4,2,2,70,0,0
37936,-100,4,2,1,70,0,0
38555,-100,4,2,2,70,0,0
39174,-100,4,2,1,70,0,0
39792,-100,4,2,2,70,0,0
40411,-100,4,2,1,70,0,0
41029,-100,4,2,2,70,0,0
41648,-100,4,2,1,70,0,0
42266,-100,4,2,2,70,0,0
42885,-100,4,2,1,70,0,0
43503,-100,4,2,2,70,0,0
44122,-100,4,2,1,70,0,0
45978,-100,4,2,2,70,0,0
46596,-100,4,2,1,60,0,0
47215,-100,4,2,2,80,0,0
52163,-100,4,2,2,50,0,0
53246,-100,4,2,2,80,0,0
54637,-100,4,2,2,30,0,0
57112,-100,4,2,1,80,0,0
59586,-100,4,2,2,80,0,1
68864,-100,4,2,1,30,0,1
69483,-100,4,2,2,80,0,1
81854,-100,4,2,2,50,0,1
81931,-100,4,2,2,80,0,1
84174,-100,4,2,2,80,0,0
84947,-100,4,2,2,50,0,0
85024,-100,4,2,1,5,0,0

[Colours]
Combo1 : 255,192,0
Combo2 : 0,202,0
Combo3 : 18,124,255
Combo4 : 242,24,57

[HitObjects]
112,48,205,6,0,P|92:88|112:168,2,120,2|2|6,0:0|0:0|0:0,0:0:0:0:
200,108,2060,2,0,L|268:108,2,60,2|2|6,0:0|0:0|0:0,0:0:0:0:
200,216,3297,5,8,0:0:0:0:
180,320,3916,2,0,P|140:304|96:240,2,120,2|8|2,0:0|0:0|0:0,0:0:0:0:
280,284,5772,1,8,0:0:0:0:
376,236,6390,2,0,P|332:192|276:176,1,120,2|8,0:0|0:0,0:0:0:0:
172,188,7627,6,0,L|172:64,1,120,2|8,0:0|0:0,0:0:0:0:
68,48,8864,2,0,L|68:176,1,120,2|8,0:0|0:0,0:0:0:0:
96,272,10101,6,0,P|160:320|204:328,1,120,6|8,0:0|0:0,0:0:0:0:
292,276,11339,2,0,L|356:276,2,60,2|8|2,0:0|0:0|0:0,0:0:0:0:
272,168,12576,6,0,L|140:168,1,120,6|8,0:0|0:0,0:0:0:0:
44,168,13813,2,0,P|48:132|64:108,2,60,2|8|2,0:0|0:0|0:0,0:0:0:0:
96,264,15050,6,0,P|144:280|204:336,1,120,6|8,0:0|0:0,0:0:0:0:
304,340,16287,2,0,L|432:340,1,120,2|8,0:0|0:0,0:0:0:0:
484,252,17524,5,8,0:0:0:0:
396,192,18143,1,8,0:0:0:0:
464,108,18761,1,8,0:0:0:0:
372,52,19380,1,8,0:0:0:0:
264,52,19998,6,0,L|144:52,1,120,8|8,0:0|0:0,0:0:0:0:
132,160,21235,2,0,L|0:160,1,120,8|8,0:0|0:0,0:0:0:0:
12,268,22473,6,0,P|16:304|28:328,2,60,8|8|8,0:0|0:0|0:0,0:0:0:0:
120,264,23710,2,0,P|116:228|104:204,2,60,8|8|8,0:0|0:0|0:0,0:0:0:0:
204,332,24947,6,0,L|336:332,1,120,8|8,0:0|0:0,0:0:0:0:
356,228,26184,2,0,L|232:228,1,120,8|8,0:0|0:0,0:0:0:0:
132,192,27421,6,0,P|104:140|104:72,1,120,8|8,0:0|0:0,0:0:0:0:
196,24,28658,2,0,P|224:76|224:144,1,120,8|8,0:0|0:0,0:0:0:0:
332,160,29895,6,0,L|396:160,2,60,8|8|8,0:0|0:0|0:0,0:0:0:0:
344,268,31132,2,0,L|408:268,2,60,8|8|8,0:0|0:0|0:0,0:0:0:0:
236,272,32369,6,0,P|180:264|112:276,1,120,8|8,0:0|0:0,0:0:0:0:
120,164,33607,2,0,P|176:172|244:160,1,120,8|8,0:0|0:0,0:0:0:0:
296,72,34844,5,12,0:0:0:0:
396,28,35462,1,8,0:0:0:0:
452,120,36081,2,0,L|512:120,2,60,8|8|8,0:0|0:0|0:0,0:0:0:0:
372,192,37318,6,0,P|400:248|408:312,1,120,6|8,0:0|0:0,0:0:0:0:
304,332,38555,2,0,P|276:276|268:212,1,120,2|8,0:0|0:0,0:0:0:0:
256,112,39792,6,0,L|140:56,1,120,6|8,0:0|0:0,0:0:0:0:
84,148,41029,2,0,L|192:200,1,120,2|8,0:0|0:0,0:0:0:0:
296,224,42266,6,0,P|268:280|260:344,1,120,6|8,0:0|0:0,0:0:0:0:
364,364,43503,2,0,P|392:308|400:244,1,120,2|8,0:0|0:0,0:0:0:0:
376,148,44741,5,6,0:0:0:0:
448,68,45359,1,8,0:0:0:0:
344,48,45978,2,0,L|220:48,1,120,2|8,0:0|0:0,0:0:0:0:
124,92,47215,6,0,P|100:136|104:212,2,120,6|8|2,0:0|0:0|0:0,0:0:0:0:
200,168,49070,1,8,0:0:0:0:
276,244,49689,6,0,L|408:244,2,120,6|8|2,0:0|0:0|0:0,0:0:0:0:
176,280,51545,1,8,0:0:0:0:
76,316,52163,6,0,P|32:236|80:100,1,240,4|2,0:0|0:0,0:0:0:0:
292,104,54637,2,0,P|340:211|294:318,1,240,4|2,0:0|0:0,0:0:0:0:
80,316,57112,5,2,0:0:0:0:
56,212,57730,1,2,0:0:0:0:
120,124,58349,1,2,0:0:0:0:
228,124,58967,1,2,0:0:0:0:
168,212,59586,6,0,P|147:267|164:324,2,120,4|8|2,0:0|0:0|0:0,0:0:0:0:
256,272,61442,1,8,0:0:0:0:
348,324,62060,6,0,P|364:280|340:208,2,120,2|8|2,0:0|0:0|0:0,0:0:0:0:
256,272,63916,2,0,L|256:144,1,120,8|2,0:0|0:0,0:0:0:0:
256,44,65153,5,8,0:0:0:0:
152,76,65772,2,0,P|116:72|40:28,1,120,2|8,0:0|0:0,0:0:0:0:
20,136,67009,6,0,L|20:264,1,120,2|8,0:0|0:0,0:0:0:0:
92,340,68246,2,0,P|61:365|37:371,2,60,2|8|8,0:0|0:0|0:0,0:0:0:0:
148,248,69483,6,0,L|272:248,1,120,6|8,0:0|0:0,0:0:0:0:
328,156,70720,1,6,0:0:0:0:
380,64,71339,1,8,0:0:0:0:
476,20,71957,6,0,P|488:68|456:140,1,120,6|8,0:0|0:0,0:0:0:0:
360,156,73194,2,0,P|348:204|380:276,1,120,2|8,0:0|0:0,0:0:0:0:
460,200,74431,6,0,L|524:200,2,60,2|8|2,0:0|0:0|0:0,0:0:0:0:
360,156,75668,2,0,L|296:156,2,60,2|8|2,0:0|0:0|0:0,0:0:0:0:
464,124,76906,6,0,P|436:80|364:48,1,120,2|8,0:0|0:0,0:0:0:0:
268,52,78143,1,2,0:0:0:0:
160,52,78761,1,8,0:0:0:0:
68,112,79380,6,0,L|68:240,1,120,6|8,0:0|0:0,0:0:0:0:
176,236,80617,2,0,L|176:364,1,120,2|8,0:0|0:0,0:0:0:0:
280,328,81854,6,0,P|320:296|392:288,1,120,4|8,1:0|0:0,0:0:0:0:
472,220,83091,2,0,P|464:172|416:112,1,120,2|8,0:0|0:0,0:0:0:0:
376,88,84019,2,0,P|304:112|200:68,1,180,8|4,0:0|1:0,0:0:0:0:
256,192,85101,12,0,89122,0:0:0:0:
