osu file format v14

[General]
AudioFilename: audio.mp3
AudioLeadIn: 0
PreviewTime: -1
Countdown: 1
SampleSet: Soft
StackLeniency: 0.7
Mode: 0
LetterboxInBreaks: 1
WidescreenStoryboard: 0

[Editor]
DistanceSpacing: 0.9
BeatDivisor: 4
GridSize: 32
TimelineZoom: 1

[Metadata]
Title:ReI
TitleUnicode:ReI
Artist:THE ORAL CIGARETTES
ArtistUnicode:THE ORAL CIGARETTES
Creator:corninho
Version:Extra
Source:
Tags:cigs japanese jap jp j-rock rock reiproject
BeatmapID:2039517
BeatmapSetID:974353

[Difficulty]
HPDrainRate:5
CircleSize:4.1
OverallDifficulty:8.5
ApproachRate:9.2
SliderMultiplier:1.4
SliderTickRate:1

[Events]
//Background and Video events
0,0,"lolirin.jpg",0,0
//Break Periods
//Storyboard Layer 0 (Background)
//Storyboard Layer 1 (Fail)
//Storyboard Layer 2 (Pass)
//Storyboard Layer 3 (Foreground)
//Storyboard Sound Samples

[TimingPoints]
2074,468.75,4,2,7,27,1,0
32074,322.58064516129,4,2,7,77,1,0
32074,-103.092783505155,4,2,7,77,0,0
42396,-129.870129870131,4,2,7,57,0,0
63041,-114.942528735633,4,2,7,77,0,0
73364,-103.092783505155,4,2,7,87,0,0
85299,-66.6666666666667,4,2,7,87,0,0
86267,-93.4579439252339,4,2,7,87,0,0
97880,-85.4700854700855,4,2,7,87,0,0
104009,-129.87012987013,4,2,7,77,0,0
104332,-103.092783505155,4,2,7,77,0,0

[Colours]
Combo1 : 64,0,128
Combo2 : 128,255,255
Combo3 : 18,124,255
Combo4 : 128,128,192
Combo5 : 128,128,255
Combo6 : 0,0,128

[HitObjects]
189,309,32074,6,0,P|154:272|134:236,1,67.9000016059113
40,177,32396,2,0,P|88:157|132:158,1,67.9000016059113
201,142,32719,2,0,P|189:173|171:202,1,67.9000016059113
276,315,33041,1,0,0:0:0:0:
270,84,33203,2,0,L|270:171,1,67.9000016059113
276,315,33525,1,0,0:0:0:0:
347,87,33686,2,0,L|348:172,1,67.9000016059113
431,348,34009,1,0,0:0:0:0:
369,267,34170,1,0,0:0:0:0:
276,315,34332,1,0,0:0:0:0:
307,174,34493,1,0,0:0:0:0:
190,210,34654,6,0,P|178:285|183:330,1,67.9000016059113
106,318,34977,2,0,P|72:270|65:244,1,67.9000016059113
190,210,35299,2,0,P|214:258|219:300,1,67.9000016059113
125,170,35622,1,0,0:0:0:0:
272,133,35783,2,0,L|353:130,1,67.9000016059113
121,106,36106,1,0,0:0:0:0:
269,69,36267,2,0,L|356:69,1,67.9000016059113
121,41,36590,5,0,0:0:0:0:
266,67,36751,1,0,0:0:0:0:
121,106,36912,1,0,0:0:0:0:
272,133,37073,1,0,0:0:0:0:
125,170,37235,6,0,P|106:204|74:244,1,67.9000016059113
182,267,37557,2,0,P|149:288|102:308,1,67.9000016059113
17,350,37880,2,0,P|59:372|97:381,1,67.9000016059113
222,353,38203,1,0,0:0:0:0:
295,238,38364,2,0,L|297:157,1,67.9000016059113
222,353,38686,1,0,0:0:0:0:
154,234,38848,2,0,L|153:154,1,67.9000016059113
228,53,39170,5,0,0:0:0:0:
358,92,39332,1,0,0:0:0:0:
320,222,39493,1,0,0:0:0:0:
190,182,39654,1,0,0:0:0:0:
228,53,39815,6,0,P|290:24|292:24,1,67.9000016059113
358,92,40138,2,0,P|426:87|428:87,1,67.9000016059113
497,201,40461,2,0,L|456:264,1,67.9000016059113
320,222,40783,1,0,0:0:0:0:
190,182,40944,2,0,L|228:118,1,67.9000016059113
357,90,41267,1,0,0:0:0:0:
292,283,41428,2,0,L|223:286,1,67.9000016059113
88,267,41751,5,0,0:0:0:0:
98,234,41832,1,0,0:0:0:0:
120,208,41912,1,0,0:0:0:0:
151,194,41993,1,0,0:0:0:0:
184,190,42073,1,0,0:0:0:0:
199,196,42154,1,0,0:0:0:0:
215,200,42235,1,0,0:0:0:0:
231,201,42315,1,0,0:0:0:0:
244,199,42396,6,0,P|283:168|292:149,1,53.8999989308167
391,180,42719,2,0,P|372:149|350:126,1,53.8999989308167
435,59,43041,2,0,P|392:49|360:54,1,53.8999989308167
274,59,43364,2,0,L|221:29,1,53.8999989308167
121,53,43686,1,0,0:0:0:0:
121,53,43848,1,0,0:0:0:0:
79,152,44009,6,0,L|86:218,1,53.8999989308167
192,212,44332,2,0,L|185:283,1,53.8999989308167
80,285,44654,2,0,L|89:356,1,53.8999989308167
194,342,44977,1,0,0:0:0:0:
194,342,45138,1,0,0:0:0:0:
282,280,45299,6,0,L|282:215,1,53.8999989308167
179,192,45622,2,0,L|180:118,1,53.8999989308167
287,129,45944,2,0,L|286:60,1,53.8999989308167
188,28,46267,1,0,0:0:0:0:
188,28,46428,1,0,0:0:0:0:
123,114,46590,6,0,L|93:184,1,53.8999989308167
188,28,46912,1,0,0:0:0:0:
188,28,47073,1,0,0:0:0:0:
237,124,47235,2,0,L|255:196,1,53.8999989308167
230,282,47557,6,0,L|284:323,1,53.8999989308167
372,356,47880,2,0,L|397:281,1,53.8999989308167
497,297,48203,2,0,L|504:226,1,53.8999989308167
423,170,48525,2,0,L|443:95,1,53.8999989308167
371,31,48848,1,0,0:0:0:0:
371,31,49009,1,0,0:0:0:0:
297,109,49170,6,0,L|293:176,1,53.8999989308167
204,223,49493,2,0,L|206:295,1,53.8999989308167
101,305,49815,2,0,L|103:377,1,53.8999989308167
15,294,50138,1,0,0:0:0:0:
15,294,50299,1,0,0:0:0:0:
70,201,50461,6,0,L|86:132,1,53.8999989308167
189,147,50783,2,0,L|161:82,1,53.8999989308167
81,32,51106,2,0,L|72:98,1,53.8999989308167
1,165,51428,1,0,0:0:0:0:
1,165,51590,1,0,0:0:0:0:
97,276,51751,6,0,L|125:299,1,26.9499994654083
198,316,51912,1,0,0:0:0:0:
272,193,52073,1,0,0:0:0:0:
343,315,52235,1,0,0:0:0:0:
357,162,52396,1,0,0:0:0:0:
462,311,52557,1,0,0:0:0:0:
462,311,52719,6,0,P|448:264|454:240,1,53.8999989308167
444,49,53041,2,0,P|455:73|457:99,1,53.8999989308167
357,162,53364,2,0,P|316:155|290:157,1,53.8999989308167
178,248,53686,2,0,P|219:255|245:253,1,53.8999989308167
357,162,54009,1,0,0:0:0:0:
249,157,54170,1,0,0:0:0:0:
179,248,54332,6,0,P|142:234|118:233,1,53.8999989308167
12,314,54654,2,0,P|38:309|63:298,1,53.8999989308167
69,190,54977,2,0,P|44:178|17:174,1,53.8999989308167
179,249,55299,1,0,0:0:0:0:
249,157,55461,1,0,0:0:0:0:
308,246,55622,6,0,P|323:266|351:292,1,53.8999989308167
476,282,55944,2,0,P|460:260|441:242,1,53.8999989308167
416,138,56267,2,0,P|391:127|364:121,1,53.8999989308167
249,157,56590,1,0,0:0:0:0:
176,77,56751,1,0,0:0:0:0:
130,174,56912,2,0,L|128:251,1,53.8999989308167
290,122,57235,1,0,0:0:0:0:
219,41,57396,1,0,0:0:0:0:
69,171,57557,6,0,L|68:242,1,53.8999989308167
105,326,57880,2,0,P|139:309|172:304,1,53.8999989308167
256,342,58203,2,0,P|281:334|305:321,1,53.8999989308167
318,229,58525,2,0,P|352:212|385:207,1,53.8999989308167
461,276,58848,2,0,P|486:268|510:255,1,53.8999989308167
475,153,59170,1,0,0:0:0:0:
475,153,59332,1,0,0:0:0:0:
373,118,59493,6,0,L|372:54,1,53.8999989308167
264,183,59815,2,0,L|263:104,1,53.8999989308167
376,251,60138,2,0,L|377:185,1,53.8999989308167
264,297,60461,1,0,0:0:0:0:
264,297,60622,1,0,0:0:0:0:
157,314,60783,6,0,L|85:298,1,53.8999989308167
10,248,61106,2,0,L|77:222,1,53.8999989308167
154,175,61428,2,0,L|96:151,1,53.8999989308167
25,80,61751,1,0,0:0:0:0:
210,115,61912,1,0,0:0:0:0:
210,115,61993,1,0,0:0:0:0:
210,115,62073,1,0,0:0:0:0:
10,249,62235,1,0,0:0:0:0:
199,288,62396,5,0,0:0:0:0:
214,268,62477,1,0,0:0:0:0:
235,257,62557,1,0,0:0:0:0:
258,252,62638,1,0,0:0:0:0:
282,251,62719,1,0,0:0:0:0:
293,257,62799,1,0,0:0:0:0:
305,263,62880,1,0,0:0:0:0:
317,268,62961,1,0,0:0:0:0:
331,273,63041,5,0,0:0:0:0:
441,160,63203,1,0,0:0:0:0:
480,287,63364,2,0,P|463:320|441:352,1,60.9000005110931
359,334,63606,1,0,0:0:0:0:
359,334,63686,1,0,0:0:0:0:
211,123,63848,1,0,0:0:0:0:
252,318,64009,5,0,0:0:0:0:
302,124,64170,1,0,0:0:0:0:
129,298,64332,1,0,0:0:0:0:
348,197,64493,1,0,0:0:0:0:
116,133,64654,1,0,0:0:0:0:
186,347,64815,1,0,0:0:0:0:
186,347,64896,1,0,0:0:0:0:
186,347,64977,1,0,0:0:0:0:
214,142,65138,1,0,0:0:0:0:
48,332,65299,1,0,0:0:0:0:
32,124,65461,1,0,0:0:0:0:
129,298,65622,6,0,P|179:265|199:253,1,60.9000005110931
298,289,65944,1,0,0:0:0:0:
214,142,66106,2,0,L|221:69,1,60.9000005110931
385,77,66428,2,0,L|379:157,1,60.9000005110931
298,289,66751,1,0,0:0:0:0:
298,289,66832,1,0,0:0:0:0:
298,289,66912,1,0,0:0:0:0:
297,58,67073,1,0,0:0:0:0:
184,264,67235,1,0,0:0:0:0:
93,64,67396,5,0,0:0:0:0:
93,64,67477,1,0,0:0:0:0:
93,64,67557,1,0,0:0:0:0:
31,277,67719,1,0,0:0:0:0:
164,142,67880,1,0,0:0:0:0:
164,142,67961,1,0,0:0:0:0:
164,142,68041,1,0,0:0:0:0:
180,160,68122,1,0,0:0:0:0:
202,168,68203,6,0,P|243:168|283:178,1,60.9000005110931
384,284,68525,2,0,P|353:288|323:287,1,60.9000005110931
167,291,68848,1,0,0:0:0:0:
241,140,69009,1,0,0:0:0:0:
250,294,69170,5,0,0:0:0:0:
162,65,69332,1,0,0:0:0:0:
111,289,69493,1,0,0:0:0:0:
228,54,69654,1,0,0:0:0:0:
45,289,69815,1,0,0:0:0:0:
95,56,69977,1,0,0:0:0:0:
95,56,70057,1,0,0:0:0:0:
95,56,70138,1,0,0:0:0:0:
241,140,70299,1,0,0:0:0:0:
241,140,70380,1,0,0:0:0:0:
241,140,70461,1,0,0:0:0:0:
111,289,70622,1,0,0:0:0:0:
239,334,70783,6,0,L|261:268,1,60.9000005110931
393,216,71106,1,0,0:0:0:0:
393,216,71267,2,0,L|361:149,1,60.9000005110931
256,46,71590,1,0,0:0:0:0:
112,93,71751,1,0,0:0:0:0:
112,93,71912,2,0,P|154:107|188:127,1,60.9000005110931
245,249,72235,1,0,0:0:0:0:
245,249,72396,2,0,L|265:165,1,60.9000005110931
383,74,72719,1,0,0:0:0:0:
395,91,72799,1,0,0:0:0:0:
404,110,72880,1,0,0:0:0:0:
411,130,72961,1,0,0:0:0:0:
415,150,73041,5,0,0:0:0:0:
257,157,73203,1,0,0:0:0:0:
407,312,73364,1,0,0:0:0:0:
337,106,73525,1,0,0:0:0:0:
319,319,73686,1,0,0:0:0:0:
455,96,73848,1,0,0:0:0:0:
226,298,74009,1,0,0:0:0:0:
511,159,74170,1,0,0:0:0:0:
156,253,74332,1,0,0:0:0:0:
244,19,74493,1,0,0:0:0:0:
405,231,74654,5,0,0:0:0:0:
136,158,74815,1,0,0:0:0:0:
376,42,74977,1,0,0:0:0:0:
317,278,75138,1,0,0:0:0:0:
192,82,75299,5,0,0:0:0:0:
175,80,75380,1,0,0:0:0:0:
158,83,75461,1,0,0:0:0:0:
142,89,75541,1,0,0:0:0:0:
121,107,75622,1,0,0:0:0:0:
110,132,75703,1,0,0:0:0:0:
109,158,75783,1,0,0:0:0:0:
112,185,75864,1,0,0:0:0:0:
123,209,75944,6,0,P|143:249|152:291,1,67.9000016059113
128,329,76186,1,0,0:0:0:0:
128,329,76267,1,0,0:0:0:0:
272,325,76428,1,0,0:0:0:0:
374,168,76590,2,0,P|345:135|314:115,1,67.9000016059113
225,57,76912,2,0,L|221:157,1,67.9000016059113
391,231,77235,2,0,L|392:309,1,67.9000016059113
294,146,77557,2,0,L|293:231,1,67.9000016059113
397,50,77880,2,0,L|396:135,1,67.9000016059113
294,28,78203,5,0,0:0:0:0:
293,147,78364,1,0,0:0:0:0:
110,28,78525,2,0,P|112:75|121:123,1,67.9000016059113
183,241,78848,2,0,P|187:207|187:173,1,67.9000016059113
294,28,79170,2,0,P|292:75|283:123,1,67.9000016059113
385,231,79493,2,0,P|389:197|389:163,1,67.9000016059113
454,33,79815,1,0,0:0:0:0:
360,119,79977,1,0,0:0:0:0:
222,167,80138,1,0,0:0:0:0:
332,261,80299,1,0,0:0:0:0:
487,357,80461,5,0,0:0:0:0:
470,345,80541,1,0,0:0:0:0:
450,339,80622,1,0,0:0:0:0:
429,339,80703,1,0,0:0:0:0:
408,341,80783,1,0,0:0:0:0:
379,328,80864,1,0,0:0:0:0:
350,316,80944,1,0,0:0:0:0:
319,314,81025,1,0,0:0:0:0:
283,324,81106,6,0,P|237:341|194:338,1,67.9000016059113
50,283,81428,2,0,P|94:295|125:316,1,67.9000016059113
179,270,81751,1,0,0:0:0:0:
188,107,81912,1,0,0:0:0:0:
68,193,82073,2,0,P|48:149|50:110,1,67.9000016059113
188,107,82396,5,0,0:0:0:0:
289,103,82557,1,0,0:0:0:0:
187,173,82719,1,0,0:0:0:0:
245,50,82880,1,0,0:0:0:0:
186,236,83041,1,0,0:0:0:0:
184,22,83203,1,0,0:0:0:0:
185,297,83364,1,0,0:0:0:0:
117,22,83525,5,0,0:0:0:0:
83,30,83606,1,0,0:0:0:0:
65,62,83686,2,0,P|47:122|45:144,1,67.9000016059113
62,280,84009,1,0,0:0:0:0:
187,173,84170,1,0,0:0:0:0:
187,173,84251,1,0,0:0:0:0:
187,173,84332,2,0,P|243:174|279:188,1,67.9000016059113
310,295,84654,5,0,0:0:0:0:
439,118,84815,1,0,0:0:0:0:
291,129,84977,1,0,0:0:0:0:
300,96,85057,1,0,0:0:0:0:
279,68,85138,1,0,0:0:0:0:
245,62,85219,1,0,0:0:0:0:
219,77,85299,2,0,P|282:68|239:168,2,210.000008010865
195,335,86267,5,0,0:0:0:0:
131,131,86428,1,0,0:0:0:0:
121,337,86590,1,0,0:0:0:0:
202,117,86751,1,0,0:0:0:0:
272,329,86912,1,0,0:0:0:0:
268,107,87073,1,0,0:0:0:0:
345,319,87235,1,0,0:0:0:0:
343,97,87396,1,0,0:0:0:0:
420,304,87557,5,0,0:0:0:0:
227,243,87719,1,0,0:0:0:0:
448,240,87880,1,0,0:0:0:0:
241,175,88041,1,0,0:0:0:0:
461,177,88203,1,0,0:0:0:0:
268,107,88364,1,0,0:0:0:0:
486,117,88525,1,0,0:0:0:0:
297,43,88686,1,0,0:0:0:0:
494,51,88848,6,0,P|445:38|399:51,1,74.8999977142335
340,116,89170,2,0,P|302:118|267:106,1,74.8999977142335
154,18,89493,2,0,P|146:62|152:101,1,74.8999977142335
206,188,89815,2,0,P|213:224|210:261,1,74.8999977142335
121,330,90138,1,0,0:0:0:0:
61,152,90299,1,0,0:0:0:0:
187,320,90461,1,0,0:0:0:0:
23,209,90622,1,0,0:0:0:0:
226,267,90783,6,0,L|299:231,1,74.8999977142335
388,173,91106,2,0,L|455:206,1,74.8999977142335
462,318,91428,1,0,0:0:0:0:
437,90,91590,1,0,0:0:0:0:
392,326,91751,5,0,0:0:0:0:
363,307,91832,1,0,0:0:0:0:
330,300,91912,1,0,0:0:0:0:
296,304,91993,1,0,0:0:0:0:
265,317,92073,2,0,B|227:339|227:339|166:338,1,74.8999977142335
68,291,92396,5,0,0:0:0:0:
92,268,92477,1,0,0:0:0:0:
111,240,92557,1,0,0:0:0:0:
119,207,92638,1,0,0:0:0:0:
114,173,92719,2,0,B|91:133|91:133|89:92,1,74.8999977142335
199,31,93041,5,0,0:0:0:0:
190,63,93122,1,0,0:0:0:0:
209,90,93203,1,0,0:0:0:0:
200,122,93283,1,0,0:0:0:0:
215,151,93364,2,0,P|212:213|217:233,1,74.8999977142335
228,312,93686,5,0,0:0:0:0:
254,290,93767,1,0,0:0:0:0:
285,301,93848,1,0,0:0:0:0:
313,283,93928,1,0,0:0:0:0:
345,293,94009,2,0,P|396:293|428:304,1,74.8999977142335
483,251,94332,5,0,0:0:0:0:
474,234,94412,1,0,0:0:0:0:
463,218,94493,1,0,0:0:0:0:
449,205,94573,1,0,0:0:0:0:
433,194,94654,1,0,0:0:0:0:
415,186,94735,1,0,0:0:0:0:
397,180,94815,1,0,0:0:0:0:
378,176,94896,1,0,0:0:0:0:
359,176,94977,1,0,0:0:0:0:
330,169,95057,1,0,0:0:0:0:
313,143,95138,5,0,0:0:0:0:
316,113,95219,1,0,0:0:0:0:
331,87,95299,1,0,0:0:0:0:
335,57,95380,1,0,0:0:0:0:
317,32,95461,1,0,0:0:0:0:
288,23,95541,1,0,0:0:0:0:
258,29,95622,1,0,0:0:0:0:
235,48,95703,1,0,0:0:0:0:
218,72,95783,1,0,0:0:0:0:
206,99,95864,1,0,0:0:0:0:
220,133,95944,5,0,0:0:0:0:
241,164,96025,1,0,0:0:0:0:
249,200,96106,1,0,0:0:0:0:
239,235,96186,1,0,0:0:0:0:
218,266,96267,1,0,0:0:0:0:
185,285,96348,1,0,0:0:0:0:
148,291,96428,1,0,0:0:0:0:
111,280,96509,1,0,0:0:0:0:
87,250,96590,2,0,P|70:196|70:148,1,74.8999977142335
129,41,96912,5,0,0:0:0:0:
326,111,97073,1,0,0:0:0:0:
190,210,97235,2,0,L|184:295,1,74.8999977142335
327,284,97557,2,0,L|322:210,1,74.8999977142335
326,111,97880,5,0,0:0:0:0:
186,25,98041,1,0,0:0:0:0:
136,181,98203,1,0,0:0:0:0:
275,30,98364,1,0,0:0:0:0:
261,226,98525,1,0,0:0:0:0:
118,34,98686,1,0,0:0:0:0:
156,244,98848,1,0,0:0:0:0:
348,46,99009,1,0,0:0:0:0:
327,249,99170,6,0,P|309:295|283:331,1,81.9000003124237
198,228,99493,1,0,0:0:0:0:
230,303,99654,1,0,0:0:0:0:
258,180,99815,1,0,0:0:0:0:
230,303,99977,1,0,0:0:0:0:
143,141,100138,1,0,0:0:0:0:
230,303,100299,1,0,0:0:0:0:
243,89,100461,1,0,0:0:0:0:
230,303,100622,1,0,0:0:0:0:
125,59,100783,1,0,0:0:0:0:
230,303,100944,1,0,0:0:0:0:
218,22,101106,1,0,0:0:0:0:
230,303,101267,1,0,0:0:0:0:
329,232,101428,1,0,0:0:0:0:
341,131,101590,1,0,0:0:0:0:
133,84,101751,5,0,0:0:0:0:
355,87,101912,1,0,0:0:0:0:
355,87,102073,1,0,0:0:0:0:
231,53,102235,1,0,0:0:0:0:
161,291,102396,1,0,0:0:0:0:
161,291,102557,1,0,0:0:0:0:
72,22,102719,1,0,0:0:0:0:
65,315,102880,1,0,0:0:0:0:
65,315,103041,1,0,0:0:0:0:
264,286,103203,1,0,0:0:0:0:
64,155,103364,1,0,0:0:0:0:
64,155,103525,1,0,0:0:0:0:
3,18,103686,5,0,0:0:0:0:
16,43,103767,1,0,0:0:0:0:
38,60,103848,1,0,0:0:0:0:
65,68,103928,1,0,0:0:0:0:
83,72,104009,2,0,P|125:75|170:94,1,80.849998396225
178,104,104332,1,0,0:0:0:0:
252,105,104493,1,0,0:0:0:0:
252,105,104654,6,0,P|261:162|261:202,1,67.9000016059113
356,312,104977,2,0,P|309:280|273:270,1,67.9000016059113
156,311,105299,1,0,0:0:0:0:
156,311,105460,2,0,P|182:290|212:276,1,67.9000016059113
290,249,105783,1,0,0:0:0:0:
368,202,105944,2,0,P|370:141|359:105,1,67.9000016059113
301,49,106267,1,0,0:0:0:0:
223,175,106428,1,0,0:0:0:0:
179,41,106590,1,0,0:0:0:0:
306,154,106751,1,0,0:0:0:0:
227,234,106912,5,0,0:0:0:0:
175,179,107073,1,0,0:0:0:0:
175,179,107235,2,0,L|113:123,1,67.9000016059113
6,205,107557,2,0,L|69:272,1,67.9000016059113
158,340,107880,1,0,0:0:0:0:
227,234,108041,2,0,L|298:264,1,67.9000016059113
421,227,108364,1,0,0:0:0:0:
336,121,108525,2,0,L|266:85,1,67.9000016059113
150,143,108848,1,0,0:0:0:0:
56,280,109009,1,0,0:0:0:0:
172,229,109170,1,0,0:0:0:0:
216,368,109332,1,0,0:0:0:0:
349,341,109493,6,0,P|396:333|423:319,1,67.9000016059113
462,267,109815,2,0,P|430:254|396:250,1,67.9000016059113
337,204,110138,2,0,L|334:109,1,67.9000016059113
394,90,110461,1,0,0:0:0:0:
331,49,110622,2,0,L|262:33,1,67.9000016059113
175,135,110944,1,0,0:0:0:0:
218,264,111106,2,0,P|204:311|207:351,1,67.9000016059113
91,253,111428,1,0,0:0:0:0:
38,104,111590,1,0,0:0:0:0:
145,206,111751,1,0,0:0:0:0:
180,55,111912,1,0,0:0:0:0:
266,192,112073,5,0,0:0:0:0:
266,192,112154,1,0,0:0:0:0:
266,192,112235,1,0,0:0:0:0:
412,114,112396,2,0,L|412:202,1,67.9000016059113
399,210,112638,1,0,0:0:0:0:
399,210,112719,1,0,0:0:0:0:
333,333,112880,6,0,P|292:302|247:294,1,67.9000016059113
252,315,113122,1,0,0:0:0:0:
252,315,113203,1,0,0:0:0:0:
113,266,113364,2,0,P|131:229|157:197,1,67.9000016059113
175,217,113606,1,0,0:0:0:0:
175,217,113686,1,0,0:0:0:0:
286,162,113848,2,0,P|247:117|219:98,1,67.9000016059113
77,26,114170,5,0,0:0:0:0:
46,257,114332,1,0,0:0:0:0:
236,114,114493,1,0,0:0:0:0:
