osu file format v14

[General]
AudioFilename: godofspeed.mp3
AudioLeadIn: 0
PreviewTime: 100631
Countdown: 0
SampleSet: Soft
StackLeniency: 0.7
Mode: 0
LetterboxInBreaks: 0
WidescreenStoryboard: 0

[Editor]
DistanceSpacing: 1.1
BeatDivisor: 4
GridSize: 4
TimelineZoom: 2.899999

[Metadata]
Title:Kyouran Hey Kids!!
TitleUnicode:狂乱 Hey Kids!!
Artist:THE ORAL CIGARETTES
ArtistUnicode:THE ORAL CIGARETTES
Creator:monstrata
Version:Insane
Source:ノラガミ ARAGOTO
Tags:milan- cerulean veyron gray noragami aragoto yato hiyori second 2nd op opening full version
BeatmapID:819944
BeatmapSetID:372510

[Difficulty]
HPDrainRate:5
CircleSize:4
OverallDifficulty:7
ApproachRate:9
SliderMultiplier:3
SliderTickRate:2

[Events]
//Background and Video events
0,0,"608362.jpg",0,0
//Break Periods
2,74951,87672
2,128835,138376
2,166218,178939
2,189880,192461
2,227063,229644
//Storyboard Layer 0 (Background)
//Storyboard Layer 1 (Fail)
//Storyboard Layer 2 (Pass)
//Storyboard Layer 3 (Foreground)
//Storyboard Sound Samples

[TimingPoints]
385,422.535211267606,4,2,0,65,1,0
385,-200,4,2,0,65,0,0
5455,-200,4,2,1,60,0,0
7145,-100,4,2,1,60,0,0
20666,-133.333333333333,4,2,1,40,0,0
34187,-100,4,2,1,60,0,0
40948,-166.666666666667,4,2,1,65,0,0
46018,-100,4,2,1,65,0,0
47708,-100,4,2,1,65,0,1
71370,-100,4,2,1,65,0,0
71793,-133.333333333333,4,2,1,35,0,0
88272,-133.333333333333,4,2,1,40,0,0
91018,-133.333333333333,4,2,1,60,0,0
91441,-133.333333333333,4,2,1,40,0,0
97779,-133.333333333333,4,2,1,60,0,0
98413,-133.333333333333,4,2,1,65,0,0
100948,-90.9090909090909,4,2,1,65,0,0
101793,-100,4,2,1,65,0,1
115314,-133.333333333333,4,2,1,65,0,1
125455,-133.333333333333,4,2,1,65,0,0
138976,-100,4,2,1,65,0,0
151758,-100,4,2,1,35,0,0
151863,-100,4,2,1,65,0,0
152497,-133.333333333333,4,2,1,40,0,0
162638,-212.089077412513,4,2,1,35,0,0
164328,-181.818181818182,4,2,1,45,0,0
179539,-125,4,2,1,50,0,0
192215,-86.9565217391304,4,2,1,65,0,0
193061,-100,4,2,1,65,0,1
226863,-100,4,2,1,65,0,0
227286,-133.333333333333,4,2,1,35,0,0
230244,-100,4,2,1,60,0,0
243765,-133.333333333333,4,2,1,40,0,0

[Colours]
Combo1 : 255,162,162
Combo2 : 108,207,255
Combo3 : 163,88,254
Combo4 : 0,99,198

[HitObjects]
112,189,385,6,0,P|160:125|255:133,1,150,4|0,0:0|0:0,0:0:0:0:
199,204,1018,1,0,0:0:0:0:
199,204,1124,1,0,0:0:0:0:
199,204,1230,2,0,L|227:282,1,75,2|0,0:0|0:0,0:0:0:0:
290,214,1652,2,0,L|318:292,1,75,2|0,0:0|0:0,0:0:0:0:
288,368,2075,6,0,P|360:359|402:299,1,150,0|0,3:0|3:0,0:0:0:0:
379,211,2708,1,0,0:0:0:0:
379,211,2814,1,0,0:0:0:0:
379,211,2920,2,0,L|486:210,1,75,2|0,0:0|0:0,0:0:0:0:
410,131,3342,2,0,L|517:130,1,75,2|0,0:0|0:0,0:0:0:0:
436,46,3765,6,0,P|364:55|323:116,1,150,0|0,3:0|3:0,0:0:0:0:
294,201,4399,1,0,0:0:0:0:
294,201,4504,1,0,0:0:0:0:
294,201,4610,2,0,L|325:289,1,75,2|0,0:0|0:0,0:0:0:0:
229,265,5032,2,0,L|260:353,1,75,2|0,0:0|0:0,0:0:0:0:
164,329,5455,5,4,3:3:0:0:
157,345,6723,5,0,3:0:0:0:
77,118,7145,6,0,P|127:93|240:135,1,150,4|8,1:0|0:0,0:0:0:0:
241,182,7462,1,0,0:0:0:0:
241,182,7568,2,0,B|288:194|288:194|386:160,1,150,2|8,3:2|0:0,0:0:0:0:
405,88,7885,2,0,P|461:152|418:228,1,150,2|0,0:0|0:0,0:0:0:0:
378,243,8201,2,0,L|308:268,1,75,8|0,0:0|0:0,0:0:0:0:
231,261,8413,1,2,0:0:0:0:
231,261,8518,1,2,0:0:0:0:
231,261,8624,1,8,0:0:0:0:
89,211,8835,6,0,P|33:275|76:351,1,150,2|8,0:0|0:0,0:0:0:0:
102,383,9152,1,0,0:0:0:0:
102,383,9258,2,0,B|135:360|135:360|277:360,1,150,2|8,3:2|0:0,0:0:0:0:
297,306,9575,2,0,B|406:306|406:306|439:283,1,150,2|0,0:0|0:0,0:0:0:0:
383,233,9892,2,0,L|444:190,1,75,8|0,0:0|0:0,0:0:0:0:
446,114,10103,1,2,0:0:0:0:
446,114,10208,1,0,0:0:0:0:
446,114,10314,1,10,0:0:0:0:
327,22,10525,6,0,B|276:-6|224:22|224:22|202:98,1,150,0|8,3:0|0:0,0:0:0:0:
140,84,10842,1,0,0:0:0:0:
140,84,10948,2,0,B|100:152|168:152|128:228,1,150,2|8,3:2|0:0,0:0:0:0:
62,264,11265,2,0,B|108:253|108:253|265:286,1,150,2|0,0:0|0:0,0:0:0:0:
223,200,11582,2,0,L|296:215,1,75,8|0,0:0|0:0,0:0:0:0:
355,168,11793,1,2,3:2:0:0:
355,168,11899,1,0,3:0:0:0:
355,168,12004,1,8,0:0:0:0:
436,39,12215,6,0,L|449:138,1,75,2|0,3:2|0:0,0:0:0:0:
511,151,12427,2,0,L|498:250,1,75,8|0,0:0|0:0,0:0:0:0:
434,260,12638,2,0,P|460:288|519:298,2,75,2|0|8,0:2|0:0|0:0,0:0:0:0:
362,236,12955,2,0,B|287:226|287:226|240:222|205:296,1,150,2|0,0:0|0:0,0:0:0:0:
160,298,13272,2,0,P|192:330|264:318,1,75,8|0,0:0|0:0,0:0:0:0:
298,310,13483,1,0,3:0:0:0:
298,310,13589,1,0,3:0:0:0:
298,310,13694,1,8,3:2:0:0:
394,163,13906,6,0,B|203:137,1,150,4|8,0:0|0:0,0:0:0:0:
182,101,14223,1,0,0:0:0:0:
182,101,14328,2,0,B|156:142|177:179|177:179|162:283,1,150,2|8,3:2|0:0,0:0:0:0:
122,305,14645,2,0,B|160:277|160:277|203:313|255:301,1,150,2|0,0:2|0:0,0:0:0:0:
318,259,14962,2,0,L|398:268,1,75,8|0,0:0|0:0,0:0:0:0:
439,208,15173,1,0,3:0:0:0:
439,208,15279,1,0,3:0:0:0:
439,208,15385,1,8,0:0:0:0:
409,61,15596,6,0,P|347:24|251:89,1,150,2|8,0:0|0:0,0:0:0:0:
293,119,15913,1,0,0:0:0:0:
293,119,16018,2,0,B|302:169|302:169|268:221|187:201,1,150,2|8,0:0|0:0,0:0:0:0:
174,142,16335,2,0,L|194:290,1,150,2|0,0:0|0:0,0:0:0:0:
119,283,16652,2,0,L|108:357,1,75,8|0,0:0|0:0,0:0:0:0:
183,365,16863,2,0,P|235:356|258:326,1,75,2|0,3:2|3:0,0:0:0:0:
268,268,17075,1,8,0:0:0:0:
383,172,17286,6,0,B|403:222|403:222|389:320,1,150,2|8,0:0|0:0,0:0:0:0:
458,345,17603,1,0,0:0:0:0:
458,345,17708,2,0,B|484:162,1,150,2|8,3:2|0:0,0:0:0:0:
461,123,18025,2,0,B|377:91|377:91|337:101|318:132,1,150,2|0,0:2|0:0,0:0:0:0:
306,195,18342,2,0,P|282:224|250:243,1,75,8|0,0:0|0:0,0:0:0:0:
175,238,18553,1,2,3:2:0:0:
175,238,18659,1,0,3:0:0:0:
175,238,18765,1,8,0:0:0:0:
99,108,18976,6,0,L|78:210,1,75,2|0,0:0|0:0,0:0:0:0:
14,209,19187,2,0,L|35:311,1,75,8|0,0:0|0:0,0:0:0:0:
98,311,19399,2,0,P|77:341|42:356,2,75,2|0|8,3:2|3:0|3:2,0:0:0:0:
133,245,19715,2,0,B|172:222|172:222|296:236,1,150,2|0,0:2|0:0,0:0:0:0:
309,301,20032,2,0,L|383:292,1,75,8|0,0:0|0:0,0:0:0:0:
443,246,20244,1,8,3:2:0:0:
443,246,20349,1,0,3:0:0:0:
443,246,20455,1,8,3:2:0:0:
443,246,20561,1,0,3:0:0:0:
443,246,20666,6,0,P|488:177|431:62,1,168.750006437302,2|0,0:0|0:0,0:0:0:0:
404,53,21089,2,0,B|351:71|351:71|295:63,1,112.500004291535,8|0,3:2|0:0,0:0:0:0:
163,149,21511,2,0,B|216:131|216:131|271:138,1,112.500004291535,0|0,3:0|0:0,0:0:0:0:
362,268,21934,2,0,B|309:286|309:286|253:278,1,112.500004291535,8|8,0:0|3:2,0:0:0:0:
175,261,22251,1,0,3:0:0:0:
174,261,22356,6,0,P|182:312|232:353,1,112.500004291535,2|0,0:0|0:0,0:0:0:0:
275,201,22779,2,0,L|129:231,1,112.500004291535,8|0,0:0|0:0,0:0:0:0:
45,120,23201,2,0,L|191:150,1,112.500004291535,0|0,3:0|0:0,0:0:0:0:
263,27,23624,2,0,P|331:9|377:30,1,112.500004291535,8|0,0:0|0:0,0:0:0:0:
491,120,24046,6,0,B|468:153|468:153|468:275,1,112.500004291535,2|0,0:0|0:0,0:0:0:0:
467,304,24363,1,0,0:0:0:0:
466,304,24469,2,0,P|425:333|364:330,1,112.500004291535,8|0,0:0|0:0,0:0:0:0:
321,184,24892,2,0,B|359:194|359:194|400:256,1,112.500004291535,0|0,3:0|0:0,0:0:0:0:
259,327,25314,1,8,0:0:0:0:
166,199,25525,1,8,3:2:0:0:
166,199,25631,1,0,3:0:0:0:
166,199,25737,6,0,P|106:212|82:293,1,112.500004291535,2|0,0:0|0:0,0:0:0:0:
154,274,26054,1,0,0:0:0:0:
154,274,26159,2,0,L|303:238,1,112.500004291535,8|0,0:0|0:0,0:0:0:0:
398,166,26582,2,0,L|288:139,1,112.500004291535,0|0,3:0|0:0,0:0:0:0:
135,105,27004,1,8,0:0:0:0:
263,14,27215,1,0,3:0:0:0:
263,14,27321,1,0,3:0:0:0:
263,14,27427,6,0,P|316:8|373:63,1,112.500004291535,2|0,0:0|0:0,0:0:0:0:
298,84,27744,1,0,0:0:0:0:
298,84,27849,2,0,B|287:163|287:163|303:223,1,112.500004291535,8|0,0:0|0:0,0:0:0:0:
223,335,28272,2,0,B|234:256|234:256|218:196,1,112.500004291535,0|0,3:0|0:0,0:0:0:0:
135,105,28694,1,8,0:0:0:0:
70,249,28906,1,0,3:0:0:0:
70,249,29011,1,0,3:0:0:0:
70,249,29117,6,0,P|64:302|119:359,1,112.500004291535,2|0,0:0|0:0,0:0:0:0:
142,283,29434,1,0,0:0:0:0:
142,283,29539,2,0,B|168:245|168:245|148:168,1,112.500004291535,8|0,0:0|0:0,0:0:0:0:
234,46,29962,2,0,B|208:84|208:84|228:161,1,112.500004291535,2|0,3:2|0:0,0:0:0:0:
281,295,30385,2,0,P|331:254|408:274,1,112.500004291535,8|0,0:0|0:0,0:0:0:0:
466,126,30807,6,0,L|449:263,1,112.500004291535,10|0,3:2|0:0,0:0:0:0:
494,304,31124,1,0,0:0:0:0:
494,304,31230,1,8,0:0:0:0:
349,330,31441,2,0,L|218:329,1,112.500004291535,10|0,0:0|0:0,0:0:0:0:
203,257,31758,1,0,0:0:0:0:
203,257,31863,1,8,0:0:0:0:
131,115,32075,1,10,0:0:0:0:
121,125,32180,1,0,0:0:0:0:
112,136,32286,1,0,3:0:0:0:
103,147,32391,1,0,3:0:0:0:
94,158,32497,6,0,B|128:182|128:182|242:178,1,112.500004291535,4|0,0:0|0:0,0:0:0:0:
325,84,32920,2,0,L|339:156,1,56.2500021457673,8|0,0:0|0:0,0:0:0:0:
414,137,33131,2,0,L|400:209,1,56.2500021457673,0|0,3:0|0:0,0:0:0:0:
481,189,33342,1,8,0:0:0:0:
483,203,33447,1,0,3:0:0:0:
486,217,33553,1,0,3:0:0:0:
489,231,33658,1,0,3:0:0:0:
492,245,33764,5,8,3:2:0:0:
455,378,34187,6,0,P|403:326|329:326,1,150,4|8,0:0|0:0,0:0:0:0:
273,276,34504,1,0,0:0:0:0:
273,276,34610,2,0,B|228:296|228:296|128:283,1,150,2|8,3:2|0:0,0:0:0:0:
84,221,34927,2,0,P|59:252|52:285,2,75,2|0|0,0:0|0:0|0:0,0:0:0:0:
155,198,35244,2,0,L|254:210,1,75,8|0,0:0|0:0,0:0:0:0:
283,154,35455,1,2,3:2:0:0:
283,154,35561,1,0,3:0:0:0:
283,154,35666,1,8,0:0:0:0:
380,40,35877,6,0,B|338:23|338:23|193:51,1,150,2|8,0:0|0:0,0:0:0:0:
162,22,36194,1,0,0:0:0:0:
162,22,36300,2,0,B|152:72|187:100|187:100|192:180,1,150,2|8,3:2|0:0,0:0:0:0:
238,221,36617,2,0,P|211:235|131:207,2,75,2|0|0,0:0|0:0|0:0,0:0:0:0:
283,154,36934,2,0,L|373:168,1,75,8|0,0:0|0:0,0:0:0:0:
411,113,37145,1,0,3:0:0:0:
411,113,37251,1,0,3:0:0:0:
411,113,37356,1,10,3:2:0:0:
474,249,37568,6,0,P|400:309|328:285,1,150,2|8,0:0|0:0,0:0:0:0:
315,235,37885,1,0,0:0:0:0:
315,235,37990,2,0,L|118:287,1,150,2|8,3:2|0:0,0:0:0:0:
117,218,38307,2,0,P|94:287|140:341,1,150,2|0,0:0|0:0,0:0:0:0:
215,336,38624,2,0,B|255:325|255:325|286:337,1,75,8|0,0:0|0:0,0:0:0:0:
356,364,38835,1,2,3:2:0:0:
356,364,38941,1,0,3:0:0:0:
356,364,39046,1,8,0:0:0:0:
391,217,39258,6,0,L|473:210,1,75,0|0,3:0|3:0,0:0:0:0:
437,140,39469,2,0,P|461:107|461:63,1,75,0|0,3:0|3:0,0:0:0:0:
388,82,39680,2,0,P|371:44|333:22,1,75,10|0,0:0|0:0,0:0:0:0:
313,95,39892,2,0,L|231:102,1,75,8|0,0:0|0:0,0:0:0:0:
170,135,40103,5,0,3:0:0:0:
149,276,40314,1,0,0:0:0:0:
250,174,40525,1,0,3:0:0:0:
108,196,40737,1,0,0:0:0:0:
237,262,40948,6,0,P|297:249|337:158,2,134.999995880127,0|0|0,3:0|3:0|3:0,0:0:0:0:
149,276,41793,2,0,L|145:373,1,89.9999972534181,8|0,0:0|0:0,0:0:0:0:
57,348,42215,2,0,L|61:251,1,89.9999972534181,8|0,0:0|0:0,0:0:0:0:
122,191,42638,6,0,B|142:147|142:147|124:47,2,134.999995880127,0|0|0,3:0|3:0|3:0,0:0:0:0:
210,210,43483,2,0,L|249:128,1,89.9999972534181,8|0,0:0|0:0,0:0:0:0:
335,152,43906,2,0,L|296:234,1,89.9999972534181,0|0,0:0|0:0,0:0:0:0:
233,297,44328,6,0,P|291:323|366:291,2,134.999995880127,0|0|0,3:0|3:0|3:0,0:0:0:0:
210,210,45173,2,0,L|88:199,1,89.9999972534181,8|0,0:0|0:0,0:0:0:0:
60,107,45596,2,0,L|150:116,1,89.9999972534181,8|0,0:0|0:0,0:0:0:0:
280,42,46018,1,8,3:2:0:0:
315,32,46123,1,0,3:0:0:0:
352,38,46229,1,0,0:0:0:0:
383,59,46334,1,0,3:0:0:0:
402,91,46440,5,8,0:2:0:0:
154,150,47708,6,0,L|147:224,1,75,4|0,0:0|0:0,0:0:0:0:
290,219,47920,2,0,P|262:193|226:183,1,75,8|0,0:0|0:0,0:0:0:0:
157,299,48131,1,0,3:0:0:0:
157,299,48237,1,0,3:0:0:0:
157,299,48342,2,0,P|184:324|220:334,1,75,8|0,0:0|0:0,0:0:0:0:
364,246,48554,6,0,B|292:228|292:228|223:257,1,150,2|8,0:0|0:0,0:0:0:0:
86,36,48976,2,0,L|158:54,1,75,0|0,0:0|0:0,0:0:0:0:
215,5,49187,2,0,L|252:69,1,75,8|0,0:0|0:0,0:0:0:0:
328,74,49399,6,0,L|290:219,1,150,2|8,0:0|0:0,0:0:0:0:
364,246,49715,1,0,3:0:0:0:
364,246,49821,2,0,L|383:318,1,75,0|0,0:0|0:0,0:0:0:0:
434,214,50032,2,0,P|411:185|376:170,1,75,8|0,3:2|0:0,0:0:0:0:
303,295,50244,6,0,B|246:319|246:319|148:306,1,150,2|8,0:0|0:0,0:0:0:0:
39,134,50666,1,0,3:0:0:0:
39,134,50772,1,0,3:0:0:0:
39,134,50877,2,0,L|126:145,1,75,8|0,0:0|0:0,0:0:0:0:
189,39,51089,6,0,P|125:71|112:143,1,150,4|8,0:0|0:0,0:0:0:0:
303,295,51511,1,0,3:0:0:0:
303,295,51616,1,0,3:0:0:0:
303,295,51722,1,8,0:0:0:0:
331,87,51934,6,0,B|273:86|273:86|188:120,1,150,0|8,3:0|0:0,0:0:0:0:
376,324,52356,1,0,3:0:0:0:
376,324,52462,1,0,3:0:0:0:
376,324,52568,1,8,0:0:0:0:
405,37,52779,6,0,B|367:65|367:65|349:166,1,150,2|8,0:0|0:0,0:0:0:0:
449,353,53201,1,0,3:0:0:0:
449,353,53307,1,0,3:0:0:0:
449,353,53413,1,8,0:0:0:0:
440,115,53624,6,0,L|426:188,1,75,2|0,0:0|0:0,0:0:0:0:
349,166,53835,2,0,L|362:239,1,75,8|0,0:0|0:0,0:0:0:0:
286,238,54046,1,0,3:0:0:0:
237,265,54151,1,0,3:0:0:0:
181,267,54257,1,8,3:2:0:0:
130,244,54362,1,0,3:0:0:0:
96,200,54469,6,0,P|88:155|140:100,1,75,4|0,0:0|0:0,0:0:0:0:
137,24,54680,2,0,P|110:49|74:57,1,75,8|0,0:0|0:0,0:0:0:0:
0,48,54892,1,0,3:0:0:0:
0,48,54997,1,0,3:0:0:0:
0,48,55103,1,8,0:0:0:0:
219,84,55314,6,0,L|352:88,1,75,2|0,0:0|0:0,0:0:0:0:
391,69,55525,2,0,L|352:133,1,75,8|0,0:0|0:0,0:0:0:0:
281,158,55737,2,0,L|317:225,1,75,0|0,3:0|0:0,0:0:0:0:
389,224,55948,2,0,P|382:261|357:288,1,75,8|0,0:0|0:0,0:0:0:0:
281,288,56159,6,0,L|291:362,1,75,2|0,0:0|0:0,0:0:0:0:
211,258,56370,2,0,L|172:354,1,75,8|0,0:0|0:0,0:0:0:0:
165,197,56582,2,0,L|83:261,1,75,0|0,3:0|3:0,0:0:0:0:
155,121,56793,2,0,L|52:136,1,75,8|0,0:0|0:0,0:0:0:0:
183,50,57004,6,0,P|242:5|324:31,1,150,2|8,0:0|0:0,0:0:0:0:
386,16,57321,1,0,0:0:0:0:
386,16,57427,2,0,L|367:121,1,75,0|0,3:0|3:0,0:0:0:0:
297,95,57638,2,0,L|316:200,1,75,8|0,0:0|0:0,0:0:0:0:
448,197,57849,6,0,P|421:172|385:166,1,75,2|0,0:0|0:0,0:0:0:0:
331,291,58061,2,0,P|358:316|394:322,1,75,8|0,0:0|0:0,0:0:0:0:
392,247,58272,1,0,3:0:0:0:
392,247,58377,1,0,3:0:0:0:
392,247,58483,1,8,0:0:0:0:
186,285,58694,6,0,P|159:310|123:316,1,75,2|0,0:0|0:0,0:0:0:0:
57,193,58906,2,0,P|84:168|120:162,1,75,8|0,0:0|0:0,0:0:0:0:
126,242,59117,1,0,3:0:0:0:
126,242,59222,1,0,3:0:0:0:
126,242,59328,1,8,0:0:0:0:
224,77,59539,6,0,L|331:103,1,75,0|0,3:0|0:0,0:0:0:0:
349,40,59751,2,0,P|368:71|371:109,1,75,8|0,0:0|0:0,0:0:0:0:
444,126,59962,2,0,P|426:158|395:179,1,75,0|0,3:0|3:0,0:0:0:0:
321,165,60173,2,0,P|323:202|342:233,1,75,8|0,0:0|3:0,0:0:0:0:
423,323,60385,6,0,P|390:306|353:308,1,75,2|0,0:0|0:0,0:0:0:0:
283,278,60596,2,0,L|270:361,1,75,8|0,0:0|0:0,0:0:0:0:
198,335,60807,1,8,3:2:0:0:
128,359,60912,1,0,3:0:0:0:
57,338,61018,1,8,3:2:0:0:
13,279,61123,1,0,3:0:0:0:
12,205,61230,6,0,L|38:127,1,75,4|0,0:0|0:0,0:0:0:0:
107,158,61441,2,0,L|168:102,1,75,8|0,0:0|0:0,0:0:0:0:
212,164,61652,1,0,3:0:0:0:
248,155,61757,1,0,3:0:0:0:
285,147,61863,2,0,P|331:152|367:185,1,75,8|0,0:0|0:0,0:0:0:0:
319,291,62075,6,0,P|301:259|302:222,1,75,0|0,0:0|0:0,0:0:0:0:
374,241,62286,2,0,L|494:271,1,75,8|0,0:0|0:0,0:0:0:0:
507,214,62497,1,0,3:0:0:0:
507,214,62603,1,0,3:0:0:0:
507,214,62708,2,0,P|520:247|512:298,1,75,8|0,0:0|0:0,0:0:0:0:
458,334,62920,6,0,L|374:336,1,75,2|0,0:0|0:0,0:0:0:0:
319,290,63131,2,0,P|305:325|311:362,1,75,8|0,0:0|0:0,0:0:0:0:
324,212,63342,2,0,P|287:217|258:240,1,75,0|0,3:0|3:0,0:0:0:0:
197,175,63554,2,0,L|183:249,1,75,8|0,0:0|0:0,0:0:0:0:
74,227,63765,6,0,P|103:250|117:285,1,75,2|0,0:0|0:0,0:0:0:0:
93,356,63976,2,0,L|210:362,1,75,8|0,0:0|0:0,0:0:0:0:
226,312,64187,1,0,3:0:0:0:
226,312,64293,1,0,3:0:0:0:
226,312,64399,2,0,L|343:306,1,75,8|0,0:0|0:0,0:0:0:0:
392,208,64610,6,0,P|355:213|327:237,1,75,2|0,0:0|0:0,0:0:0:0:
363,352,64821,2,0,P|399:356|433:341,1,75,8|0,0:0|0:0,0:0:0:0:
453,268,65032,1,0,3:0:0:0:
457,249,65137,1,0,3:0:0:0:
462,231,65243,1,8,0:0:0:0:
467,213,65348,1,0,0:0:0:0:
472,195,65455,6,0,L|438:100,1,75,2|0,3:2|0:0,0:0:0:0:
396,44,65666,2,0,L|371:115,1,75,8|0,0:0|0:0,0:0:0:0:
322,172,65877,1,0,3:0:0:0:
267,182,65982,1,0,3:0:0:0:
211,174,66088,1,8,0:0:0:0:
162,148,66193,1,0,3:0:0:0:
124,107,66300,6,0,L|28:102,1,75,2|0,0:0|0:0,0:0:0:0:
68,175,66511,2,0,L|15:255,1,75,8|0,0:0|0:0,0:0:0:0:
107,266,66723,1,0,3:0:0:0:
107,266,66828,1,0,3:0:0:0:
107,266,66934,2,0,L|203:271,1,75,8|0,0:0|3:0,0:0:0:0:
289,250,67145,6,0,P|220:272|203:342,1,150,2|8,0:0|0:0,0:0:0:0:
275,324,67462,1,0,0:0:0:0:
275,324,67568,2,0,L|381:342,1,75,0|0,3:0|3:0,0:0:0:0:
389,273,67779,2,0,L|495:255,1,75,8|0,0:0|3:0,0:0:0:0:
477,186,67990,6,0,P|499:156|503:119,1,75,4|0,0:0|0:0,0:0:0:0:
395,21,68201,2,0,P|410:55|440:77,1,75,8|0,0:0|0:0,0:0:0:0:
388,133,68413,1,0,3:0:0:0:
384,151,68518,1,0,3:0:0:0:
380,169,68624,2,0,L|253:183,1,75,8|0,0:0|0:0,0:0:0:0:
219,85,68835,6,0,P|287:107|305:176,1,150,2|8,0:0|0:0,0:0:0:0:
246,223,69152,1,0,0:0:0:0:
246,223,69258,2,0,L|269:319,1,75,0|0,0:0|0:0,0:0:0:0:
188,304,69469,2,0,L|165:400,1,75,8|0,0:0|0:0,0:0:0:0:
97,357,69680,6,0,P|64:375|27:371,1,75,2|0,0:0|0:0,0:0:0:0:
49,298,69892,2,0,P|17:278|2:245,1,75,8|0,0:0|0:0,0:0:0:0:
76,226,70103,2,0,P|77:189|98:159,1,75,0|0,3:0|3:0,0:0:0:0:
150,213,70314,2,0,L|265:193,1,75,8|0,0:0|3:0,0:0:0:0:
264,136,70525,6,0,L|337:148,1,75,2|0,0:0|0:0,0:0:0:0:
451,71,70737,2,0,L|377:83,1,75,8|0,0:0|0:0,0:0:0:0:
340,224,70948,1,0,3:0:0:0:
393,273,71053,1,0,3:0:0:0:
465,265,71159,1,8,3:2:0:0:
507,206,71264,1,0,3:0:0:0:
490,135,71370,5,2,0:0:0:0:
325,298,71793,6,0,L|334:371,1,56.2500021457673,0|0,0:0|0:0,0:0:0:0:
298,283,72004,2,0,L|294:356,1,56.2500021457673,0|0,0:0|0:0,0:0:0:0:
274,263,72215,6,0,L|257:334,1,56.2500021457673,0|0,0:0|0:0,0:0:0:0:
253,239,72427,2,0,L|224:306,1,56.2500021457673,0|0,0:0|0:0,0:0:0:0:
237,213,72638,6,0,L|196:274,1,56.2500021457673,0|0,0:0|0:0,0:0:0:0:
226,184,72849,2,0,L|175:237,1,56.2500021457673,0|0,0:0|0:0,0:0:0:0:
220,152,73061,6,0,L|161:196,1,56.2500021457673,0|0,0:0|0:0,0:0:0:0:
219,119,73272,2,0,L|168:144,1,56.2500021457673,0|0,0:0|0:0,0:0:0:0:
311,67,73483,6,0,L|376:33,1,56.2500021457673,0|0,0:0|0:0,0:0:0:0:
239,47,73694,2,0,L|213:-3,1,56.2500021457673,0|0,0:0|0:0,0:0:0:0:
291,139,73905,2,0,L|324:204,1,56.2500021457673,0|0,0:0|0:0,0:0:0:0:
293,0,74117,5,8,0:0:0:0:
168,143,74328,1,0,3:0:0:0:
316,189,74539,1,0,3:0:0:0:
266,94,74751,5,4,0:0:0:0:
209,129,88272,6,0,P|226:204|343:261,1,168.750006437302,2|0,0:0|0:0,0:0:0:0:
374,244,88694,2,0,P|366:297|291:335,1,112.500004291535,8|0,0:0|0:0,0:0:0:0:
163,330,89117,2,0,B|106:323|106:323|74:263,1,112.500004291535,0|0,3:0|0:0,0:0:0:0:
61,118,89539,2,0,B|118:125|118:125|150:185,1,112.500004291535,8|0,0:0|0:0,0:0:0:0:
241,297,89962,6,0,B|266:345|266:345|323:352,1,112.500004291535,2|0,0:0|0:0,0:0:0:0:
304,195,90385,2,0,L|176:239,1,112.500004291535,8|0,0:0|0:0,0:0:0:0:
61,118,90807,1,0,3:0:0:0:
210,139,91018,1,8,0:3:0:0:
116,258,91230,2,0,P|113:313|147:356,1,112.500004291535,8|0,0:3|0:0,0:0:0:0:
300,276,91652,6,0,L|189:289,1,112.500004291535,2|0,0:0|0:0,0:0:0:0:
373,308,92075,2,0,P|376:252|342:209,1,112.500004291535,8|0,0:0|0:0,0:0:0:0:
232,107,92497,2,0,P|278:137|333:130,1,112.500004291535,0|0,3:0|0:0,0:0:0:0:
393,0,92920,2,0,L|297:59,1,112.500004291535,8|0,0:0|0:0,0:0:0:0:
401,191,93342,5,8,3:2:0:0:
512,80,93554,1,8,0:0:0:0:
507,59,93659,1,8,0:0:0:0:
498,40,93765,1,0,3:0:0:0:
483,25,93870,1,0,3:0:0:0:
465,15,93976,1,0,3:0:0:0:
332,130,94187,2,0,P|309:185|338:260,1,112.500004291535,8|0,0:3|0:0,0:0:0:0:
265,292,94504,1,0,0:0:0:0:
265,292,94610,2,0,P|248:346|203:377,1,112.500004291535,8|0,0:0|0:0,0:0:0:0:
78,260,95032,6,0,L|183:298,1,112.500004291535,2|0,0:0|0:0,0:0:0:0:
326,207,95455,2,0,P|281:239|265:292,1,112.500004291535,8|0,0:0|0:0,0:0:0:0:
367,368,95877,2,0,P|412:336|429:284,1,112.500004291535,0|0,3:0|0:0,0:0:0:0:
324,104,96300,2,0,B|302:143|302:143|325:207,1,112.500004291535,8|0,0:0|0:0,0:0:0:0:
495,167,96723,6,0,L|384:150,1,112.500004291535,0|0,3:0|0:0,0:0:0:0:
265,292,97145,2,0,L|376:274,1,112.500004291535,8|0,0:0|0:0,0:0:0:0:
188,260,97568,1,0,3:0:0:0:
276,374,97779,1,8,0:3:0:0:
254,210,97990,2,0,P|199:178|131:199,1,112.500004291535,8|0,0:3|0:0,0:0:0:0:
88,360,98413,6,0,L|199:342,1,112.500004291535,0|0,3:0|0:0,0:0:0:0:
239,362,98730,1,0,0:0:0:0:
239,362,98835,1,8,0:0:0:0:
355,184,99046,6,0,P|300:179|254:210,1,112.500004291535,0|0,3:0|0:0,0:0:0:0:
240,253,99363,1,0,0:0:0:0:
240,253,99469,1,8,0:0:0:0:
404,253,99680,5,8,0:0:0:0:
423,233,99785,1,0,3:0:0:0:
435,207,99891,1,0,3:0:0:0:
438,180,99996,1,0,0:0:0:0:
432,152,100102,5,8,3:2:0:0:
26,17,101793,6,0,L|39:93,1,75,4|0,0:2|0:0,0:0:0:0:
113,101,102004,2,0,L|100:177,1,75,8|0,0:0|0:0,0:0:0:0:
144,235,102215,1,0,3:0:0:0:
162,238,102320,1,0,3:0:0:0:
180,241,102427,2,0,P|226:236|272:195,1,75,8|0,0:0|0:0,0:0:0:0:
243,85,102638,6,0,B|216:130|216:130|250:222,1,150,2|8,0:0|0:0,0:0:0:0:
319,257,102955,1,0,0:0:0:0:
319,257,103061,2,0,L|427:269,1,75,0|0,3:0|3:0,0:0:0:0:
454,179,103272,2,0,L|379:187,1,75,8|0,0:0|0:0,0:0:0:0:
250,221,103483,6,0,P|253:293|366:307,1,150,2|8,0:0|0:0,0:0:0:0:
392,340,103800,1,0,0:0:0:0:
392,340,103906,2,0,L|500:352,1,75,0|0,3:0|3:0,0:0:0:0:
443,268,104117,2,0,L|542:224,1,75,8|0,0:0|0:0,0:0:0:0:
454,179,104328,6,0,P|452:136|331:67,1,150,2|8,0:0|0:0,0:0:0:0:
303,57,104645,1,0,0:0:0:0:
303,56,104751,2,0,P|305:93|327:124,1,75,0|0,3:0|3:0,0:0:0:0:
279,182,104962,2,0,P|276:218|254:249,1,75,8|0,0:0|0:0,0:0:0:0:
132,190,105173,6,0,B|206:171|206:171|279:182,1,150,2|8,0:0|0:0,0:0:0:0:
353,195,105490,1,0,0:0:0:0:
353,195,105596,2,0,L|377:282,1,75,0|0,3:0|3:0,0:0:0:0:
447,275,105807,2,0,L|423:362,1,75,8|0,0:0|0:0,0:0:0:0:
301,290,106018,6,0,P|321:321|354:340,1,75,2|0,0:0|0:0,0:0:0:0:
243,237,106230,2,0,P|226:270|227:307,1,75,8|0,0:0|0:0,0:0:0:0:
148,265,106441,2,0,L|160:340,1,75,0|0,3:0|3:0,0:0:0:0:
132,190,106652,2,0,P|99:207|78:238,1,75,8|0,0:0|0:0,0:0:0:0:
0,176,106863,6,0,P|45:154|148:225,1,150,2|8,0:0|0:0,0:0:0:0:
301,290,107286,1,0,3:0:0:0:
301,290,107392,1,0,3:0:0:0:
301,290,107497,2,0,L|310:199,1,75,8|0,0:0|0:0,0:0:0:0:
383,207,107708,6,0,L|345:123,1,75,2|0,0:0|0:0,0:0:0:0:
412,94,107920,2,0,L|337:40,1,75,8|0,0:0|0:0,0:0:0:0:
287,9,108131,1,0,3:0:0:0:
231,15,108236,1,0,3:0:0:0:
185,45,108342,1,8,3:2:0:0:
157,94,108447,1,0,3:0:0:0:
154,149,108554,6,0,L|173:252,1,75,4|0,0:0|0:0,0:0:0:0:
109,271,108765,2,0,P|170:300|201:292,1,75,8|0,0:0|0:0,0:0:0:0:
249,286,108976,1,0,3:0:0:0:
249,286,109082,1,0,3:0:0:0:
249,286,109187,2,0,L|262:359,1,75,8|0,0:0|0:0,0:0:0:0:
324,274,109399,6,0,L|426:255,1,75,2|0,0:0|0:0,0:0:0:0:
388,185,109610,2,0,L|461:198,1,75,8|0,0:0|0:0,0:0:0:0:
455,123,109821,1,0,3:0:0:0:
455,123,109927,1,0,0:0:0:0:
455,123,110032,2,0,P|475:90|470:39,1,75,8|0,0:0|0:0,0:0:0:0:
345,15,110244,6,0,P|325:48|330:99,1,75,2|0,0:0|0:0,0:0:0:0:
250,104,110455,2,0,P|268:137|315:158,1,75,8|0,0:0|0:0,0:0:0:0:
233,206,110666,2,0,P|250:238|249:275,1,75,0|0,3:0|3:0,0:0:0:0:
175,257,110877,2,0,P|155:288|122:306,1,75,8|0,0:0|0:0,0:0:0:0:
26,229,111089,6,0,L|101:233,1,75,2|0,0:0|0:0,0:0:0:0:
72,148,111300,2,0,L|144:171,1,75,8|0,0:0|0:0,0:0:0:0:
137,81,111511,2,0,L|200:121,1,75,0|0,3:0|3:0,0:0:0:0:
216,32,111723,2,0,L|266:87,1,75,8|0,0:0|0:0,0:0:0:0:
333,53,111934,6,0,P|296:118|308:190,1,150,2|8,0:0|0:0,0:0:0:0:
370,327,112356,1,0,3:0:0:0:
370,327,112462,1,0,3:0:0:0:
370,327,112568,2,0,L|458:314,1,75,8|0,0:0|0:0,0:0:0:0:
411,246,112779,6,0,B|338:256|338:256|294:276|291:333,1,150,2|8,0:0|0:0,0:0:0:0:
151,359,113201,1,0,3:0:0:0:
151,359,113307,1,0,3:0:0:0:
151,359,113413,2,0,L|63:346,1,75,8|0,0:0|0:0,0:0:0:0:
78,208,113624,6,0,L|106:278,1,75,2|0,0:0|0:0,0:0:0:0:
151,189,113835,2,0,L|179:259,1,75,8|0,0:0|0:0,0:0:0:0:
219,322,114046,1,0,3:0:0:0:
243,335,114151,1,0,3:0:0:0:
271,339,114257,1,8,3:2:0:0:
298,334,114362,1,0,3:0:0:0:
323,321,114469,6,0,L|391:350,1,75,2|0,3:2|0:0,0:0:0:0:
463,328,114680,1,8,3:2:0:0:
494,281,114785,1,0,3:0:0:0:
500,226,114891,1,0,3:0:0:0:
479,174,114996,1,0,3:0:0:0:
436,138,115103,2,0,L|340:152,1,75,8|0,3:2|3:0,0:0:0:0:
292,187,115314,6,0,L|283:131,1,56.2500021457673,4|0,0:0|0:0,0:0:0:0:
213,193,115525,2,0,L|189:141,1,56.2500021457673,0|0,3:0|0:0,0:0:0:0:
138,219,115737,2,0,L|102:175,1,56.2500021457673,0|0,3:0|0:0,0:0:0:0:
72,263,115948,2,0,L|26:230,1,56.2500021457673,0|0,3:0|0:0,0:0:0:0:
25,326,116159,6,0,P|61:367|116:373,1,112.500004291535,8|0,0:0|0:0,0:0:0:0:
233,266,116582,2,0,L|382:284,1,112.500004291535,8|0,0:0|0:0,0:0:0:0:
457,169,117004,6,0,P|475:148|484:122,1,56.2500021457673,0|0,3:0|0:0,0:0:0:0:
407,108,117215,2,0,P|412:80|407:52,1,56.2500021457673,0|0,3:0|0:0,0:0:0:0:
332,79,117427,2,0,P|322:52|304:31,1,56.2500021457673,0|0,3:0|0:0,0:0:0:0:
252,91,117638,2,0,P|230:72|204:63,1,56.2500021457673,0|0,3:0|0:0,0:0:0:0:
187,141,117849,6,0,P|149:180|146:235,1,112.500004291535,8|0,0:0|0:0,0:0:0:0:
316,253,118272,2,0,P|276:214|221:211,1,112.500004291535,8|0,0:0|0:0,0:0:0:0:
134,314,118694,6,0,L|244:289,1,112.500004291535,0|0,3:0|0:0,0:0:0:0:
309,333,119011,2,0,L|418:307,1,112.500004291535,0|0,3:0|0:0,0:0:0:0:
460,240,119328,1,8,0:0:0:0:
328,149,119539,6,0,P|303:198|315:252,1,112.500004291535,8|0,3:2|0:0,0:0:0:0:
237,263,119856,2,0,P|248:316|223:366,1,112.500004291535,0|0,3:0|0:0,0:0:0:0:
148,384,120173,1,0,3:0:0:0:
59,270,120385,6,0,L|166:307,1,112.500004291535,0|0,3:0|0:0,0:0:0:0:
237,263,120701,2,0,L|349:271,1,112.500004291535,0|0,3:0|0:0,0:0:0:0:
408,219,121018,1,0,3:0:0:0:
470,73,121230,6,0,B|416:52|416:88|360:72,1,112.500004291535,8|0,0:0|0:0,0:0:0:0:
302,19,121546,2,0,P|320:71|299:122,1,112.500004291535,0|0,3:0|0:0,0:0:0:0:
226,150,121863,1,8,0:0:0:0:
68,158,122075,6,0,L|88:240,1,56.2500021457673,0|0,3:0|0:0,0:0:0:0:
20,263,122286,2,0,L|92:306,1,56.2500021457673,0|0,3:0|0:0,0:0:0:0:
60,371,122497,2,0,L|141:350,1,56.2500021457673,0|0,3:0|0:0,0:0:0:0:
182,316,122708,2,0,L|236:329,1,56.2500021457673,0|0,3:0|0:0,0:0:0:0:
307,365,122920,6,0,P|362:360|401:322,1,112.500004291535,8|0,0:0|0:0,0:0:0:0:
378,247,123237,1,0,0:0:0:0:
378,247,123342,2,0,L|448:253,1,56.2500021457673,8|0,0:0|0:0,0:0:0:0:
425,172,123554,2,0,L|488:142,1,56.2500021457673,0|0,0:0|0:0,0:0:0:0:
428,82,123765,6,0,P|443:60|450:32,1,56.2500021457673,0|0,3:0|0:0,0:0:0:0:
351,57,123976,2,0,P|340:32|319:13,1,56.2500021457673,0|0,3:0|0:0,0:0:0:0:
291,110,124187,2,0,P|263:107|236:115,1,56.2500021457673,0|0,3:0|0:0,0:0:0:0:
305,188,124399,2,0,P|289:210|282:238,1,56.2500021457673,0|0,3:0|0:0,0:0:0:0:
340,292,124610,6,0,L|484:285,1,112.500004291535,8|0,0:0|0:0,0:0:0:0:
479,127,125032,1,0,0:0:0:0:
440,127,125137,1,0,0:0:0:0:
408,146,125243,1,0,0:0:0:0:
390,180,125348,1,0,0:0:0:0:
392,218,125454,5,0,3:0:0:0:
0,107,138976,6,0,L|93:130,1,75,4|0,0:0|0:0,0:0:0:0:
106,192,139187,2,0,L|178:173,1,75,8|0,0:0|0:0,0:0:0:0:
252,154,139399,1,0,3:0:0:0:
252,154,139504,1,0,0:0:0:0:
252,154,139610,2,0,P|252:198|216:241,1,75,8|0,0:0|0:0,0:0:0:0:
182,275,139821,6,0,B|228:256|228:256|330:270,1,150,2|8,3:2|0:0,0:0:0:0:
384,220,140138,1,0,0:0:0:0:
384,220,140244,2,0,L|458:230,1,75,0|0,3:0|3:0,0:0:0:0:
415,151,140455,2,0,L|490:162,1,75,8|0,0:0|0:0,0:0:0:0:
421,76,140666,6,0,L|346:86,1,75,2|0,0:0|0:0,0:0:0:0:
297,30,140877,2,0,P|274:59|272:96,1,75,8|0,0:0|0:0,0:0:0:0:
206,134,141089,2,0,P|229:162|231:199,1,75,2|0,3:2|0:0,0:0:0:0:
180,254,141300,1,8,0:0:0:0:
180,254,141406,6,0,L|171:343,1,75,2|0,0:0|0:0,0:0:0:0:
98,312,141617,1,0,0:0:0:0:
98,312,141723,2,0,L|29:342,1,75,8|0,0:0|0:0,0:0:0:0:
90,237,141934,2,0,L|15:249,1,75,0|0,3:0|3:0,0:0:0:0:
101,162,142145,2,0,L|26:154,1,75,8|0,0:0|0:0,0:0:0:0:
0,53,142356,6,0,B|29:80|29:80|138:91,1,150,2|8,0:0|0:0,0:0:0:0:
207,60,142673,1,0,0:0:0:0:
207,60,142779,2,0,P|213:103|194:143,1,75,0|0,3:0|3:0,0:0:0:0:
271,160,142990,2,0,L|276:283,1,75,8|0,0:0|0:0,0:0:0:0:
339,268,143201,6,0,P|365:337|447:349,1,150,2|8,0:0|0:0,0:0:0:0:
488,299,143518,1,0,0:0:0:0:
488,299,143624,2,0,P|490:266|453:210,1,75,0|0,3:0|3:0,0:0:0:0:
429,150,143835,2,0,L|504:159,1,75,8|0,0:0|0:0,0:0:0:0:
506,66,144046,6,0,L|432:75,1,75,2|0,0:0|0:0,0:0:0:0:
396,7,144258,2,0,L|335:51,1,75,10|0,0:0|0:0,0:0:0:0:
270,10,144469,2,0,L|239:78,1,75,2|0,3:2|0:0,0:0:0:0:
162,75,144680,2,0,L|170:149,1,75,10|0,0:0|0:0,0:0:0:0:
100,185,144892,6,0,B|150:241|150:241|257:242,1,150,2|8,0:0|0:0,0:0:0:0:
281,192,145208,1,0,0:0:0:0:
280,191,145314,2,0,P|298:224|296:261,1,75,0|0,3:0|0:0,0:0:0:0:
366,285,145525,2,0,P|346:316|313:332,1,75,8|0,0:0|0:0,0:0:0:0:
252,379,145737,6,0,P|221:358|183:357,1,75,2|0,0:0|0:0,0:0:0:0:
108,360,145948,1,8,0:0:0:0:
108,360,146054,1,0,0:0:0:0:
108,360,146159,2,0,P|116:323|105:288,1,75,0|0,3:0|0:0,0:0:0:0:
81,217,146370,2,0,P|107:242|144:250,1,75,8|0,0:0|0:0,0:0:0:0:
218,164,146582,6,0,L|144:174,1,75,2|0,0:0|0:0,0:0:0:0:
76,139,146793,1,8,0:0:0:0:
76,139,146899,2,0,L|1:148,1,75,0|0,0:0|3:0,0:0:0:0:
63,64,147110,1,0,0:0:0:0:
63,64,147216,2,0,L|137:73,1,75,8|0,0:0|0:0,0:0:0:0:
184,14,147427,6,0,P|207:46|207:100,1,75,2|0,0:0|0:0,0:0:0:0:
281,107,147638,2,0,L|271:181,1,75,10|0,0:0|0:0,0:0:0:0:
196,183,147849,2,0,L|205:257,1,75,2|0,3:2|0:0,0:0:0:0:
273,290,148061,2,0,P|250:319|216:332,1,75,10|0,0:0|0:0,0:0:0:0:
86,325,148272,6,0,B|128:265|128:265|205:257,1,150,2|8,0:0|0:0,0:0:0:0:
266,213,148589,1,0,0:0:0:0:
266,213,148694,2,0,P|312:222|345:263,1,75,0|0,3:0|3:0,0:0:0:0:
394,196,148906,2,0,P|408:230|404:267,1,75,8|0,0:0|0:0,0:0:0:0:
472,298,149117,6,0,P|449:327|415:342,1,75,0|0,0:0|0:0,0:0:0:0:
345,313,149328,2,0,L|254:284,1,75,10|0,0:0|0:0,0:0:0:0:
266,213,149539,1,0,3:0:0:0:
266,213,149645,1,0,3:0:0:0:
266,212,149751,2,0,P|230:224|205:252,1,75,8|0,0:0|0:0,0:0:0:0:
129,207,149962,6,0,L|136:282,1,75,2|0,0:0|0:0,0:0:0:0:
60,285,150173,1,0,3:0:0:0:
60,285,150279,1,0,3:0:0:0:
59,285,150385,2,0,P|69:324|108:353,1,75,8|0,0:0|0:0,0:0:0:0:
168,352,150596,6,0,L|272:357,1,75,2|0,0:0|0:0,0:0:0:0:
288,295,150807,1,0,3:0:0:0:
288,295,150913,1,0,3:0:0:0:
288,295,151018,2,0,L|362:291,1,75,8|0,0:0|3:0,0:0:0:0:
370,215,151230,6,0,P|399:187|404:139,1,75,2|0,0:0|3:0,0:0:0:0:
371,88,151441,1,0,3:0:0:0:
371,88,151546,1,0,3:0:0:0:
371,88,151652,2,0,P|336:74|299:77,1,75,8|8,0:0|0:3,0:0:0:0:
239,32,151863,6,0,P|225:68|243:129,1,75,2|0,3:2|3:0,0:0:0:0:
153,115,152075,2,0,P|168:150|224:180,1,75,8|0,0:0|0:0,0:0:0:0:
150,234,152286,2,0,P|186:247|247:229,1,75,8|0,3:0|0:0,0:0:0:0:
232,320,152497,6,0,P|269:304|297:217,1,112.500004291535,8|0,0:3|3:0,0:0:0:0:
328,97,152920,2,0,P|323:137|384:204,1,112.500004291535,0|0,3:0|3:0,0:0:0:0:
482,285,153342,2,0,L|370:271,1,112.500004291535,8|0,0:0|0:0,0:0:0:0:
200,357,153765,2,0,L|311:343,1,112.500004291535,8|0,0:0|0:0,0:0:0:0:
180,277,154187,6,0,P|134:307|118:359,1,112.500004291535,0|0,3:0|3:0,0:0:0:0:
260,277,154610,2,0,P|242:225|194:197,1,112.500004291535,0|0,3:0|3:0,0:0:0:0:
83,87,155032,2,0,B|126:123|126:123|218:123,1,112.500004291535,8|0,0:0|0:0,0:0:0:0:
292,9,155455,2,0,P|255:50|254:106,1,112.500004291535,8|0,0:0|0:0,0:0:0:0:
333,250,155877,6,0,P|332:305|296:346,1,112.500004291535,0|0,3:0|3:0,0:0:0:0:
147,279,156300,2,0,L|259:277,1,112.500004291535,0|0,3:0|3:0,0:0:0:0:
73,305,156723,2,0,P|73:249|110:208,1,112.500004291535,8|0,0:0|0:0,0:0:0:0:
289,176,157145,2,0,P|240:203|187:192,1,112.500004291535,8|0,0:0|0:0,0:0:0:0:
311,94,157568,6,0,B|350:94|350:94|390:104|422:151,1,112.500004291535,0|0,3:0|3:0,0:0:0:0:
432,291,157990,2,0,B|393:291|393:291|353:281|321:234,1,112.500004291535,0|0,3:0|3:0,0:0:0:0:
228,116,158413,2,0,L|216:200,1,56.2500021457673,8|0,3:0|0:0,0:0:0:0:
141,161,158624,2,0,L|153:245,1,56.2500021457673,0|0,3:0|0:0,0:0:0:0:
221,248,158835,2,0,L|209:332,1,56.2500021457673,0|0,3:0|0:0,0:0:0:0:
134,293,159046,2,0,L|146:377,1,56.2500021457673,0|0,3:0|0:0,0:0:0:0:
214,380,159258,6,0,P|259:365|284:280,1,112.500004291535,8|0,3:0|3:0,0:0:0:0:
309,150,159680,2,0,P|299:196|360:260,1,112.500004291535,0|0,3:0|3:0,0:0:0:0:
490,187,160103,2,0,L|378:186,1,112.500004291535,8|0,3:0|0:0,0:0:0:0:
335,327,160525,2,0,P|386:307|410:258,1,112.500004291535,8|0,0:0|0:0,0:0:0:0:
305,71,160948,6,0,P|253:91|230:140,1,112.500004291535,0|0,3:0|3:0,0:0:0:0:
241,312,161370,2,0,B|268:279|268:279|270:209,1,112.500004291535,0|0,3:0|3:0,0:0:0:0:
140,94,161793,2,0,L|169:192,1,56.2500021457673,8|0,3:2|0:0,0:0:0:0:
85,182,162004,2,0,L|159:252,1,56.2500021457673,8|0,3:0|0:0,0:0:0:0:
81,285,162215,2,0,L|180:308,1,56.2500021457673,0|0,3:0|0:0,0:0:0:0:
129,376,162427,2,0,L|227:347,1,56.2500021457673,0|0,3:0|0:0,0:0:0:0:
241,312,162638,2,0,B|291:283|338:301|338:301|380:318|435:339|487:312|532:234|487:163|436:132|363:142|332:197,1,495.000015106202,0|0,0:0|0:0,0:0:0:0:
256,223,164328,5,0,3:0:0:0:
245,224,164433,1,0,3:0:0:0:
235,226,164539,1,0,3:0:0:0:
225,227,164644,1,0,0:0:0:0:
215,229,164750,1,0,3:0:0:0:
154,172,164962,2,0,L|90:182,2,41.2500012588501,8|0|8,0:0|0:0|0:0,0:0:0:0:
194,100,165385,1,8,0:0:0:0:
265,140,165596,1,8,0:0:0:0:
305,68,165807,1,0,3:0:0:0:
305,68,165913,1,0,3:0:0:0:
305,68,166018,5,12,3:2:0:0:
292,108,179539,6,0,P|353:159|339:229,1,120,2|8,0:0|0:0,0:0:0:0:
305,249,179856,1,0,0:0:0:0:
305,249,179962,2,0,L|294:356,1,60,0|0,3:0|0:0,0:0:0:0:
233,259,180173,2,0,L|227:319,1,60,8|0,0:0|0:0,0:0:0:0:
159,345,180385,6,0,P|129:344|97:320,1,60,2|0,3:2|0:0,0:0:0:0:
154,270,180596,2,0,L|147:210,1,60,8|0,0:0|0:0,0:0:0:0:
220,181,180807,2,0,L|226:121,1,60,0|0,3:0|0:0,0:0:0:0:
238,47,181018,2,0,P|261:53|294:91,1,60,8|0,0:0|0:0,0:0:0:0:
366,83,181230,6,0,P|352:112|353:149,1,60,2|0,0:0|0:0,0:0:0:0:
428,132,181441,2,0,P|442:161|441:198,1,60,8|0,0:0|0:0,0:0:0:0:
369,214,181652,2,0,P|355:243|356:280,1,60,2|0,3:2|0:0,0:0:0:0:
431,263,181863,2,0,P|445:292|444:329,1,60,8|0,0:0|0:0,0:0:0:0:
371,346,182075,6,0,L|293:365,1,60,2|0,0:0|0:0,0:0:0:0:
282,287,182286,2,0,L|219:337,1,60,8|0,0:0|0:0,0:0:0:0:
204,250,182497,2,0,L|146:265,1,60,0|0,3:0|3:0,0:0:0:0:
115,191,182708,2,0,L|69:229,1,60,8|0,0:0|0:0,0:0:0:0:
39,155,182920,6,0,P|39:97|78:53,1,120,2|8,0:0|0:0,0:0:0:0:
155,40,183237,1,0,0:0:0:0:
155,40,183342,2,0,L|169:134,1,60,0|0,3:0|0:0,0:0:0:0:
242,92,183554,2,0,L|228:186,1,60,8|0,0:0|0:0,0:0:0:0:
311,143,183765,6,0,P|314:178|428:228,1,120,2|8,0:0|0:0,0:0:0:0:
445,199,184082,1,0,0:0:0:0:
445,199,184187,2,0,B|409:224|409:224|411:300,1,120,0|8,3:0|0:0,0:0:0:0:
347,345,184504,1,0,0:0:0:0:
347,345,184610,6,0,P|309:354|263:342,1,60,2|0,0:0|0:0,0:0:0:0:
207,300,184821,2,0,P|236:294|262:278,1,60,8|0,0:0|0:0,0:0:0:0:
324,231,185032,2,0,P|300:212|284:187,1,60,0|0,3:0|0:0,0:0:0:0:
206,173,185244,2,0,P|222:147|228:118,1,60,8|0,0:0|0:0,0:0:0:0:
153,58,185455,6,0,L|153:127,1,60,2|0,0:0|0:0,0:0:0:0:
75,130,185666,2,0,L|109:189,1,60,8|0,0:0|0:0,0:0:0:0:
43,231,185877,2,0,L|102:265,1,60,0|0,3:0|3:0,0:0:0:0:
65,334,186089,2,0,L|134:334,1,60,8|0,0:0|0:0,0:0:0:0:
184,282,186300,6,0,B|244:264|244:300|304:280,1,120,2|8,0:0|0:0,0:0:0:0:
345,215,186617,1,0,0:0:0:0:
345,215,186723,2,0,P|367:236|379:263,1,60,0|0,3:0|0:0,0:0:0:0:
390,151,186934,2,0,P|419:157|442:175,1,60,8|0,0:0|0:0,0:0:0:0:
396,73,187145,6,0,P|363:34|267:42,1,120,2|8,0:0|0:0,0:0:0:0:
229,63,187462,1,0,0:0:0:0:
229,63,187568,2,0,B|245:120|245:120|220:196,1,120,0|8,3:0|0:0,0:0:0:0:
150,196,187885,1,0,0:0:0:0:
150,196,187990,6,0,P|162:224|193:249,1,60,2|0,0:0|0:0,0:0:0:0:
160,317,188201,2,0,P|189:321|226:306,1,60,8|0,0:0|0:0,0:0:0:0:
269,368,188413,2,0,P|287:344|293:305,1,60,0|0,3:0|0:0,0:0:0:0:
367,299,188624,2,0,P|355:271|324:246,1,60,8|0,0:0|0:0,0:0:0:0:
360,177,188835,6,0,L|300:181,1,60,2|0,0:0|0:0,0:0:0:0:
280,106,189046,2,0,L|230:140,1,60,8|0,0:0|0:0,0:0:0:0:
156,111,189258,1,0,3:0:0:0:
153,140,189363,1,0,3:0:0:0:
150,170,189469,1,8,3:2:0:0:
148,200,189574,1,0,3:0:0:0:
145,230,189680,5,6,0:0:0:0:
195,141,193061,6,0,L|188:251,1,75,4|0,0:0|0:0,0:0:0:0:
326,245,193272,2,0,P|300:218|265:208,1,75,8|0,0:0|0:0,0:0:0:0:
185,289,193483,1,0,3:0:0:0:
185,289,193589,1,0,3:0:0:0:
185,289,193694,2,0,L|262:283,1,75,8|0,0:0|0:0,0:0:0:0:
326,320,193906,6,0,B|401:325|401:325|455:272,1,150,2|8,0:0|0:0,0:0:0:0:
482,202,194223,1,0,0:0:0:0:
482,202,194328,2,0,P|445:198|398:224,1,75,0|0,3:0|3:0,0:0:0:0:
362,152,194539,2,0,P|340:182|339:235,1,75,8|0,0:0|0:0,0:0:0:0:
260,205,194751,6,0,B|220:231|220:231|104:220,1,150,2|8,0:0|0:0,0:0:0:0:
124,146,195068,1,0,0:0:0:0:
124,146,195173,2,0,L|225:155,1,75,0|0,3:0|3:0,0:0:0:0:
193,58,195385,2,0,L|255:102,1,75,8|0,0:0|0:0,0:0:0:0:
297,17,195596,6,0,L|328:85,1,75,2|0,0:0|0:0,0:0:0:0:
407,32,195807,2,0,L|399:106,1,75,8|0,0:0|0:0,0:0:0:0:
442,181,196018,1,0,3:0:0:0:
442,181,196124,1,0,3:0:0:0:
442,181,196230,2,0,L|449:255,1,75,8|0,0:0|0:3,0:0:0:0:
489,319,196441,6,0,B|447:292|447:292|407:330|314:317,1,150,4|8,0:0|0:0,0:0:0:0:
285,288,196758,1,0,0:0:0:0:
284,288,196863,2,0,P|277:324|289:359,1,75,0|0,3:0|3:0,0:0:0:0:
209,291,197075,2,0,P|184:318|176:354,1,75,8|0,0:0|0:0,0:0:0:0:
141,254,197286,6,0,P|105:266|81:294,1,75,2|0,0:0|0:0,0:0:0:0:
166,184,197497,2,0,L|91:183,1,75,8|0,0:0|0:0,0:0:0:0:
174,109,197708,2,0,P|210:122|233:149,1,75,0|0,3:0|3:0,0:0:0:0:
308,138,197920,2,0,L|290:236,1,75,8|0,0:0|0:0,0:0:0:0:
284,288,198131,6,0,P|307:316|342:331,1,75,2|0,0:0|0:0,0:0:0:0:
356,254,198342,2,0,L|446:269,1,75,8|0,0:0|0:0,0:0:0:0:
426,190,198554,1,0,3:0:0:0:
426,190,198659,1,0,3:0:0:0:
426,190,198765,2,0,L|499:177,1,75,8|0,0:0|0:0,0:0:0:0:
467,109,198976,6,0,P|496:85|511:50,1,75,2|0,0:0|0:0,0:0:0:0:
436,40,199187,2,0,B|411:12|411:12|375:0,1,75,8|0,0:0|0:0,0:0:0:0:
300,12,199399,1,0,3:0:0:0:
256,46,199504,1,0,3:0:0:0:
232,97,199610,1,8,3:2:0:0:
233,153,199715,1,0,3:0:0:0:
258,202,199821,6,0,P|272:300|208:365,1,150,4|8,0:0|0:0,0:0:0:0:
176,368,200138,1,0,0:0:0:0:
176,368,200244,2,0,L|83:379,1,75,0|0,3:0|3:0,0:0:0:0:
74,306,200455,2,0,L|0:297,1,75,8|0,0:0|0:0,0:0:0:0:
0,221,200666,6,0,P|-13:123|50:58,1,150,2|8,0:0|0:0,0:0:0:0:
82,57,200983,1,0,0:0:0:0:
82,57,201089,2,0,L|102:144,1,75,0|0,3:0|0:0,0:0:0:0:
174,128,201300,2,0,L|154:215,1,75,8|0,0:0|0:0,0:0:0:0:
232,198,201511,6,0,P|230:242|251:279,1,75,2|0,0:0|0:0,0:0:0:0:
307,223,201723,2,0,P|343:246|385:246,1,75,8|0,0:0|0:0,0:0:0:0:
364,174,201934,2,0,P|400:178|431:200,1,75,2|0,3:2|3:0,0:0:0:0:
492,154,202146,2,0,P|506:188|503:225,1,75,8|0,0:0|0:0,0:0:0:0:
504,299,202356,6,0,L|422:299,1,75,2|0,0:0|0:0,0:0:0:0:
401,369,202568,2,0,L|333:321,1,75,8|0,0:0|0:0,0:0:0:0:
276,367,202779,2,0,L|247:289,1,75,2|0,3:2|3:0,0:0:0:0:
174,293,202990,2,0,L|195:213,1,75,8|0,0:0|0:0,0:0:0:0:
130,173,203201,6,0,P|160:149|196:141,1,75,4|0,0:0|0:0,0:0:0:0:
259,183,203413,2,0,L|339:204,1,75,8|0,0:0|0:0,0:0:0:0:
400,170,203624,1,0,3:0:0:0:
400,170,203730,1,0,3:0:0:0:
400,170,203835,2,0,P|405:218|388:251,1,75,8|0,0:0|0:0,0:0:0:0:
327,276,204046,6,0,L|342:380,1,75,2|0,0:0|0:0,0:0:0:0:
248,265,204258,2,0,L|259:340,1,75,8|0,0:0|0:0,0:0:0:0:
169,254,204469,1,0,3:0:0:0:
169,254,204575,1,0,3:0:0:0:
169,254,204680,2,0,L|179:328,1,75,8|0,0:0|0:0,0:0:0:0:
89,241,204892,6,0,P|101:206|130:183,1,75,2|0,0:0|0:0,0:0:0:0:
104,102,205103,2,0,L|178:115,1,75,8|0,0:0|0:0,0:0:0:0:
251,172,205314,1,0,3:0:0:0:
251,172,205420,1,0,3:0:0:0:
251,172,205525,2,0,L|324:159,1,75,8|0,0:0|0:0,0:0:0:0:
368,38,205737,6,0,P|334:54|313:83,1,75,2|0,0:0|0:0,0:0:0:0:
395,183,205948,2,0,P|398:146|381:112,1,75,8|0,0:0|0:0,0:0:0:0:
336,234,206159,1,0,3:0:0:0:
366,255,206264,1,0,3:0:0:0:
403,260,206370,1,8,3:2:0:0:
438,249,206475,1,0,0:0:0:0:
466,224,206582,6,0,L|494:150,1,75,4|0,0:0|0:0,0:0:0:0:
422,126,206793,2,0,L|395:55,1,75,8|0,0:0|0:0,0:0:0:0:
323,79,207004,1,0,3:0:0:0:
306,70,207109,1,0,3:0:0:0:
290,61,207215,2,0,P|246:49|199:69,1,75,8|0,0:0|0:0,0:0:0:0:
250,124,207427,6,0,L|200:222,1,75,2|0,0:0|0:0,0:0:0:0:
141,183,207638,2,0,L|156:291,1,75,8|0,0:0|0:0,0:0:0:0:
106,317,207849,1,0,3:0:0:0:
106,317,207955,1,0,3:0:0:0:
106,317,208061,2,0,P|136:331|213:307,1,75,8|0,0:0|0:0,0:0:0:0:
223,269,208272,6,0,P|247:298|253:335,1,75,2|0,0:0|0:0,0:0:0:0:
275,215,208483,2,0,P|309:228|333:256,1,75,8|0,0:0|0:0,0:0:0:0:
291,141,208694,2,0,P|327:135|362:148,1,75,0|0,3:0|3:0,0:0:0:0:
267,67,208906,2,0,P|295:44|332:38,1,75,8|0,0:0|0:0,0:0:0:0:
215,13,209117,6,0,P|126:29|96:123,1,150,2|8,0:0|0:0,0:0:0:0:
44,129,209434,1,0,0:0:0:0:
44,129,209539,2,0,L|59:209,1,75,0|0,3:0|3:0,0:0:0:0:
11,262,209751,2,0,P|44:277|81:274,1,75,8|0,0:0|0:0,0:0:0:0:
132,218,209962,6,0,L|134:292,1,75,4|0,0:0|0:0,0:0:0:0:
202,191,210173,2,0,L|206:300,1,75,8|0,0:0|0:0,0:0:0:0:
195,341,210385,1,0,3:0:0:0:
217,357,210490,1,0,3:0:0:0:
243,367,210596,1,8,0:0:0:0:
271,368,210701,1,0,0:0:0:0:
298,360,210807,6,0,L|391:351,1,75,2|0,0:0|0:0,0:0:0:0:
355,279,211018,2,0,L|429:286,1,75,8|0,0:0|0:0,0:0:0:0:
441,211,211230,1,0,3:0:0:0:
478,170,211335,1,0,3:0:0:0:
489,115,211441,1,8,0:0:0:0:
471,63,211546,1,0,0:0:0:0:
427,26,211652,6,0,P|391:21|354:29,1,75,2|0,0:0|0:0,0:0:0:0:
287,63,211863,2,0,P|309:92|314:129,1,75,8|0,0:0|0:0,0:0:0:0:
273,193,212075,1,0,3:0:0:0:
273,193,212180,1,0,0:0:0:0:
273,193,212286,2,0,L|165:208,1,75,8|0,0:0|0:0,0:0:0:0:
91,260,212497,6,0,L|166:271,1,75,2|0,0:0|0:0,0:0:0:0:
197,339,212708,2,0,P|225:315|240:281,1,75,8|0,0:0|0:0,0:0:0:0:
313,263,212920,1,8,3:0:0:0:
313,263,213025,1,0,3:0:0:0:
313,263,213131,2,0,L|387:273,1,75,8|0,0:0|0:0,0:0:0:0:
413,202,213342,6,0,L|487:192,1,75,6|0,0:0|0:0,0:0:0:0:
462,120,213554,2,0,P|480:85|474:27,1,75,8|0,0:0|0:0,0:0:0:0:
422,4,213765,1,0,3:0:0:0:
422,4,213870,1,0,3:0:0:0:
422,4,213976,2,0,L|348:14,1,75,8|0,0:0|0:0,0:0:0:0:
273,25,214187,6,0,P|291:65|334:86,1,75,2|0,0:0|0:0,0:0:0:0:
357,141,214399,2,0,P|323:155|287:150,1,75,8|0,0:0|0:0,0:0:0:0:
203,113,214610,2,0,L|221:186,1,75,0|0,3:0|3:0,0:0:0:0:
284,226,214821,2,0,L|266:298,1,75,8|0,0:0|0:0,0:0:0:0:
191,296,215032,6,0,P|223:361|295:368,1,150,2|8,0:0|0:0,0:0:0:0:
344,311,215349,1,0,0:0:0:0:
343,310,215455,2,0,P|365:340|370:377,1,75,0|0,3:0|3:0,0:0:0:0:
407,267,215666,2,0,L|480:281,1,75,8|0,0:0|0:0,0:0:0:0:
438,196,215877,6,0,L|511:181,1,75,2|0,0:0|0:0,0:0:0:0:
463,116,216089,2,0,P|481:81|475:23,1,75,8|0,0:0|0:0,0:0:0:0:
419,5,216300,1,0,3:0:0:0:
346,0,216405,1,0,3:0:0:0:
288,44,216511,1,8,0:0:0:0:
272,116,216616,1,0,0:0:0:0:
307,180,216723,6,0,P|317:238|250:337,1,150,4|8,0:0|0:0,0:0:0:0:
214,355,217039,2,0,B|189:319|189:319|61:299,1,150,2|0,0:0|3:0,0:0:0:0:
73,228,217356,2,0,L|147:239,1,75,8|0,0:0|0:0,0:0:0:0:
157,164,217568,6,0,L|231:152,1,75,2|0,0:0|0:0,0:0:0:0:
240,76,217779,2,0,L|315:88,1,75,8|0,0:0|0:0,0:0:0:0:
389,97,217990,1,0,3:0:0:0:
389,97,218096,1,0,3:0:0:0:
389,97,218201,1,8,0:0:0:0:
364,245,218413,6,0,L|181:274,1,150,4|8,0:0|0:0,0:0:0:0:
151,306,218730,2,0,L|334:335,1,150,2|0,0:0|0:0,0:0:0:0:
373,322,219046,2,0,L|447:310,1,75,8|0,0:0|0:0,0:0:0:0:
478,234,219258,6,0,L|403:234,1,75,2|0,0:0|0:0,0:0:0:0:
373,146,219469,2,0,L|447:158,1,75,8|0,0:0|0:0,0:0:0:0:
484,92,219680,1,0,3:0:0:0:
484,92,219786,1,0,3:0:0:0:
484,92,219892,1,8,0:0:0:0:
335,71,220103,6,0,P|289:144|325:216,1,150,4|8,0:0|0:0,0:0:0:0:
360,252,220420,2,0,B|312:233|312:233|202:250,1,150,2|0,0:0|3:0,0:0:0:0:
140,257,220737,2,0,P|152:292|183:317,1,75,8|0,0:0|0:0,0:0:0:0:
227,374,220948,6,0,L|324:358,1,75,2|0,0:0|0:0,0:0:0:0:
369,330,221159,2,0,L|443:341,1,75,8|0,0:0|0:0,0:0:0:0:
498,290,221370,1,2,3:2:0:0:
498,290,221476,1,2,3:2:0:0:
498,290,221582,1,8,0:0:0:0:
484,92,221793,6,0,L|435:165,1,75,2|0,0:0|0:0,0:0:0:0:
371,126,222004,2,0,P|365:162|377:197,1,75,8|0,0:0|0:0,0:0:0:0:
305,219,222215,2,0,P|292:253|263:278,1,75,0|0,3:0|3:0,0:0:0:0:
294,348,222427,2,0,P|257:354|222:342,1,75,8|0,0:0|0:0,0:0:0:0:
115,279,222638,6,0,L|190:274,1,75,2|0,0:0|0:0,0:0:0:0:
172,161,222849,2,0,L|230:210,1,75,8|0,0:0|0:0,0:0:0:0:
274,148,223061,1,0,3:0:0:0:
328,145,223166,1,0,3:0:0:0:
372,179,223272,1,8,0:0:0:0:
381,233,223377,1,0,0:0:0:0:
352,280,223483,6,0,B|314:318|314:318|200:318,1,150,4|8,0:0|0:0,0:0:0:0:
158,271,223800,1,2,0:0:0:0:
158,270,223906,2,0,P|141:304|146:344,1,75,0|0,3:0|3:0,0:0:0:0:
147,195,224117,2,0,P|112:206|89:235,1,75,10|0,0:0|0:0,0:0:0:0:
105,115,224328,6,0,L|180:127,1,75,0|0,3:0|0:0,0:0:0:0:
209,54,224539,2,0,P|244:84|257:116,1,75,10|0,0:0|0:0,0:0:0:0:
327,79,224751,2,0,P|330:124|317:156,1,75,2|0,3:2|3:0,0:0:0:0:
393,179,224962,2,0,P|363:213|331:226,1,75,8|0,0:0|0:0,0:0:0:0:
279,274,225173,6,0,L|293:347,1,75,2|0,3:2|0:0,0:0:0:0:
206,250,225385,2,0,L|186:350,1,75,8|0,0:0|0:0,0:0:0:0:
103,225,225596,2,0,L|118:299,1,75,0|0,3:0|3:0,0:0:0:0:
30,201,225807,2,0,L|16:275,1,75,8|0,0:0|0:0,0:0:0:0:
43,126,226018,6,0,L|-14:77,1,75,0|0,3:0|3:0,0:0:0:0:
114,102,226230,2,8,L|185:77,1,75,8|0,0:0|0:0,0:0:0:0:
224,141,226441,1,0,3:0:0:0:
286,182,226546,1,0,3:0:0:0:
360,184,226652,1,8,0:0:0:0:
422,144,226757,1,8,0:0:0:0:
454,78,226863,5,4,0:0:0:0:
33,83,230244,6,0,P|89:133|184:108,1,150,4|8,0:0|0:0,0:0:0:0:
214,74,230561,1,2,0:0:0:0:
214,74,230666,2,0,B|244:107|232:147|232:147|215:192|258:239,1,150,0|8,3:0|0:0,0:0:0:0:
302,173,230983,6,0,B|385:172|385:172|437:192|445:256,1,150,2|0,0:0|0:0,0:0:0:0:
505,238,231300,2,0,L|488:319,1,75,8|0,0:0|0:0,0:0:0:0:
430,358,231511,1,0,3:0:0:0:
430,358,231617,1,0,3:0:0:0:
430,358,231723,1,8,0:0:0:0:
288,308,231934,6,0,P|201:292|121:332,1,150,2|8,0:0|0:0,0:0:0:0:
95,369,232251,1,2,0:0:0:0:
95,369,232356,2,0,B|119:327|119:327|115:198,1,150,0|8,3:0|0:0,0:0:0:0:
59,173,232673,6,0,P|132:191|202:169,1,150,2|0,0:0|0:0,0:0:0:0:
246,107,232990,2,0,L|355:107,1,75,8|0,0:0|0:0,0:0:0:0:
359,41,233201,2,0,P|386:67|398:105,1,75,0|0,3:0|3:0,0:0:0:0:
473,100,233413,2,0,L|451:215,1,75,8|0,0:0|0:0,0:0:0:0:
439,246,233624,6,0,B|402:261|364:247|364:247|265:249,1,150,2|8,0:0|0:0,0:0:0:0:
248,187,233941,1,2,0:0:0:0:
248,187,234046,2,0,P|219:221|258:315,1,150,0|8,3:0|0:0,0:0:0:0:
300,368,234363,6,0,B|251:343|251:343|130:344,1,150,2|0,0:0|0:0,0:0:0:0:
121,277,234680,2,0,B|46:277,1,75,8|0,0:0|0:0,0:0:0:0:
7,211,234892,1,0,3:0:0:0:
7,211,234997,1,0,3:0:0:0:
7,211,235103,1,8,0:0:0:0:
48,75,235314,6,0,L|141:75,1,75,2|0,0:0|0:0,0:0:0:0:
182,28,235525,2,0,P|196:59|185:120,1,75,8|0,0:0|0:0,0:0:0:0:
268,115,235737,2,0,L|242:210,2,75,0|0|8,3:0|3:0|0:0,0:0:0:0:
287,42,236054,6,0,B|332:57|342:104|342:104|424:128,1,150,2|0,0:0|0:0,0:0:0:0:
411,195,236370,2,0,L|482:216,1,75,8|0,0:0|0:0,0:0:0:0:
485,292,236582,1,0,3:0:0:0:
482,328,236687,1,0,3:0:0:0:
462,359,236793,1,8,0:0:0:0:
429,376,236898,1,0,3:0:0:0:
390,374,237004,6,0,B|354:355|354:355|305:384|250:357,1,150,4|8,0:0|0:0,0:0:0:0:
201,299,237321,1,2,0:0:0:0:
201,299,237427,2,0,P|147:279|74:341,1,150,0|8,3:0|0:0,0:0:0:0:
148,354,237744,6,0,L|327:292,1,150,2|0,0:0|0:0,0:0:0:0:
318,235,238061,2,0,L|434:261,1,75,8|0,0:0|0:0,0:0:0:0:
422,182,238272,1,0,3:0:0:0:
422,182,238377,1,0,3:0:0:0:
422,182,238483,1,8,0:0:0:0:
495,51,238694,6,0,L|326:74,1,150,2|8,0:0|0:0,0:0:0:0:
276,42,239011,1,2,0:0:0:0:
276,42,239117,2,0,B|309:77|309:77|313:140|235:170,1,150,0|8,3:0|0:0,0:0:0:0:
185,143,239434,6,0,P|205:212|276:235,1,150,2|0,0:0|0:0,0:0:0:0:
348,219,239751,2,0,L|330:350,1,75,8|0,0:0|0:0,0:0:0:0:
263,308,239962,2,0,P|279:344|309:364,1,75,0|0,3:0|3:0,0:0:0:0:
383,356,240173,2,0,L|491:345,1,75,8|0,0:0|0:0,0:0:0:0:
487,278,240385,6,0,P|524:204|467:126,1,150,2|8,0:0|0:0,0:0:0:0:
426,129,240701,1,2,0:0:0:0:
426,129,240807,2,0,B|384:149|384:149|282:129,1,150,0|8,3:0|0:0,0:0:0:0:
209,111,241124,6,0,P|262:188|227:250,1,150,2|0,0:0|0:0,0:0:0:0:
175,257,241441,2,0,L|194:342,1,75,8|0,0:0|0:0,0:0:0:0:
134,379,241652,1,0,3:0:0:0:
134,379,241758,1,0,3:0:0:0:
134,379,241863,1,8,0:0:0:0:
118,208,242075,6,0,P|149:186|186:184,1,75,2|0,0:0|0:0,0:0:0:0:
244,233,242286,2,0,L|256:310,1,75,8|0,0:0|0:0,0:0:0:0:
330,298,242497,2,0,L|378:358,1,75,0|0,3:0|3:0,0:0:0:0:
444,323,242708,2,0,P|480:320|511:298,1,75,8|0,0:0|0:0,0:0:0:0:
467,173,242920,6,0,L|454:246,1,75,0|0,3:0|3:0,0:0:0:0:
371,141,243131,2,0,L|385:215,1,75,0|0,3:0|3:0,0:0:0:0:
312,233,243342,1,0,3:0:0:0:
261,287,243447,1,0,3:0:0:0:
189,305,243553,1,8,3:2:0:0:
119,281,243658,1,8,3:2:0:0:
73,223,243765,6,0,P|66:143|136:66,1,168.750006437302,4|0,0:0|0:0,0:0:0:0:
182,31,244187,2,0,B|211:76|211:76|300:77,1,112.500004291535,2|0,0:0|0:0,0:0:0:0:
345,53,244504,2,0,P|305:91|304:146,1,112.500004291535,2|0,0:0|0:0,0:0:0:0:
253,206,244821,2,0,L|272:296,1,56.2500021457673,2|0,0:0|0:0,0:0:0:0:
235,334,245032,5,8,0:0:0:0:
337,213,245244,1,12,0:0:0:0:
