osu file format v14

[General]
AudioFilename: godofspeed.mp3
AudioLeadIn: 0
PreviewTime: 100631
Countdown: 0
SampleSet: Soft
StackLeniency: 0.7
Mode: 0
LetterboxInBreaks: 0
WidescreenStoryboard: 0

[Editor]
DistanceSpacing: 1
BeatDivisor: 4
GridSize: 4
TimelineZoom: 2.899999

[Metadata]
Title:Kyouran Hey Kids!!
TitleUnicode:狂乱 Hey Kids!!
Artist:THE ORAL CIGARETTES
ArtistUnicode:THE ORAL CIGARETTES
Creator:monstrata
Version:God of Speed
Source:ノラガミ ARAGOTO
Tags:milan- cerulean veyron gray noragami aragoto yato hiyori second 2nd op opening full version
BeatmapID:815857
BeatmapSetID:372510

[Difficulty]
HPDrainRate:5.5
CircleSize:4
OverallDifficulty:8
ApproachRate:9.3
SliderMultiplier:3.4
SliderTickRate:2

[Events]
//Background and Video events
0,0,"608362.jpg",0,0
//Break Periods
2,74951,87718
2,128835,138000
2,166218,178563
//Storyboard Layer 0 (Background)
//Storyboard Layer 1 (Fail)
//Storyboard Layer 2 (Pass)
//Storyboard Layer 3 (Foreground)
//Storyboard Sound Samples

[TimingPoints]
385,422.535211267606,4,2,0,65,1,0
385,-200,4,2,0,40,0,0
5455,-200,4,2,1,60,0,0
7145,-100,4,2,1,60,0,0
20666,-133.333333333333,4,2,1,40,0,0
34187,-100,4,2,1,60,0,0
40948,-166.666666666667,4,2,1,65,0,0
44328,-133.333333333333,4,2,1,65,0,0
46018,-100,4,2,1,65,0,0
46863,-78.125,4,2,1,65,0,0
47708,-100,4,2,1,65,0,1
71370,-100,4,2,1,65,0,0
71793,-133.333333333333,4,2,1,35,0,0
88272,-133.333333333333,4,2,1,40,0,0
91018,-133.333333333333,4,2,1,60,0,0
91441,-133.333333333333,4,2,1,40,0,0
97779,-133.333333333333,4,2,1,60,0,0
98413,-125,4,2,1,65,0,0
98941,-111.111111111111,4,2,1,65,0,0
99680,-100,4,2,1,65,0,0
100948,-90.9090909090909,4,2,1,65,0,0
101793,-100,4,2,1,65,0,1
115314,-133.333333333333,4,2,1,65,0,1
125455,-133.333333333333,4,2,1,65,0,0
138976,-100,4,2,1,65,0,0
151758,-100,4,2,1,35,0,0
151863,-100,4,2,1,65,0,0
152497,-133.333333333333,4,2,1,40,0,0
162638,-181.818181818182,4,2,1,35,0,0
164328,-181.818181818182,4,2,1,45,0,0
179539,-125,4,2,1,50,0,0
192215,-86.9565217391304,4,2,1,65,0,0
193061,-100,4,2,1,65,0,1
226863,-100,4,2,1,65,0,0
227286,-133.333333333333,4,2,1,35,0,0
230244,-100,4,2,1,60,0,0
243765,-133.333333333333,4,2,1,40,0,0

[Colours]
Combo1 : 255,162,162
Combo2 : 108,207,255
Combo3 : 163,88,254
Combo4 : 0,99,198

[HitObjects]
262,157,385,6,0,P|322:185|328:293,1,170,4|0,0:0|0:0,0:0:0:0:
259,243,1018,1,0,0:0:0:0:
259,243,1124,1,0,0:0:0:0:
259,243,1230,2,0,L|252:341,1,85,2|0,0:0|0:0,0:0:0:0:
173,197,1652,2,0,L|180:282,1,85,2|0,0:0|0:0,0:0:0:0:
88,189,2075,6,0,L|250:132,1,170,0|0,3:0|3:0,0:0:0:0:
350,78,2708,1,0,0:0:0:0:
350,78,2814,1,0,0:0:0:0:
350,78,2920,2,0,B|327:112|327:112|330:156,1,85,2|0,0:0|0:0,0:0:0:0:
490,118,3342,2,0,B|449:114|449:114|413:139,1,85,2|0,0:0|0:0,0:0:0:0:
317,248,3765,6,0,B|373:260|373:260|470:201,1,170,0|0,3:0|3:0,0:0:0:0:
311,163,4399,1,0,0:0:0:0:
311,163,4504,1,0,0:0:0:0:
311,163,4610,2,0,L|317:248,1,85,2|0,0:0|0:0,0:0:0:0:
232,132,5032,2,0,L|237:216,1,85,2|0,0:0|0:0,0:0:0:0:
379,110,5455,5,4,3:3:0:0:
391,123,6723,5,0,3:0:0:0:
121,261,7145,5,4,1:0:0:0:
170,330,7251,1,0,0:0:0:0:
253,344,7356,1,8,0:0:0:0:
321,295,7462,1,0,0:0:0:0:
334,212,7568,2,0,P|323:171|297:137,2,85,2|0|8,3:2|3:0|0:0,0:0:0:0:
332,17,7885,6,0,B|335:59|357:81|357:81|416:48|476:99,1,170,2|0,0:0|0:0,0:0:0:0:
403,156,8201,2,0,L|432:253,1,85,8|0,0:0|0:0,0:0:0:0:
404,320,8413,1,2,0:0:0:0:
321,295,8518,1,2,0:0:0:0:
253,344,8624,2,0,L|156:328,1,85,8|0,0:0|0:0,0:0:0:0:
11,359,8835,5,2,0:0:0:0:
11,359,8941,2,0,L|95:373,1,85,0|8,0:0|0:0,0:0:0:0:
156,237,9152,1,0,0:0:0:0:
156,237,9258,2,0,P|118:255|89:287,1,85,2|0,3:2|3:0,0:0:0:0:
85,118,9469,1,8,0:0:0:0:
85,118,9575,6,0,B|123:156|123:156|256:137,1,170,2|0,0:0|0:0,0:0:0:0:
304,86,9892,1,8,0:0:0:0:
379,124,9997,1,0,0:0:0:0:
426,53,10103,2,0,L|524:39,1,85,2|0,0:0|0:0,0:0:0:0:
426,53,10314,2,0,L|404:164,1,85,10|0,0:0|0:0,0:0:0:0:
353,200,10525,5,0,3:0:0:0:
353,200,10631,2,0,P|391:220|433:218,1,85,0|8,0:0|0:0,0:0:0:0:
282,247,10842,1,0,0:0:0:0:
282,247,10948,2,0,P|294:287|326:315,1,85,2|0,3:2|3:0,0:0:0:0:
198,227,11159,1,8,0:0:0:0:
197,227,11265,6,0,P|178:264|180:306,2,85,2|0|0,0:0|0:0|0:0,0:0:0:0:
19,310,11582,2,0,P|61:308|97:286,1,85,8|0,0:0|0:0,0:0:0:0:
112,202,11793,1,2,3:2:0:0:
66,130,11899,1,0,3:0:0:0:
123,68,12004,2,0,B|154:62|154:62|240:86,1,85,8|0,0:0|0:0,0:0:0:0:
267,135,12215,5,2,3:2:0:0:
348,159,12321,1,0,0:0:0:0:
412,102,12427,2,0,P|413:56|381:10,1,85,8|0,0:0|0:0,0:0:0:0:
265,32,12638,2,0,B|283:62|283:62|330:77,2,85,2|0|8,0:2|0:0|0:0,0:0:0:0:
348,159,12955,6,0,B|413:184|413:184|461:228|434:299,1,170,2|0,0:0|0:0,0:0:0:0:
345,334,13272,2,0,L|360:250,1,85,8|0,0:0|0:0,0:0:0:0:
261,351,13483,1,0,3:0:0:0:
177,368,13589,1,0,3:0:0:0:
93,351,13694,1,8,3:2:0:0:
28,295,13800,1,8,3:2:0:0:
27,209,13906,5,4,0:0:0:0:
27,209,14011,2,0,P|74:219|109:263,1,85,0|8,0:0|0:0,0:0:0:0:
103,106,14223,1,0,0:0:0:0:
103,106,14328,2,0,P|135:133|149:173,1,85,2|0,3:2|3:0,0:0:0:0:
219,54,14539,1,8,0:0:0:0:
219,55,14645,6,0,B|239:97|225:136|225:136|255:150|255:150|228:173|244:240,1,170,2|0,0:2|0:0,0:0:0:0:
165,306,14962,2,0,P|200:283|242:283,1,85,8|0,0:0|0:0,0:0:0:0:
317,322,15173,1,0,3:0:0:0:
397,293,15279,1,0,3:0:0:0:
482,292,15385,2,0,P|473:250|443:221,1,85,8|0,0:0|0:0,0:0:0:0:
326,124,15596,5,2,0:0:0:0:
326,124,15701,2,0,B|354:144|354:144|405:145,1,85,0|8,0:0|0:0,0:0:0:0:
258,178,15913,1,0,0:0:0:0:
258,178,16018,2,0,B|263:211|263:211|299:248,1,85,2|0,0:0|0:0,0:0:0:0:
171,167,16230,1,8,0:0:0:0:
171,167,16335,6,0,B|151:194|151:194|150:294|150:294|111:331,1,170,2|0,0:0|0:0,0:0:0:0:
47,302,16652,2,0,P|88:296|124:319,1,85,8|0,0:0|0:0,0:0:0:0:
183,378,16863,2,0,L|299:356,1,85,2|0,3:2|3:0,0:0:0:0:
320,250,17075,2,0,P|324:296|362:340,1,85,8|0,0:0|0:0,0:0:0:0:
487,257,17286,5,2,0:0:0:0:
487,257,17392,2,0,L|403:265,1,85,0|8,0:0|0:0,0:0:0:0:
369,169,17603,1,0,0:0:0:0:
369,169,17708,2,0,L|454:177,1,85,2|0,3:2|3:0,0:0:0:0:
487,80,17920,1,8,0:0:0:0:
487,81,18025,6,0,B|408:88|408:88|398:86|398:86|388:90|388:90|354:93|354:93|348:98|348:98|340:95|340:95|281:101,1,170,2|0,0:2|0:0,0:0:0:0:
236,108,18342,2,0,L|228:192,1,85,8|0,0:0|0:0,0:0:0:0:
162,247,18554,1,2,3:2:0:0:
80,267,18659,1,0,3:0:0:0:
0,285,18765,2,0,P|3:240|33:201,1,85,8|0,0:0|0:0,0:0:0:0:
140,329,18976,6,0,P|181:330|219:311,1,85,2|0,0:0|0:0,0:0:0:0:
244,234,19187,2,0,P|221:269|219:311,1,85,8|0,0:0|0:0,0:0:0:0:
354,357,19399,2,0,B|336:315|336:315|303:295,2,85,2|0|8,3:2|3:0|3:2,0:0:0:0:
309,176,19715,2,0,B|327:218|327:218|400:263|400:263|427:326,1,170,2|0,0:2|0:0,0:0:0:0:
466,212,20032,6,0,L|394:168,1,85,8|0,0:0|0:0,0:0:0:0:
343,98,20244,1,0,3:0:0:0:
309,176,20349,1,0,3:0:0:0:
229,207,20455,1,8,3:2:0:0:
150,172,20561,1,0,3:0:0:0:
118,91,20666,6,0,P|160:36|267:41,1,127.500004863739,2|0,0:0|0:0,0:0:0:0:
257,34,20983,1,0,0:0:0:0:
257,34,21089,2,0,B|240:115|240:115|264:189,1,127.500004863739,8|0,3:2|0:0,0:0:0:0:
325,233,21511,2,0,B|342:152|342:152|329:110,1,127.500004863739,0|0,3:0|0:0,0:0:0:0:
235,237,21934,2,0,P|258:295|315:322,1,127.500004863739,8|0,0:0|3:0,0:0:0:0:
396,286,22251,1,0,3:0:0:0:
396,286,22356,6,0,B|354:299|354:299|336:381,1,127.500004863739,2|0,0:0|0:0,0:0:0:0:
292,200,22779,2,0,L|265:325,1,127.500004863739,8|0,0:0|0:0,0:0:0:0:
196,149,23201,2,0,B|213:185|213:185|193:271,1,127.500004863739,0|0,3:0|0:0,0:0:0:0:
276,109,23624,1,8,0:0:0:0:
116,189,23835,1,0,0:0:0:0:
292,200,24046,6,0,P|340:175|365:84,1,127.500004863739,2|0,0:0|0:0,0:0:0:0:
391,23,24363,1,0,0:0:0:0:
391,23,24469,2,0,L|413:199,1,127.500004863739,8|0,0:0|0:0,0:0:0:0:
276,326,24892,2,0,L|298:150,1,127.500004863739,0|0,3:0|0:0,0:0:0:0:
264,23,25314,2,0,P|242:81|188:113,1,127.500004863739,8|0,0:0|3:0,0:0:0:0:
100,96,25631,1,0,3:0:0:0:
100,96,25737,6,0,L|122:272,1,127.500004863739,2|0,0:0|0:0,0:0:0:0:
84,306,26054,1,0,0:0:0:0:
84,306,26159,2,0,P|128:262|190:255,1,127.500004863739,8|0,0:0|0:0,0:0:0:0:
307,115,26582,2,0,P|263:159|200:165,1,127.500004863739,0|0,3:0|0:0,0:0:0:0:
334,30,27004,1,8,0:0:0:0:
385,212,27215,1,0,3:0:0:0:
385,212,27321,1,0,3:0:0:0:
385,212,27427,6,0,B|344:194|344:194|225:209,1,127.500004863739,2|0,0:0|0:0,0:0:0:0:
195,145,27744,1,0,0:0:0:0:
195,145,27849,2,0,B|236:163|236:163|318:152,1,127.500004863739,8|0,0:0|0:0,0:0:0:0:
470,22,28272,2,0,B|433:48|433:48|401:124,1,127.500004863739,0|0,3:0|0:0,0:0:0:0:
439,322,28694,2,0,B|434:277|434:277|384:211,1,127.500004863739,8|0,0:0|3:0,0:0:0:0:
298,238,29011,1,0,3:0:0:0:
298,238,29117,6,0,B|257:256|257:256|138:241,1,127.500004863739,2|0,0:0|0:0,0:0:0:0:
98,198,29434,1,0,0:0:0:0:
97,197,29539,2,0,P|135:248|131:310,1,127.500004863739,8|0,0:0|0:0,0:0:0:0:
7,175,29962,2,0,B|48:157|48:157|130:167,1,127.500004863739,2|0,3:2|0:0,0:0:0:0:
293,79,30385,2,0,B|252:97|252:97|170:87,1,127.500004863739,8|0,0:0|0:0,0:0:0:0:
340,4,30807,6,0,P|377:54|373:116,1,127.500004863739,10|0,3:2|0:0,0:0:0:0:
303,172,31124,1,0,0:0:0:0:
303,172,31230,2,0,L|312:278,1,63.7500024318696,8|0,0:0|0:0,0:0:0:0:
371,298,31441,6,0,B|336:272|336:272|209:273,1,127.500004863739,10|0,0:0|0:0,0:0:0:0:
190,337,31758,1,0,0:0:0:0:
190,337,31863,2,0,P|223:358|270:361,1,63.7500024318696,8|0,0:0|0:0,0:0:0:0:
371,298,32075,6,0,P|336:316|310:355,1,63.7500024318696,10|0,0:0|0:0,0:0:0:0:
395,383,32286,1,0,3:0:0:0:
395,383,32392,1,0,3:0:0:0:
395,383,32497,6,0,L|411:243,1,127.500004863739,4|0,0:0|0:0,0:0:0:0:
310,108,32920,2,0,L|298:207,1,63.7500024318696,8|0,0:0|0:0,0:0:0:0:
216,147,33131,2,0,L|227:246,1,63.7500024318696,0|0,3:0|0:0,0:0:0:0:
160,273,33342,1,8,0:0:0:0:
113,271,33447,1,0,3:0:0:0:
76,241,33553,1,0,3:0:0:0:
64,196,33658,1,0,3:0:0:0:
81,152,33764,5,8,3:2:0:0:
81,152,34187,6,0,B|104:104|182:106|182:106|224:156,1,170,4|8,0:0|0:0,0:0:0:0:
264,215,34504,1,0,0:0:0:0:
315,283,34610,2,0,L|399:287,2,85,2|0|8,3:2|3:0|0:0,0:0:0:0:
460,347,34927,6,0,P|482:261|415:203,1,170,2|0,0:0|0:0,0:0:0:0:
315,283,35244,2,0,L|268:354,1,85,8|0,0:0|0:0,0:0:0:0:
183,354,35455,1,2,3:2:0:0:
119,296,35561,1,0,3:0:0:0:
132,211,35666,2,0,P|171:229|197:262,1,85,8|0,0:0|0:0,0:0:0:0:
229,142,35877,5,2,0:0:0:0:
229,142,35983,2,0,L|146:127,1,85,0|8,0:0|0:0,0:0:0:0:
68,25,36194,1,0,0:0:0:0:
68,25,36300,2,0,L|152:41,1,85,2|0,3:2|3:0,0:0:0:0:
233,65,36511,1,8,0:0:0:0:
233,65,36617,6,0,B|265:65|275:56|275:56|289:74|289:74|351:62|381:108,1,170,2|0,0:0|0:0,0:0:0:0:
313,157,36934,2,0,L|341:252,1,85,8|0,0:0|0:0,0:0:0:0:
346,323,37145,1,0,3:0:0:0:
424,355,37251,1,0,3:0:0:0:
492,305,37356,1,10,3:2:0:0:
132,211,37568,6,0,L|48:226,1,85,2|0,0:0|0:0,0:0:0:0:
160,130,37779,1,8,0:0:0:0:
240,158,37885,1,0,0:0:0:0:
256,240,37990,2,0,L|339:255,1,85,2|0,3:2|3:0,0:0:0:0:
451,159,38201,1,8,0:0:0:0:
451,159,38307,6,0,L|368:175,2,85,2|0|0,0:0|0:0|0:0,0:0:0:0:
272,322,38624,2,0,L|355:306,1,85,8|0,0:0|0:0,0:0:0:0:
256,240,38835,1,2,3:2:0:0:
180,279,38941,1,0,3:0:0:0:
132,211,39046,2,0,L|48:226,1,85,8|0,0:0|0:0,0:0:0:0:
0,154,39258,5,0,3:0:0:0:
40,80,39363,1,0,3:0:0:0:
115,44,39469,1,0,3:0:0:0:
198,59,39574,1,0,3:0:0:0:
256,120,39680,6,0,B|279:131|279:131|402:129,1,85,10|0,0:0|0:0,0:0:0:0:
436,55,39892,2,0,B|413:44|413:44|354:45,1,85,8|0,0:0|0:0,0:0:0:0:
132,211,40102,5,0,3:0:0:0:
337,204,40314,1,0,0:0:0:0:
198,59,40525,1,0,3:0:0:0:
256,240,40737,1,0,0:0:0:0:
444,20,40948,6,0,L|425:171,2,152.999995330811,0|0|0,3:0|3:0|3:0,0:0:0:0:
334,124,41793,2,0,L|355:297,1,152.999995330811,8|0,0:0|0:0,0:0:0:0:
426,172,42215,1,8,0:0:0:0:
86,172,42638,6,0,P|144:227|134:314,2,152.999995330811,0|0|0,3:0|3:0|3:0,0:0:0:0:
59,260,43483,2,0,B|199:263|199:263|207:252|207:252|214:263|214:263|279:264,1,203.999993774414,8|0,0:0|0:0,0:0:0:0:
444,20,44328,6,0,P|386:75|406:184,2,191.250007295609,0|0|0,3:0|3:0|3:0,0:0:0:0:
481,115,45173,2,0,B|340:118|340:118|333:107|333:107|326:118|326:118|263:120,1,191.250007295609,8|0,0:0|0:0,0:0:0:0:
206,78,45596,2,0,P|264:133|244:242,1,191.250007295609,8|0,0:0|0:0,0:0:0:0:
86,347,46018,5,8,3:2:0:0:
86,262,46124,1,0,3:0:0:0:
167,236,46229,1,0,0:0:0:0:
216,305,46335,1,0,3:0:0:0:
167,374,46440,1,8,0:2:0:0:
103,178,46652,1,0,0:0:0:0:
304,224,46863,6,0,B|328:216|328:216|328:240|328:240|344:220|344:220|344:240|344:240|360:224|360:224|360:240|360:240|376:228|376:228|376:240|376:240|392:232|392:232|392:240|392:240|408:236|408:236|408:240|408:240|424:240|424:240|444:240|452:220|452:220|468:168|468:168|400:124|356:212,1,435.2
252,375,47497,1,0,0:0:0:0:
103,178,47708,6,0,P|140:189|185:181,1,85,4|0,0:0|0:0,0:0:0:0:
278,41,47920,2,0,B|248:71|248:71|234:111,1,85,8|0,0:0|0:0,0:0:0:0:
304,224,48131,1,0,3:0:0:0:
381,188,48237,1,0,3:0:0:0:
388,103,48342,2,0,P|340:114|310:142,1,85,8|0,0:0|0:0,0:0:0:0:
295,311,48554,6,0,B|383:329,1,85,2|0,0:0|0:0,0:0:0:0:
304,224,48765,2,0,P|261:231|214:288,1,85,8|0,0:0|0:0,0:0:0:0:
215,346,48976,2,0,L|95:361,1,85
22,263,49187,2,0,L|107:274,1,85,8|0,0:0|0:0,0:0:0:0:
147,136,49399,6,0,P|89:194|107:274,1,170,2|8,0:0|0:0,0:0:0:0:
171,218,49715,1,0,3:0:0:0:
238,165,49821,2,0,P|243:128|210:63,1,85
152,44,50032,1,8,3:2:0:0:
130,335,50244,6,0,L|250:350,1,85,2|0,0:0|0:0,0:0:0:0:
304,224,50455,2,0,P|265:237|235:270,1,85,8|0,0:0|0:0,0:0:0:0:
311,308,50666,1,0,3:0:0:0:
380,259,50772,1,0,3:0:0:0:
394,175,50877,2,0,L|309:185,1,85,8|0,0:0|0:0,0:0:0:0:
144,181,51089,6,0,B|202:199|202:199|310:185,1,170,4|8,0:0|0:0,0:0:0:0:
209,115,51406,1,0,0:0:0:0:
126,95,51511,2,0,P|88:114|63:149,1,85,0|0,3:0|3:0,0:0:0:0:
119,10,51723,2,0,L|34:20,1,85,8|0,0:0|0:0,0:0:0:0:
202,31,51934,6,0,P|248:40|288:82,1,85,0|0,3:0|0:0,0:0:0:0:
356,96,52145,2,0,P|361:54|347:15,1,85,8|0,0:0|0:0,0:0:0:0:
209,115,52356,2,0,P|162:124|122:166,1,85,0|0,3:0|3:0,0:0:0:0:
54,180,52567,2,0,P|49:138|64:99,1,85,8|0,0:0|0:0,0:0:0:0:
202,199,52779,6,0,L|316:213,1,85,2|0,0:0|0:0,0:0:0:0:
356,96,52990,2,0,L|271:106,1,85,8|0,0:0|0:0,0:0:0:0:
324,285,53201,1,0,3:0:0:0:
408,295,53306,1,0,3:0:0:0:
459,227,53413,1,8,0:0:0:0:
209,115,53624,6,0,P|162:124|122:166,1,85,2|0,0:0|0:0,0:0:0:0:
54,180,53835,2,0,P|89:211|103:267,1,85,8|0,0:0|0:0,0:0:0:0:
75,373,54046,1,0,3:0:0:0:
142,321,54152,1,0,3:0:0:0:
225,340,54258,1,8,3:2:0:0:
280,276,54363,1,0,3:0:0:0:
366,290,54469,6,0,L|474:306,1,85,4|0,0:0|0:0,0:0:0:0:
376,138,54680,2,0,L|408:218,1,85,8|0,0:0|0:0,0:0:0:0:
313,196,54892,1,0,3:0:0:0:
227,191,54997,1,0,3:0:0:0:
169,125,55103,2,0,P|175:72|217:30,1,85,8|0,0:0|0:0,0:0:0:0:
328,65,55314,6,0,L|255:109,1,85,2|0,0:0|0:0,0:0:0:0:
90,102,55525,2,0,P|132:103|169:125,1,85,8|0,0:0|0:0,0:0:0:0:
215,282,55737,2,0,B|199:298|169:291|169:291|177:216|228:190,1,170,0|8,3:0|0:0,0:0:0:0:
313,196,56054,1,0,0:0:0:0:
366,290,56159,6,0,L|474:306,1,85,2|0,0:0|0:0,0:0:0:0:
486,232,56370,2,0,P|455:260|449:301,1,85,8|0,0:0|0:0,0:0:0:0:
335,371,56582,2,0,L|227:355,1,85,0|0,3:0|3:0,0:0:0:0:
215,282,56793,2,0,L|107:298,1,85,8|0,0:0|0:0,0:0:0:0:
9,382,57004,6,0,P|34:346|38:295,1,85,2|0,0:0|0:0,0:0:0:0:
30,165,57215,2,0,P|48:205|90:234,1,85,8|0,0:0|0:0,0:0:0:0:
215,282,57427,2,0,P|197:242|155:213,1,85,0|0,3:0|3:0,0:0:0:0:
130,294,57638,2,0,L|215:282,1,85,8|0,0:0|0:0,0:0:0:0:
313,196,57849,6,0,L|228:208,1,85,2|0,0:0|0:0,0:0:0:0:
154,329,58061,2,0,L|238:316,1,85,8|0,0:0|0:0,0:0:0:0:
316,284,58272,1,0,3:0:0:0:
316,284,58377,1,0,3:0:0:0:
316,284,58483,2,0,P|321:326|306:366,1,85,8|0,0:0|0:0,0:0:0:0:
402,285,58694,6,0,P|397:243|412:203,1,85,2|0,0:0|0:0,0:0:0:0:
361,135,58906,2,0,L|445:122,1,85,8|0,0:0|0:0,0:0:0:0:
315,63,59117,1,0,3:0:0:0:
315,63,59223,1,0,3:0:0:0:
315,63,59328,2,0,L|325:176,1,85,8|0,0:0|0:0,0:0:0:0:
232,297,59539,6,0,L|316:284,1,85,0|0,3:0|0:0,0:0:0:0:
449,200,59751,2,0,L|365:213,1,85,8|0,0:0|0:0,0:0:0:0:
279,210,59962,1,0,3:0:0:0:
200,186,60067,1,0,3:0:0:0:
179,108,60173,1,8,0:0:0:0:
233,48,60278,1,0,3:0:0:0:
315,63,60385,6,0,B|345:70|345:70|440:55,1,85,2|0,0:0|0:0,0:0:0:0:
463,10,60596,2,0,P|424:28|398:61,1,85,8|0,0:0|0:0,0:0:0:0:
383,145,60807,1,8,3:2:0:0:
449,200,60913,1,0,3:0:0:0:
399,268,61018,1,8,3:2:0:0:
439,343,61124,1,0,3:0:0:0:
360,375,61230,6,0,B|298:381|298:381|275:361,1,85,4|0,0:0|0:0,0:0:0:0:
199,218,61441,2,0,B|217:204|217:204|279:210,1,85,8|0,0:0|0:0,0:0:0:0:
232,297,61652,1,0,3:0:0:0:
148,310,61757,1,0,3:0:0:0:
79,259,61863,2,0,L|91:174,1,85,8|0,0:0|0:0,0:0:0:0:
50,26,62075,6,0,P|69:64|104:88,1,85
271,81,62286,2,0,L|187:69,1,85,8|0,0:0|0:0,0:0:0:0:
115,231,62497,2,0,L|199:218,1,85,0|0,3:0|3:0,0:0:0:0:
271,81,62708,2,0,P|247:116|244:158,1,85,8|0,0:0|0:0,0:0:0:0:
333,295,62920,6,0,P|315:257|281:234,1,85,2|0,0:0|0:0,0:0:0:0:
293,370,63131,2,0,L|377:372,1,85,8|0,0:0|0:0,0:0:0:0:
418,297,63342,1,0,3:0:0:0:
499,323,63448,1,0,3:0:0:0:
481,239,63554,2,0,L|510:159,1,85,8|0,0:0|0:0,0:0:0:0:
468,31,63765,6,0,B|428:140|428:140|351:172,1,170,2|8,0:0|0:0,0:0:0:0:
247,99,64082,1,0,0:0:0:0:
332,92,64187,2,0,P|363:121|378:160,1,85,0|0,3:0|3:0,0:0:0:0:
295,170,64399,2,0,P|263:198|248:237,1,85,8|0,0:0|0:0,0:0:0:0:
289,332,64610,6,0,P|235:267|154:250,1,170,2|8,0:0|0:0,0:0:0:0:
68,83,64927,1,0,0:0:0:0:
88,166,65032,2,0,P|129:175|173:165,1,85,0|0,3:0|3:0,0:0:0:0:
280,24,65244,2,0,P|254:57|247:99,1,85,8|0,0:0|0:0,0:0:0:0:
376,195,65455,6,0,L|294:169,1,85,2|0,3:2|0:0,0:0:0:0:
289,332,65666,2,0,L|370:306,1,85,8|0,0:0|0:0,0:0:0:0:
248,236,65877,1,0,3:0:0:0:
174,279,65983,1,0,3:0:0:0:
99,236,66089,1,8,0:0:0:0:
98,149,66194,1,0,3:0:0:0:
172,104,66300,6,0,P|183:144|174:185,1,85,2|0,0:0|0:0,0:0:0:0:
254,28,66511,2,0,P|245:69|257:110,1,85,8|0,0:0|0:0,0:0:0:0:
320,168,66723,1,0,3:0:0:0:
335,251,66828,1,0,3:0:0:0:
252,266,66934,1,8,0:0:0:0:
306,330,67039,1,0,3:0:0:0:
388,315,67145,6,0,P|416:272|413:217,1,85,2|0,0:0|0:0,0:0:0:0:
320,168,67356,2,0,B|349:171|349:171|440:136,1,85,8|0,0:0|0:0,0:0:0:0:
446,46,67568,1,0,3:0:0:0:
367,71,67673,1,0,3:0:0:0:
301,16,67779,1,8,0:0:0:0:
246,81,67885,1,0,3:0:0:0:
169,44,67990,6,0,L|52:90,1,85,4|0,0:0|0:0,0:0:0:0:
130,225,68201,2,0,L|143:141,1,85,8|0,0:0|0:0,0:0:0:0:
49,195,68413,1,0,3:0:0:0:
61,279,68518,1,0,3:0:0:0:
140,310,68624,2,0,L|257:264,1,85,8|0,0:0|0:0,0:0:0:0:
257,110,68835,6,0,B|239:153|239:153|238:244|342:257,1,170,2|8,0:0|0:0,0:0:0:0:
320,168,69152,1,0,0:0:0:0:
286,63,69258,2,0,L|206:94,1,85
54,26,69469,2,0,P|94:39|124:68,1,85,8|0,0:0|0:0,0:0:0:0:
49,195,69680,6,0,L|53:106,1,85,2|0,0:0|0:0,0:0:0:0:
140,310,69892,2,0,P|171:355|219:376,1,85,8|0,0:0|0:0,0:0:0:0:
367,238,70103,1,0,3:0:0:0:
320,168,70208,1,0,3:0:0:0:
239,192,70313,1,8,0:0:0:0:
236,276,70419,1,0,3:0:0:0:
315,304,70525,6,0,L|400:334,1,85,2|0,0:0|0:0,0:0:0:0:
447,221,70737,2,0,P|409:238|367:238,1,85,8|0,0:0|0:0,0:0:0:0:
156,141,70948,1,0,3:0:0:0:
178,46,71053,1,0,3:0:0:0:
275,37,71159,1,8,3:2:0:0:
313,126,71264,1,0,3:0:0:0:
239,192,71370,6,0,B|215:221|181:212|181:212|176:233|176:233|141:197|61:227,1,170,2|0,0:0|0:0,0:0:0:0:
315,304,71793,6,0,L|400:334,1,63.7500024318696
322,265,72004,2,0,L|396:315,1,63.7500024318696
338,229,72215,6,0,L|396:297,1,63.7500024318696
362,198,72427,2,0,L|400:279,1,63.7500024318696
335,167,72638,6,0,L|328:256,1,63.7500024318696
327,126,72849,2,0,L|276:200,1,63.7500024318696
340,86,73061,6,0,L|258:124,1,63.7500024318696
371,57,73272,2,0,L|281:50,1,63.7500024318696
274,150,73483,6,0,L|209:86,1,63.7500024318696
139,158,73694,2,0,L|130:68,1,63.7500024318696
30,77,73906,6,0,L|80:2,1,63.7500024318696
362,198,74117,1,8,0:0:0:0:
139,158,74328,1,0,3:0:0:0:
371,57,74539,1,0,3:0:0:0:
353,339,74751,5,4,0:0:0:0:
79,174,88272,6,0,B|116:160|116:160|214:176,1,127.500004863739,2|0,0:0|0:0,0:0:0:0:
285,140,88589,1,0,0:0:0:0:
285,140,88694,2,0,P|226:207|240:275,1,127.500004863739,8|0,0:0|0:0,0:0:0:0:
360,359,89117,2,0,L|326:209,1,127.500004863739,0|0,3:0|0:0,0:0:0:0:
143,342,89539,2,0,L|268:314,1,127.500004863739,8|0,0:0|0:0,0:0:0:0:
408,131,89962,6,0,B|370:119|370:119|273:142,1,127.500004863739,2|0,0:0|0:0,0:0:0:0:
191,65,90279,1,0,0:0:0:0:
191,65,90385,2,0,P|250:87|284:139,1,127.500004863739,8|0,0:0|0:0,0:0:0:0:
143,342,90807,1,0,3:0:0:0:
191,65,91018,1,8,0:3:0:0:
263,340,91230,2,0,P|206:359|124:326,1,127.500004863739,8|0,0:3|0:0,0:0:0:0:
296,250,91652,6,0,L|461:280,1,127.500004863739,2|0,0:0|0:0,0:0:0:0:
393,187,91969,1,0,0:0:0:0:
393,187,92075,2,0,L|228:217,1,127.500004863739,8|0,0:0|0:0,0:0:0:0:
155,160,92497,2,0,B|193:160|193:160|267:209,1,127.500004863739,0|0,3:0|0:0,0:0:0:0:
88,209,92920,2,0,P|72:148|104:94,1,127.500004863739,8|0,0:0|0:0,0:0:0:0:
164,243,93342,5,8,3:2:0:0:
314,334,93554,1,8,0:0:0:0:
343,323,93659,1,8,0:0:0:0:
367,302,93765,1,0,3:0:0:0:
381,274,93870,1,0,3:0:0:0:
384,242,93976,1,0,3:0:0:0:
321,125,94187,2,0,L|302:252,1,127.500004863739,8|0,0:3|0:0,0:0:0:0:
314,334,94504,1,0,0:0:0:0:
314,334,94610,2,0,P|271:288|209:283,1,127.500004863739,8|0,0:0|0:0,0:0:0:0:
119,291,94927,1,0,0:0:0:0:
119,291,95032,6,0,P|179:276|215:225,1,127.500004863739,2|0,0:0|0:0,0:0:0:0:
214,67,95455,2,0,B|238:100|238:100|363:139,1,127.500004863739,8|0,0:0|0:0,0:0:0:0:
194,8,95877,2,0,L|144:179,1,127.500004863739,0|0,3:0|0:0,0:0:0:0:
61,65,96300,2,0,P|122:79|158:131,1,127.500004863739,8|0,0:0|0:0,0:0:0:0:
238,289,96723,6,0,L|364:274,1,127.500004863739,0|0,3:0|0:0,0:0:0:0:
433,330,97039,1,0,0:0:0:0:
433,330,97145,2,0,L|306:315,1,127.500004863739,8|0,0:0|0:0,0:0:0:0:
389,156,97568,1,0,3:0:0:0:
512,341,97779,1,8,0:3:0:0:
452,107,97990,2,0,P|460:190|410:235,1,127.500004863739,8|0,0:3|0:0,0:0:0:0:
267,135,98413,6,0,P|332:121|388:155,1,136,0|0,3:0|0:0,0:0:0:0:
435,221,98730,1,0,0:0:0:0:
435,221,98835,1,8,0:0:0:0:
253,51,99046,6,0,P|193:92|190:170,1,152.999995330811,0|0,3:0|0:0,0:0:0:0:
236,246,99363,1,0,0:0:0:0:
236,246,99469,1,8,0:0:0:0:
5,153,99680,5,8,0:0:0:0:
28,71,99786,1,0,3:0:0:0:
94,16,99892,1,0,3:0:0:0:
179,8,99997,1,0,0:0:0:0:
253,50,100103,1,8,3:2:0:0:
435,221,100737,1,0,0:0:0:0:
253,50,100948,6,0,B|240:64|240:64|264:88|264:88|240:104|240:104|248:116|248:116|240:120|240:120|248:124|248:124|240:128|240:128|248:128|248:128|244:136|244:136|296:168|272:180|272:180|220:180|220:232|220:232|267:232|267:232|308:200,1,374.000011413575
155,149,101582,1,0,0:0:0:0:
204,308,101793,6,0,L|289:308,1,85,4|0,0:2|0:0,0:0:0:0:
147,242,102004,2,0,P|123:277|119:319,1,85,8|0,0:0|0:0,0:0:0:0:
80,189,102215,1,0,3:0:0:0:
82,104,102321,1,0,3:0:0:0:
156,63,102427,2,0,L|259:84,1,85,8|0,0:0|0:0,0:0:0:0:
341,37,102638,6,0,B|302:46|302:46|240:93|280:172,1,170,2|8,0:0|0:0,0:0:0:0:
333,223,102955,1,0,0:0:0:0:
404,175,103061,2,0,P|386:137|337:117,1,85,0|0,3:0|3:0,0:0:0:0:
190,169,103272,2,0,L|275:161,1,85,8|0,0:0|0:0,0:0:0:0:
341,37,103483,6,0,B|262:44|262:44|228:31|228:31|156:37,1,170,2|8,0:0|0:0,0:0:0:0:
128,107,103800,1,0,0:0:0:0:
190,169,103906,2,0,L|212:252,1,85,0|0,3:0|3:0,0:0:0:0:
117,205,104117,2,0,P|148:177|190:169,1,85,8|0,0:0|0:0,0:0:0:0:
280,298,104328,6,0,L|364:306,1,85,2|0,0:0|0:0,0:0:0:0:
342,141,104539,2,0,P|328:181|332:222,1,85,8|0,0:0|0:0,0:0:0:0:
412,191,104751,1,0,3:0:0:0:
420,105,104856,1,0,3:0:0:0:
364,38,104962,2,0,L|280:30,1,85,8|0,0:0|0:0,0:0:0:0:
213,142,105173,6,0,B|253:144|253:144|312:106|279:30,1,170,2|8,0:0|0:0,0:0:0:0:
193,20,105490,1,0,0:0:0:0:
146,90,105596,2,0,P|130:137|150:199,1,85,0|0,3:0|3:0,0:0:0:0:
85,240,105807,2,0,L|216:266,1,85,8|0,0:0|0:0,0:0:0:0:
160,341,106018,6,0,L|243:324,1,85,2|0,0:0|0:0,0:0:0:0:
312,181,106230,2,0,B|289:187|289:187|257:239,1,85,8|0,0:0|0:0,0:0:0:0:
321,368,106441,1,0,3:0:0:0:
399,336,106546,1,0,3:0:0:0:
431,258,106652,2,0,P|434:226|416:178,1,85,8|0,0:0|0:0,0:0:0:0:
281,86,106863,6,0,P|317:108|359:113,1,85,2|0,0:0|0:0,0:0:0:0:
345,28,107075,2,0,L|264:101,1,85,8|0,0:0|0:0,0:0:0:0:
101,6,107286,1,0,3:0:0:0:
182,29,107392,1,0,3:0:0:0:
201,110,107497,2,0,P|176:150|104:167,1,85,8|0,0:0|0:0,0:0:0:0:
119,86,107708,6,0,L|200:109,1,85,2|0,0:0|0:0,0:0:0:0:
345,28,107920,2,0,P|308:4|239:7,1,85,8|0,0:0|0:0,0:0:0:0:
295,174,108131,1,0,3:0:0:0:
377,206,108237,1,0,3:0:0:0:
445,150,108342,1,8,3:2:0:0:
429,62,108448,1,0,3:0:0:0:
345,28,108554,6,0,L|252:56,1,85,4|0,0:0|0:0,0:0:0:0:
213,198,108765,2,0,L|295:174,1,85,8|0,0:0|0:0,0:0:0:0:
119,86,108976,1,0,3:0:0:0:
134,169,109082,1,0,3:0:0:0:
149,252,109187,2,0,L|129:334,1,85,8|0,0:0|0:0,0:0:0:0:
6,276,109399,6,0,P|32:243|70:224,1,85,2|0,0:0|0:0,0:0:0:0:
213,198,109610,2,0,B|176:173|176:173|166:133,1,85,8|0,0:0|0:0,0:0:0:0:
253,32,109821,2,0,L|195:263,1,170,0|8,3:0|0:0,0:0:0:0:
268,261,110138,1,0,0:0:0:0:
326,323,110244,6,0,L|434:339,1,85,2|0,0:0|0:0,0:0:0:0:
446,265,110455,2,0,P|415:294|410:335,1,85,8|0,0:0|0:0,0:0:0:0:
245,342,110666,2,0,P|287:341|325:322,1,85,0|0,3:0|3:0,0:0:0:0:
293,178,110877,2,0,P|250:179|213:198,1,85,8|0,0:0|0:0,0:0:0:0:
354,237,111089,6,0,B|373:207|373:207|387:157|354:119|354:119|307:105,1,170,2|8,0:0|0:0,0:0:0:0:
232,85,111406,1,0,0:0:0:0:
146,90,111511,2,0,P|152:48|180:16,1,85,0|0,3:0|3:0,0:0:0:0:
89,154,111723,2,0,P|63:120|60:78,1,85,8|0,0:0|0:0,0:0:0:0:
10,218,111934,6,0,L|93:239,1,85,2|0,0:0|0:0,0:0:0:0:
113,321,112145,2,0,L|195:300,1,85,8|0,0:0|0:0,0:0:0:0:
235,225,112356,1,0,3:0:0:0:
235,225,112462,1,0,3:0:0:0:
234,224,112568,2,0,P|266:253|280:292,1,85,8|0,0:0|0:0,0:0:0:0:
345,237,112779,6,0,L|435:253,1,85,2|0,0:0|0:0,0:0:0:0:
409,168,112990,2,0,L|492:153,1,85,8|0,0:0|0:0,0:0:0:0:
470,70,113201,1,0,3:0:0:0:
470,70,113307,1,0,3:0:0:0:
470,70,113413,2,0,L|380:54,1,85,8|0,0:0|0:0,0:0:0:0:
303,36,113624,6,0,L|324:164,1,85,2|0,0:0|0:0,0:0:0:0:
232,105,113835,2,0,L|211:233,1,85,8|0,0:0|0:0,0:0:0:0:
117,332,114046,1,0,3:0:0:0:
38,298,114152,1,0,3:0:0:0:
46,213,114258,1,8,3:2:0:0:
129,194,114363,1,0,3:0:0:0:
171,267,114469,6,0,L|299:288,1,85,2|0,3:2|0:0,0:0:0:0:
288,360,114680,2,0,L|371:346,1,85,8|0,3:2|3:0,0:0:0:0:
363,260,114892,1,0,3:0:0:0:
425,203,114997,1,0,3:0:0:0:
350,161,115103,1,8,3:2:0:0:
374,80,115208,1,0,3:0:0:0:
303,36,115314,6,0,L|208:60,1,63.7500024318696,4|0,0:0|0:0,0:0:0:0:
160,181,115525,2,0,L|255:157,1,63.7500024318696,0|0,3:0|0:0,0:0:0:0:
159,37,115737,2,0,L|183:132,1,63.7500024318696,0|0,3:0|0:0,0:0:0:0:
304,180,115948,2,0,L|280:85,1,63.7500024318696,0|0,3:0|0:0,0:0:0:0:
95,126,116159,6,0,P|77:166|121:256,1,127.500004863739,8|0,0:0|0:0,0:0:0:0:
410,242,116582,2,0,P|436:185|416:126,1,127.500004863739,8|0,0:0|0:0,0:0:0:0:
357,68,116899,1,0,0:0:0:0:
356,68,117004,6,0,P|383:50|414:45,1,63.7500024318696,0|0,3:0|0:0,0:0:0:0:
284,124,117215,2,0,P|315:130|341:149,1,63.7500024318696,0|0,3:0|0:0,0:0:0:0:
192,112,117427,2,0,P|209:138|214:169,1,63.7500024318696,0|0,3:0|0:0,0:0:0:0:
135,37,117638,2,0,P|128:68|110:93,1,63.7500024318696,0|0,3:0|0:0,0:0:0:0:
2,189,117849,6,0,P|56:166|135:203,1,127.500004863739,8|0,0:0|0:0,0:0:0:0:
356,67,118272,2,0,P|298:91|239:71,1,127.500004863739,8|0,0:0|0:0,0:0:0:0:
443,11,118694,6,0,L|428:137,1,127.500004863739,0|0,3:0|0:0,0:0:0:0:
477,212,119011,2,0,P|423:179|362:191,1,127.500004863739,0|0,3:0|0:0,0:0:0:0:
298,184,119328,2,0,L|361:191,1,63.7500024318696,8|0,0:0|0:0,0:0:0:0:
356,67,119539,6,0,P|296:46|239:70,1,127.500004863739,8|0,3:2|0:0,0:0:0:0:
156,35,119856,2,0,B|189:70|189:70|189:190,1,127.500004863739,0|0,3:0|0:0,0:0:0:0:
128,165,120173,2,0,L|189:149,1,63.7500024318696,0|0,3:0|0:0,0:0:0:0:
251,256,120385,6,0,P|312:267|365:235,1,127.500004863739,0|0,3:0|0:0,0:0:0:0:
298,184,120701,2,0,L|324:324,1,127.500004863739,0|0,3:0|0:0,0:0:0:0:
427,250,121018,2,0,L|331:227,1,63.7500024318696,0|0,3:0|0:0,0:0:0:0:
230,132,121230,6,0,P|283:100|345:112,1,127.500004863739,8|0,0:0|0:0,0:0:0:0:
298,184,121546,2,0,L|158:158,1,127.500004863739,0|0,3:0|0:0,0:0:0:0:
85,138,121863,2,0,P|96:163|97:213,1,63.7500024318696,8|0,0:0|0:0,0:0:0:0:
15,232,122075,6,0,L|0:312,1,63.7500024318696,0|0,3:0|0:0,0:0:0:0:
92,287,122286,2,0,L|103:349,1,63.7500024318696,0|0,3:0|0:0,0:0:0:0:
184,186,122497,2,0,L|173:249,1,63.7500024318696,0|0,3:0|0:0,0:0:0:0:
262,242,122708,2,0,L|273:304,1,63.7500024318696,0|0,3:0|0:0,0:0:0:0:
344,158,122920,6,0,P|287:185|262:242,1,127.500004863739,8|0,0:0|0:0,0:0:0:0:
351,248,123237,1,0,0:0:0:0:
351,248,123342,2,0,L|444:260,1,63.7500024318696,8|0,0:0|0:0,0:0:0:0:
433,167,123554,2,0,L|496:158,1,63.7500024318696
438,19,123765,6,0,L|447:83,1,63.7500024318696,0|0,3:0|0:0,0:0:0:0:
362,52,123976,2,0,L|370:115,1,63.7500024318696,0|0,3:0|0:0,0:0:0:0:
281,126,124187,2,0,L|217:134,1,63.7500024318696,0|0,3:0|0:0,0:0:0:0:
249,50,124398,2,0,L|185:58,1,63.7500024318696,0|0,3:0|0:0,0:0:0:0:
103,95,124610,6,0,B|138:120|138:120|151:229,1,127.500004863739,8|0,0:0|0:0,0:0:0:0:
70,359,125032,1,0,0:0:0:0:
88,333,125137,1,0,0:0:0:0:
115,317,125243,1,0,0:0:0:0:
147,311,125348,1,0,0:0:0:0:
178,318,125454,5,0,3:0:0:0:
256,192,138554,5,0,3:0:0:0:
256,192,138659,1,0,3:0:0:0:
256,192,138765,1,8,3:2:0:0:
256,192,138870,1,0,3:0:0:0:
256,192,138976,6,0,L|372:209,1,85,4|0,0:0|0:0,0:0:0:0:
376,363,139187,2,0,P|368:322|343:289,1,85,8|0,0:0|0:0,0:0:0:0:
292,356,139399,1,0,3:0:0:0:
207,368,139504,1,0,0:0:0:0:
138,316,139610,2,0,P|132:278|170:209,1,85,8|0,0:0|0:0,0:0:0:0:
255,192,139821,6,0,P|179:221|112:175,1,170,2|8,3:2|0:0,0:0:0:0:
190,138,140138,1,0,0:0:0:0:
269,107,140244,2,0,P|307:127|341:179,1,85,0|0,3:0|3:0,0:0:0:0:
328,244,140455,2,0,L|436:228,1,85,8|0,0:0|0:0,0:0:0:0:
346,77,140666,6,0,P|304:84|269:107,1,85,2|0,0:0|0:0,0:0:0:0:
200,58,140877,2,0,P|183:96|190:138,1,85,8|0,0:0|0:0,0:0:0:0:
103,131,141089,2,0,P|121:230|60:313,1,170,2|8,3:2|0:0,0:0:0:0:
20,121,141406,6,0,L|190:138,1,170,2|0,0:0|0:0,0:0:0:0:
255,192,141723,2,0,L|339:183,1,85,8|0,0:0|0:0,0:0:0:0:
416,147,141934,1,0,3:0:0:0:
428,63,142039,1,0,3:0:0:0:
368,1,142145,2,0,P|326:-1|290:20,1,85,8|0,0:0|0:0,0:0:0:0:
181,75,142356,6,0,B|240:57|240:57|346:77,1,170,2|8,0:0|0:0,0:0:0:0:
428,63,142673,1,0,0:0:0:0:
496,114,142779,2,0,P|502:160|473:212,1,85,0|0,3:0|3:0,0:0:0:0:
414,228,142990,2,0,P|446:201|488:194,1,85,8|0,0:0|0:0,0:0:0:0:
482,279,143201,6,0,L|317:236,1,170,2|8,0:0|0:0,0:0:0:0:
264,169,143518,1,0,0:0:0:0:
297,90,143624,2,0,P|333:119|344:175,1,85,0|0,3:0|3:0,0:0:0:0:
229,246,143835,2,0,P|192:216|181:160,1,85,8|0,0:0|0:0,0:0:0:0:
135,29,144046,6,0,L|50:33,1,85,2|0,0:0|0:0,0:0:0:0:
189,96,144258,2,0,P|216:63|221:21,1,85,10|0,0:0|0:0,0:0:0:0:
104,111,144469,2,0,L|65:186,1,85,2|0,3:2|0:0,0:0:0:0:
229,246,144680,2,0,P|213:206|180:181,1,85,10|0,0:0|0:0,0:0:0:0:
177,314,144892,6,0,B|228:347|277:316|277:316|394:316,1,170,2|8,0:0|0:0,0:0:0:0:
387,245,145208,1,0,0:0:0:0:
350,167,145314,2,0,P|394:160|432:172,1,85,0|0,3:0|0:0,0:0:0:0:
269,138,145525,2,0,P|294:101|329:82,1,85,8|0,0:0|0:0,0:0:0:0:
190,174,145737,6,0,L|163:93,1,85,2|0,0:0|0:0,0:0:0:0:
114,212,145948,1,8,0:0:0:0:
114,212,146054,1,0,0:0:0:0:
114,212,146159,2,0,P|149:248|217:255,1,85,0|0,3:0|0:0,0:0:0:0:
172,343,146370,2,0,L|252:316,1,85,8|0,0:0|0:0,0:0:0:0:
350,167,146582,6,0,B|324:176|320:200|320:200|336:236|336:236|318:261|321:310|347:338,1,170,2|8,0:0|0:0,0:0:0:0:
412,279,146899,1,0,0:0:0:0:
466,341,147004,2,0,P|492:307|495:266,1,85,0|0,3:0|0:0,0:0:0:0:
506,181,147215,2,0,L|423:199,1,85,8|0,0:0|0:0,0:0:0:0:
296,70,147427,6,0,L|379:88,1,85,2|0,0:0|0:0,0:0:0:0:
218,106,147638,2,0,L|280:163,1,85,10|0,0:0|0:0,0:0:0:0:
132,98,147849,2,0,L|157:178,1,85,2|0,3:2|0:0,0:0:0:0:
61,48,148061,2,0,L|43:130,1,85,10|0,0:0|0:0,0:0:0:0:
0,270,148272,6,0,B|24:242|24:242|75:227|120:246|120:246|142:280,1,170,2|8,0:0|0:0,0:0:0:0:
214,234,148589,1,0,0:0:0:0:
287,274,148694,2,0,P|328:261|358:232,1,85,0|0,3:0|3:0,0:0:0:0:
392,311,148906,2,0,L|529:327,1,85,8|0,0:0|0:0,0:0:0:0:
510,193,149117,6,0,P|470:205|440:235,1,85
396,151,149328,2,0,L|259:167,1,85,10|0,0:0|0:0,0:0:0:0:
250,101,149539,1,0,3:0:0:0:
250,101,149645,1,0,3:0:0:0:
250,101,149751,2,0,P|226:145|238:202,1,85,8|0,0:0|0:0,0:0:0:0:
143,192,149962,6,0,P|167:236|155:293,1,85,2|0,0:0|0:0,0:0:0:0:
115,339,150173,1,0,3:0:0:0:
115,339,150279,1,0,3:0:0:0:
115,339,150385,2,0,L|240:354,1,85,8|0,0:0|0:0,0:0:0:0:
249,280,150596,6,0,L|333:269,1,85,2|0,0:0|0:0,0:0:0:0:
372,194,150807,1,0,3:0:0:0:
372,194,150913,1,0,3:0:0:0:
372,194,151018,2,0,L|497:209,1,85,8|0,0:0|3:0,0:0:0:0:
459,42,151230,6,0,P|437:78|437:120,1,85,2|0,0:0|3:0,0:0:0:0:
354,100,151441,1,0,3:0:0:0:
354,100,151546,1,0,3:0:0:0:
354,100,151652,2,0,L|229:115,1,85,8|8,0:0|0:3,0:0:0:0:
156,164,151863,6,0,P|198:164|234:187,1,85,2|0,3:2|3:0,0:0:0:0:
153,330,152075,2,0,L|174:248,1,85,8|0,0:0|0:0,0:0:0:0:
313,214,152286,2,0,P|292:250|256:270,1,85,8|0,3:0|0:0,0:0:0:0:
296,130,152497,6,0,L|359:137,1,63.7500024318696,8|0,0:3|0:0,0:0:0:0:
225,74,152708,2,0,L|340:24,1,63.7500024318696,0|0,3:0|0:0,0:0:0:0:
135,61,152920,2,0,L|210:-39,1,63.7500024318696,0|0,3:0|0:0,0:0:0:0:
50,94,153131,2,0,L|57:30,1,63.7500024318696,0|0,3:0|0:0,0:0:0:0:
2,169,153342,6,0,P|-9:231|23:283,1,127.500004863739,8|0,0:0|0:0,0:0:0:0:
317,243,153765,2,0,P|328:181|295:129,1,127.500004863739,8|0,0:0|0:0,0:0:0:0:
50,94,154187,6,0,L|160:110,1,63.7500024318696,0|0,3:0|0:0,0:0:0:0:
85,189,154399,2,0,L|195:175,1,63.7500024318696,0|0,3:0|0:0,0:0:0:0:
143,271,154610,2,0,L|246:229,1,63.7500024318696,0|0,3:0|0:0,0:0:0:0:
220,335,154821,2,0,L|309:268,1,63.7500024318696,0|0,3:0|0:0,0:0:0:0:
318,222,155032,6,0,B|313:270|313:270|336:324|422:314,1,127.500004863739,8|0,0:0|0:0,0:0:0:0:
512,92,155455,2,0,B|517:44|517:44|494:-10|408:0,1,127.500004863739,8|0,0:0|0:0,0:0:0:0:
269,181,155877,6,0,P|290:204|317:221,1,63.7500024318696,0|0,3:0|0:0,0:0:0:0:
179,180,156089,2,0,P|184:213|204:243,1,63.7500024318696,0|0,3:0|0:0,0:0:0:0:
103,135,156300,2,0,P|91:167|93:202,1,63.7500024318696,0|0,3:0|0:0,0:0:0:0:
59,58,156511,2,0,P|32:79|16:111,1,63.7500024318696,0|0,3:0|0:0,0:0:0:0:
180,92,156723,6,0,B|223:86|223:86|304:106,1,127.500004863739,8|0,0:0|0:0,0:0:0:0:
505,34,157145,2,0,B|462:28|462:28|381:49,1,127.500004863739,8|0,0:0|0:0,0:0:0:0:
207,196,157568,6,0,L|288:175,1,63.7500024318696,0|0,3:0|0:0,0:0:0:0:
288,268,157779,2,0,L|348:209,1,63.7500024318696,0|0,3:0|0:0,0:0:0:0:
394,289,157990,2,0,L|417:208,1,63.7500024318696,0|0,3:0|0:0,0:0:0:0:
496,254,158201,2,0,L|475:172,1,63.7500024318696,0|0,3:0|0:0,0:0:0:0:
431,67,158413,6,0,L|416:129,1,63.7500024318696,8|0,3:0|0:0,0:0:0:0:
326,127,158624,2,0,L|341:188,1,63.7500024318696,0|0,3:0|0:0,0:0:0:0:
253,46,158835,2,0,L|238:108,1,63.7500024318696,0|0,3:0|0:0,0:0:0:0:
147,105,159046,2,0,L|162:166,1,63.7500024318696,0|0,3:0|0:0,0:0:0:0:
74,24,159258,6,0,L|58:85,1,63.7500024318696,8|0,3:0|0:0,0:0:0:0:
0,154,159469,2,0,L|61:170,1,63.7500024318696,0|0,3:0|0:0,0:0:0:0:
64,259,159680,2,0,L|125:243,1,63.7500024318696,0|0,3:0|0:0,0:0:0:0:
214,228,159892,2,0,L|230:289,1,63.7500024318696,0|0,3:0|0:0,0:0:0:0:
267,156,160103,6,0,P|301:108|375:94,1,127.500004863739,8|0,3:0|0:0,0:0:0:0:
316,314,160525,2,0,P|282:362|208:376,1,127.500004863739,8|0,0:0|0:0,0:0:0:0:
352,180,160948,6,0,P|380:196|399:221,1,63.7500024318696,0|0,3:0|0:0,0:0:0:0:
322,266,161159,2,0,P|335:294|336:326,1,63.7500024318696,0|0,3:0|0:0,0:0:0:0:
247,317,161370,2,0,P|241:348|224:374,1,63.7500024318696,0|0,3:0|0:0,0:0:0:0:
156,315,161582,2,0,P|133:337|104:349,1,63.7500024318696,0|0,3:0|0:0,0:0:0:0:
20,259,161793,6,0,P|50:266|82:261,1,63.7500024318696,8|0,3:2|0:0,0:0:0:0:
93,160,162004,2,0,P|115:183|144:197,1,63.7500024318696,8|0,3:0|0:0,0:0:0:0:
210,121,162215,2,0,P|213:152|229:179,1,63.7500024318696,0|0,3:0|0:0,0:0:0:0:
327,155,162427,2,0,P|312:182|309:214,1,63.7500024318696,0|0,3:0|0:0,0:0:0:0:
390,343,162638,6,0,B|374:340|319:324|295:292|270:252|270:252|196:264|201:387|325:397|336:314|403:268|403:268|320:263|348:193|276:184|276:184|229:189|201:143,1,701.250021400452
185,79,164328,5,0,3:0:0:0:
200,47,164433,1,0,3:0:0:0:
226,24,164539,1,0,3:0:0:0:
259,14,164644,1,0,0:0:0:0:
294,18,164750,1,0,3:0:0:0:
375,144,164962,1,0,0:0:0:0:
421,149,165067,1,0,0:0:0:0:
467,155,165173,5,8,0:0:0:0:
381,55,165385,1,8,0:0:0:0:
369,233,165596,1,8,0:0:0:0:
473,66,165807,1,0,3:0:0:0:
473,35,165912,1,0,3:0:0:0:
462,6,166018,5,12,3:2:0:0:
124,144,179117,5,0,0:0:0:0:
128,154,179222,1,0,0:0:0:0:
132,165,179328,1,8,0:0:0:0:
137,176,179433,1,0,0:0:0:0:
142,187,179539,6,0,B|211:183|211:183|214:186|214:186|284:183,1,136,2|8,0:0|0:0,0:0:0:0:
332,123,179856,1,0,0:0:0:0:
332,123,179962,2,0,P|351:150|358:183,1,68,0|0,3:0|0:0,0:0:0:0:
316,254,180173,2,0,L|411:276,1,68,8|0,0:0|0:0,0:0:0:0:
480,155,180385,6,0,L|434:205,1,68,2|0,3:2|0:0,0:0:0:0:
415,97,180596,2,0,L|429:30,1,68,8|0,0:0|0:0,0:0:0:0:
332,123,180807,2,0,L|346:189,1,68,0|0,3:0|0:0,0:0:0:0:
267,65,181018,2,0,L|313:15,1,68,8|0,0:0|0:0,0:0:0:0:
184,92,181230,6,0,L|171:242,1,136,2|8,0:0|0:0,0:0:0:0:
44,243,181546,1,0,0:0:0:0:
44,243,181652,2,0,B|84:217|84:217|171:227,1,136,2|8,3:2|0:0,0:0:0:0:
250,203,181969,1,0,0:0:0:0:
329,182,182075,6,0,L|396:189,1,68,2|0,0:0|0:0,0:0:0:0:
340,262,182286,2,0,L|408:270,1,68,8|0,0:0|0:0,0:0:0:0:
229,363,182497,2,0,L|161:370,1,68,0|0,3:0|3:0,0:0:0:0:
241,283,182708,2,0,L|173:290,1,68,8|0,0:0|0:0,0:0:0:0:
351,342,182920,6,0,B|418:350|418:350|464:341|501:283,1,136,2|8,0:0|0:0,0:0:0:0:
484,234,183237,1,0,0:0:0:0:
435,169,183342,2,0,L|367:176,1,68,0|0,3:0|0:0,0:0:0:0:
354,95,183554,2,0,L|299:135,1,68,8|0,0:0|0:0,0:0:0:0:
246,71,183765,6,0,P|220:103|216:137,1,68,2|0,0:0|0:0,0:0:0:0:
136,99,183976,2,0,P|129:139|143:171,1,68,8|0,0:0|0:0,0:0:0:0:
108,240,184187,2,0,P|117:272|110:305,1,68,0|0,3:0|0:0,0:0:0:0:
30,276,184398,2,0,P|22:308|0:333,1,68,8|0,0:0|0:0,0:0:0:0:
0,197,184610,6,0,P|11:114|86:75,1,136,2|8,0:0|0:0,0:0:0:0:
78,164,184927,1,0,0:0:0:0:
78,164,185032,2,0,L|227:179,1,136,0|8,3:0|0:0,0:0:0:0:
272,120,185349,1,0,0:0:0:0:
348,91,185455,6,0,L|415:97,1,68,2|0,0:0|0:0,0:0:0:0:
325,186,185666,2,0,L|392:174,1,68,8|0,0:0|0:0,0:0:0:0:
301,264,185877,2,0,L|368:270,1,68,0|0,3:0|3:0,0:0:0:0:
276,359,186089,2,0,L|344:348,1,68,8|0,0:0|0:0,0:0:0:0:
207,291,186300,6,0,B|160:285|160:285|110:320|52:288,1,136,2|8,0:0|0:0,0:0:0:0:
107,220,186617,1,0,0:0:0:0:
107,219,186723,2,0,P|135:202|169:200,1,68,0|0,3:0|0:0,0:0:0:0:
165,119,186934,2,0,L|232:127,1,68,8|0,0:0|0:0,0:0:0:0:
344,34,187145,6,0,P|316:52|300:82,1,68,2|0,0:0|0:0,0:0:0:0:
287,195,187356,2,0,L|355:187,1,68,8|0,0:0|0:0,0:0:0:0:
444,99,187568,2,0,L|377:108,1,68,0|0,3:0|0:0,0:0:0:0:
387,260,187779,2,0,P|415:241|431:212,1,68,8|0,0:0|0:0,0:0:0:0:
232,127,187990,6,0,L|282:303,1,136,2|8,0:0|0:0,0:0:0:0:
195,293,188307,1,0,0:0:0:0:
195,293,188413,2,0,L|170:381,1,68,0|0,3:0|0:0,0:0:0:0:
124,250,188624,2,0,L|75:297,1,68,8|0,0:0|0:0,0:0:0:0:
84,178,188835,6,0,L|18:194,1,68,2|0,0:0|0:0,0:0:0:0:
19,75,189046,2,0,L|85:94,1,68,8|0,0:0|0:0,0:0:0:0:
274,66,189258,5,0,3:0:0:0:
232,7,189363,1,0,3:0:0:0:
161,30,189469,1,8,3:2:0:0:
161,103,189575,1,0,3:0:0:0:
232,127,189680,6,0,L|307:152,1,68,6|0,0:0|0:0,0:0:0:0:
207,157,189892,2,0,L|285:161,1,68
190,192,190103,2,0,L|267:176,1,68,0|0,3:0|0:0,0:0:0:0:
182,230,190314,2,0,L|252:194,1,68
184,269,190525,6,0,L|243:216,1,68,0|0,3:0|0:0,0:0:0:0:
136,266,190737,2,0,L|161:191,1,68,0|0,0:0|0:0,0:0:0:0:
92,287,190948,2,0,L|76:209,1,68,0|0,3:0|0:0,0:0:0:0:
65,327,191159,2,0,L|12:267,1,68,0|0,0:0|0:0,0:0:0:0:
61,375,191370,6,0,L|-3:353,1,68,0|0,3:0|0:0,0:0:0:0:
210,323,191582,2,0,L|150:354,1,68,0|0,3:0|0:0,0:0:0:0:
276,179,191793,2,0,L|255:243,1,68,0|0,3:0|0:0,0:0:0:0:
219,30,192004,2,0,L|250:90,1,68,0|0,3:0|0:0,0:0:0:0:
448,168,192215,6,0,B|424:156|424:156|420:176|420:176|416:160|416:160|412:176|412:176|408:164|408:164|404:176|404:176|400:168|400:168|396:176|396:176|392:172|392:172|388:176|388:176|376:172|376:172|360:176|360:176|336:164|312:176|312:176|304:172|296:160|296:160|296:224|296:224|360:276|400:172,1,391.000007457733
308,24,192849,1,0,0:0:0:0:
224,180,193061,6,0,L|224:292,1,85,4|0,0:0|0:0,0:0:0:0:
113,382,193272,2,0,P|143:352|184:340,1,85,8|0,0:0|0:0,0:0:0:0:
304,293,193483,1,0,3:0:0:0:
383,324,193589,1,0,3:0:0:0:
449,271,193694,2,0,P|454:228|430:179,1,85,8|0,0:0|0:0,0:0:0:0:
288,118,193906,6,0,P|317:149|357:163,1,85,2|0,0:0|0:0,0:0:0:0:
365,76,194117,2,0,L|253:90,1,85,8|0,0:0|0:0,0:0:0:0:
224,180,194328,1,0,3:0:0:0:
270,251,194434,1,0,3:0:0:0:
247,332,194539,2,0,L|129:374,1,85,8|0,0:0|0:0,0:0:0:0:
149,147,194751,6,0,P|195:156|235:198,1,85,2|0,0:0|0:0,0:0:0:0:
303,212,194962,2,0,P|308:170|294:131,1,85,8|0,0:0|0:0,0:0:0:0:
156,231,195173,2,0,P|109:240|69:282,1,85,0|0,3:0|3:0,0:0:0:0:
1,296,195384,2,0,P|-4:254|11:215,1,85,8|0,0:0|0:0,0:0:0:0:
147,316,195596,6,0,B|186:337|227:317|227:317|268:336|311:316,1,170,2|8,0:0|0:0,0:0:0:0:
374,164,195913,1,0,0:0:0:0:
373,164,196018,2,0,B|356:196|356:196|358:245,1,85,0|0,3:0|3:0,0:0:0:0:
499,268,196230,2,0,B|481:237|481:237|438:215,1,85,8|0,0:0|0:3,0:3:0:0:
314,119,196441,6,0,L|272:193,1,85,4|0,0:0|0:0,0:0:0:0:
374,319,196652,2,0,P|347:286|309:270,1,85,8|0,0:0|0:0,0:0:0:0:
223,273,196863,1,0,3:0:0:0:
147,316,196969,1,0,3:0:0:0:
62,292,197075,2,0,P|40:247|41:198,1,85,8|0,0:0|0:0,0:0:0:0:
147,148,197286,6,0,L|125:230,1,85,2|0,0:0|0:0,0:0:0:0:
234,166,197497,2,0,P|230:124|211:87,1,85,8|0,0:0|0:0,0:0:0:0:
290,56,197708,1,0,3:0:0:0:
359,105,197814,1,0,3:0:0:0:
441,84,197920,2,0,P|479:100|506:133,1,85,8|0,0:0|0:0,0:0:0:0:
415,254,198131,6,0,P|376:237|349:204,1,85,2|0,0:0|0:0,0:0:0:0:
290,56,198342,2,0,P|295:97|279:137,1,85,8|0,0:0|0:0,0:0:0:0:
220,199,198554,1,0,3:0:0:0:
136,189,198659,1,0,3:0:0:0:
86,258,198765,2,0,P|123:273|211:227,1,85,8|0,0:0|0:0,0:0:0:0:
186,120,198976,6,0,P|149:105|61:151,1,85,2|0,0:0|0:0,0:0:0:0:
220,199,199187,2,0,L|325:211,1,85,8|0,0:0|0:0,0:0:0:0:
441,84,199399,1,0,3:0:0:0:
397,13,199505,1,0,3:0:0:0:
315,34,199610,1,8,3:2:0:0:
309,118,199716,1,0,3:0:0:0:
387,149,199821,6,0,L|477:186,1,85,4|0,0:0|0:0,0:0:0:0:
429,322,200032,2,0,P|409:285|406:243,1,85,8|0,0:0|0:0,0:0:0:0:
309,118,200244,1,0,3:0:0:0:
321,201,200349,1,0,3:0:0:0:
255,252,200455,2,0,P|211:247|164:195,1,85,8|0,0:0|0:0,0:0:0:0:
230,84,200666,6,0,L|243:169,1,85,2|0,0:0|0:0,0:0:0:0:
93,247,200877,2,0,L|105:162,1,85,8|0,0:0|0:0,0:0:0:0:
321,201,201089,2,0,P|332:281|270:334,1,170,0|8,3:0|0:0,0:0:0:0:
255,252,201406,1,0,0:0:0:0:
411,217,201511,6,0,L|494:230,1,85,2|0,0:0|0:0,0:0:0:0:
388,87,201723,2,0,L|308:117,1,85,8|0,0:0|0:0,0:0:0:0:
179,223,201934,2,0,P|213:247|255:252,1,85,2|0,3:2|3:0,0:0:0:0:
230,84,202145,2,0,P|191:101|167:135,1,85,8|0,0:0|0:0,0:0:0:0:
270,334,202356,6,0,L|353:320,1,85,2|0,0:0|0:0,0:0:0:0:
326,155,202568,2,0,L|243:169,1,85,8|0,0:0|0:0,0:0:0:0:
411,217,202779,1,2,3:2:0:0:
453,142,202885,1,0,3:0:0:0:
388,87,202990,2,0,P|356:67|302:65,1,85,8|0,0:0|0:0,0:0:0:0:
157,122,203201,6,0,P|198:112|230:83,1,85,4|0,0:0|0:0,0:0:0:0:
117,46,203413,2,0,L|127:167,1,85,8|0,0:0|0:0,0:0:0:0:
84,206,203624,1,0,3:0:0:0:
84,206,203730,1,0,3:0:0:0:
84,206,203835,2,0,L|94:327,1,85,8|0,0:0|0:0,0:0:0:0:
159,234,204046,6,0,P|125:210|84:206,1,85,2|0,0:0|0:0,0:0:0:0:
173,319,204258,2,0,L|300:304,1,85,8|0,0:0|0:0,0:0:0:0:
308,240,204469,1,0,3:0:0:0:
308,240,204575,1,0,3:0:0:0:
308,240,204680,2,0,L|392:249,1,85,8|0,0:0|0:0,0:0:0:0:
365,86,204892,6,0,L|356:171,1,85,2|0,0:0|0:0,0:0:0:0:
272,42,205103,2,0,L|282:127,1,85,8|0,0:0|0:0,0:0:0:0:
233,196,205314,1,0,3:0:0:0:
159,234,205420,1,0,3:0:0:0:
173,319,205525,2,0,L|300:304,1,85,8|0,0:0|0:0,0:0:0:0:
370,188,205737,6,0,P|332:205|308:240,1,85,2|0,0:0|0:0,0:0:0:0:
396,355,205948,2,0,L|387:271,1,85,8|0,0:0|0:0,0:0:0:0:
237,112,206159,1,0,3:0:0:0:
162,150,206265,1,0,3:0:0:0:
174,233,206370,1,8,3:2:0:0:
256,247,206476,1,0,0:0:0:0:
294,173,206582,6,0,L|334:93,1,85,4|0,0:0|0:0,0:0:0:0:
166,66,206793,2,0,P|124:72|92:100,1,85,8|0,0:0|0:0,0:0:0:0:
7,101,207004,1,0,3:0:0:0:
49,175,207110,1,0,3:0:0:0:
25,256,207215,2,0,P|45:294|80:317,1,85,8|0,0:0|0:0,0:0:0:0:
191,215,207427,6,0,L|109:236,1,85,2|0,0:0|0:0,0:0:0:0:
255,274,207638,2,0,P|275:237|275:195,1,85,8|0,0:0|0:0,0:0:0:0:
216,132,207849,1,0,3:0:0:0:
238,49,207955,1,0,3:0:0:0:
319,25,208061,2,0,P|356:47|380:84,1,85,8|0,0:0|0:0,0:0:0:0:
358,228,208272,6,0,L|442:238,1,85,2|0,0:0|0:0,0:0:0:0:
298,109,208483,2,0,L|188:139,1,85,8|0,0:0|0:0,0:0:0:0:
175,300,208694,2,0,P|197:335|233:356,1,85,0|0,3:0|3:0,0:0:0:0:
191,215,208906,2,0,L|81:245,1,85,8|0,0:0|0:0,0:0:0:0:
323,333,209117,6,0,B|359:341|393:306|393:306|391:284|392:263|392:263|357:227,1,170,2|8,0:0|0:0,0:0:0:0:
298,109,209434,1,0,0:0:0:0:
298,109,209539,2,0,L|268:224,1,85,0|0,3:0|3:0,0:0:0:0:
383,85,209751,2,0,P|354:40|310:21,1,85,8|0,0:0|0:0,0:0:0:0:
191,215,209962,6,0,P|211:251|246:274,1,85,4|0,0:0|0:0,0:0:0:0:
215,131,210173,2,0,L|88:157,1,85,8|0,0:0|0:0,0:0:0:0:
50,120,210385,1,0,3:0:0:0:
62,203,210490,1,0,3:0:0:0:
21,278,210596,1,8,0:0:0:0:
89,327,210701,1,0,0:0:0:0:
169,297,210807,6,0,L|290:312,1,85,2|0,0:0|0:0,0:0:0:0:
292,383,211018,2,0,L|413:368,1,85,8|0,0:0|0:0,0:0:0:0:
450,328,211230,1,0,3:0:0:0:
392,266,211335,1,0,3:0:0:0:
431,190,211441,1,8,0:0:0:0:
391,115,211546,1,0,0:0:0:0:
410,32,211652,6,0,P|365:33|322:67,1,85,2|0,0:0|0:0,0:0:0:0:
263,1,211863,2,0,P|245:41|257:95,1,85,8|0,0:0|0:0,0:0:0:0:
171,116,212075,1,0,3:0:0:0:
208,191,212180,1,0,0:0:0:0:
180,269,212286,2,0,P|196:310|242:339,1,85,8|0,0:0|0:0,0:0:0:0:
346,245,212497,6,0,P|329:203|283:174,1,85,2|0,0:0|0:0,0:0:0:0:
318,323,212708,2,0,L|440:331,1,85,8|0,0:0|0:0,0:0:0:0:
445,253,212920,1,8,3:0:0:0:
481,177,213025,1,0,3:0:0:0:
442,100,213131,2,0,L|320:92,1,85,8|0,0:0|0:0,0:0:0:0:
222,0,213342,6,0,P|258:21|279:58,1,85,6|0,0:0|0:0,0:0:0:0:
117,102,213554,2,0,P|153:82|196:83,1,85,8|0,0:0|0:0,0:0:0:0:
259,139,213765,1,0,3:0:0:0:
228,217,213870,1,0,3:0:0:0:
280,282,213976,2,0,P|304:247|309:207,1,85,8|0,0:0|0:0,0:0:0:0:
146,206,214187,6,0,P|151:247|175:281,1,85,2|0,0:0|0:0,0:0:0:0:
333,348,214399,2,0,L|280:282,1,85,8|0,0:0|0:0,0:0:0:0:
143,356,214610,2,0,P|184:362|223:347,1,85,0|0,3:0|3:0,0:0:0:0:
308,202,214821,2,0,P|266:199|227:217,1,85,8|0,0:0|0:0,0:0:0:0:
333,348,215032,6,0,L|342:171,1,170,2|8,0:0|0:0,0:0:0:0:
346,55,215349,1,0,0:0:0:0:
346,55,215455,2,0,P|365:93|400:116,1,85,0|0,3:0|3:0,0:0:0:0:
412,1,215666,2,0,L|327:7,1,85,8|0,0:0|0:0,0:0:0:0:
196,25,215877,6,0,B|245:22|266:67|266:67|250:147,1,170,2|8,0:0|0:0,0:0:0:0:
191,209,216194,1,0,0:0:0:0:
215,290,216300,2,0,L|227:386,1,85,0|0,3:0|3:0,0:0:0:0:
302,337,216511,2,0,L|387:344,1,85,8|0,0:0|0:0,0:0:0:0:
428,266,216723,6,0,L|533:258,1,85,4|0,0:0|0:0,0:0:0:0:
390,176,216934,1,8,0:0:0:0:
390,176,217039,2,0,L|475:183,1,85,2|0,0:0|3:0,0:0:0:0:
360,95,217251,1,0,3:0:0:0:
360,94,217356,2,0,P|325:119|306:157,1,85,8|0,0:0|0:0,0:0:0:0:
223,132,217568,6,0,L|109:163,1,85,2|0,0:0|0:0,0:0:0:0:
233,215,217779,2,0,P|266:238|288:299,1,85,8|0,0:0|0:0,0:0:0:0:
222,346,217990,1,0,3:0:0:0:
138,331,218096,1,0,3:0:0:0:
97,256,218201,1,8,0:0:0:0:
277,76,218413,6,0,L|360:95,1,85,4|0,0:0|0:0,0:0:0:0:
329,174,218624,1,8,0:0:0:0:
329,174,218730,2,0,L|374:245,1,85,2|0,0:0|3:0,0:0:0:0:
296,279,218940,1,0,3:0:0:0:
296,279,219046,2,0,L|277:361,1,85,8|0,0:0|0:0,0:0:0:0:
128,289,219258,6,0,P|167:274|209:280,1,85,2|0,0:0|0:0,0:0:0:0:
184,153,219469,2,0,P|222:170|248:204,1,85,8|0,0:0|0:0,0:0:0:0:
329,174,219680,1,0,3:0:0:0:
409,202,219786,1,0,3:0:0:0:
473,146,219892,1,8,0:0:0:0:
287,8,220103,6,0,L|204:26,1,85,4|0,0:0|0:0,0:0:0:0:
106,91,220314,1,8,0:0:0:0:
106,91,220420,2,0,L|189:110,1,85,2|0,0:0|3:0,0:0:0:0:
286,174,220631,1,0,3:0:0:0:
286,174,220737,2,0,L|203:192,1,85,8|0,0:0|0:0,0:0:0:0:
267,271,220948,6,0,L|285:353,1,85,2|0,0:0|0:0,0:0:0:0:
364,290,221159,2,0,L|446:271,1,85,8|0,0:0|0:0,0:0:0:0:
473,146,221370,1,2,3:2:0:0:
418,80,221476,1,2,3:2:0:0:
332,76,221582,1,8,0:0:0:0:
184,289,221793,6,0,L|266:270,1,85,2|0,0:0|0:0,0:0:0:0:
371,145,222004,2,0,P|333:162|308:196,1,85,8|0,0:0|0:0,0:0:0:0:
203,114,222215,2,0,L|222:197,1,85,0|0,3:0|3:0,0:0:0:0:
71,144,222427,2,0,P|109:161|135:195,1,85,8|0,0:0|0:0,0:0:0:0:
172,370,222638,6,0,P|167:328|184:289,1,85,2|0,0:0|0:0,0:0:0:0:
364,290,222849,2,0,L|457:292,1,85,8|0,0:0|0:0,0:0:0:0:
473,146,223061,1,0,3:0:0:0:
418,80,223166,1,0,3:0:0:0:
332,72,223272,1,8,0:0:0:0:
265,127,223377,1,0,0:0:0:0:
256,213,223483,6,0,L|245:319,1,85,4|0,0:0|0:0,0:0:0:0:
163,285,223694,2,0,L|171:369,1,85,8|2,0:0|0:0,0:0:0:0:
98,226,223906,2,0,P|80:263|79:305,1,85,0|0,3:0|3:0,0:0:0:0:
71,144,224117,2,0,P|47:108|11:87,1,85,10|0,0:0|0:0,0:0:0:0:
156,164,224328,6,0,L|262:170,1,85,0|0,3:0|0:0,0:0:0:0:
249,83,224539,2,0,P|296:105|321:138,1,85,10|0,0:0|0:0,0:0:0:0:
383,74,224751,2,0,P|400:122|395:163,1,85,2|0,3:2|3:0,0:0:0:0:
484,162,224962,2,0,P|462:208|429:234,1,85,8|0,0:0|0:0,0:0:0:0:
464,310,225173,6,0,L|379:305,1,85,2|0,3:2|0:0,0:0:0:0:
255,224,225385,2,0,P|302:216|351:236,1,85,8|0,0:0|0:0,0:0:0:0:
333,376,225596,2,0,P|286:384|237:364,1,85,0|0,3:0|3:0,0:0:0:0:
124,290,225807,2,0,L|209:295,1,85,8|0,0:0|0:0,0:0:0:0:
77,361,226018,5,0,3:0:0:0:
39,284,226124,1,0,3:0:0:0:
86,212,226230,1,8,0:0:0:0:
171,216,226335,1,0,0:0:0:0:
216,144,226441,5,0,3:0:0:0:
225,42,226547,1,0,3:0:0:0:
133,0,226653,1,8,0:0:0:0:
64,76,226758,1,8,0:0:0:0:
115,165,226864,5,4,0:0:0:0:
135,334,227286,6,0,L|52:371,1,63.7500024318696
124,295,227497,2,0,L|54:351,1,63.7500024318696
105,261,227708,6,0,L|53:333,1,63.7500024318696
78,232,227920,2,0,L|47:316,1,63.7500024318696
105,191,228131,6,0,L|119:279,1,63.7500024318696
107,141,228342,2,0,L|163:209,1,63.7500024318696
83,96,228554,6,0,L|166:127,1,63.7500024318696
39,69,228765,2,0,L|127:54,1,63.7500024318696
167,162,228976,6,0,L|232:98,1,63.7500024318696
324,150,229187,2,0,L|332:59,1,63.7500024318696
440,52,229399,6,0,L|403:0,1,63.7500024318696,8|0,0:0|0:0,0:0:0:0:
249,211,229610,1,0,3:0:0:0:
491,286,229821,1,0,3:0:0:0:
329,86,230032,1,8,3:2:0:0:
236,325,230244,5,4,0:0:0:0:
236,325,230349,2,0,P|270:354|341:353,1,85,0|8,0:0|0:0,0:0:0:0:
154,303,230561,1,2,0:0:0:0:
154,303,230666,2,0,P|153:347|200:401,1,85,0|0,3:0|0:0,0:0:0:0:
118,226,230877,1,8,0:0:0:0:
118,225,230983,6,0,P|85:252|69:291,1,85,2|0,0:0|0:0,0:0:0:0:
153,147,231194,1,0,0:0:0:0:
153,147,231300,2,0,P|111:138|72:151,1,85,8|0,0:0|0:0,0:0:0:0:
236,123,231511,1,0,3:0:0:0:
307,171,231617,1,0,3:0:0:0:
315,256,231723,2,0,L|454:275,1,85,8|0,0:0|0:0,0:0:0:0:
427,186,231934,5,2,0:0:0:0:
427,186,232039,2,0,L|511:174,1,85,0|8,0:0|0:0,0:0:0:0:
374,93,232251,1,2,0:0:0:0:
374,93,232356,2,0,L|459:105,1,85,0|0,3:0|0:0,0:0:0:0:
341,14,232568,1,8,0:0:0:0:
341,14,232673,6,0,P|290:77|316:155,1,170,2|0,0:0|0:0,0:0:0:0:
239,191,232990,1,8,0:0:0:0:
256,274,233096,1,0,0:0:0:0:
212,346,233201,2,0,P|176:369|134:373,1,85,0|0,3:0|3:0,0:0:0:0:
84,232,233413,2,0,P|119:208|161:204,1,85,8|0,0:0|0:0,0:0:0:0:
297,349,233624,5,2,0:0:0:0:
297,349,233730,2,0,L|384:360,1,85,0|8,0:0|0:0,0:0:0:0:
439,267,233941,1,2,0:0:0:0:
438,267,234047,2,0,L|354:278,1,85,0|0,3:0|0:0,0:0:0:0:
296,185,234258,1,8,0:0:0:0:
296,185,234363,6,0,B|375:193|375:193|425:167|405:119,1,170,2|0,0:0|0:0,0:0:0:0:
272,102,234680,2,0,P|235:123|214:160,1,85,8|0,0:0|0:0,0:0:0:0:
95,159,234892,1,0,3:0:0:0:
153,221,234997,1,0,3:0:0:0:
150,305,235103,2,0,L|234:294,1,85,8|0,0:0|0:0,0:0:0:0:
334,162,235314,6,0,P|297:183|277:220,1,85,2|0,0:0|0:0,0:0:0:0:
419,302,235525,2,0,L|358:244,1,85,8|0,0:0|0:0,0:0:0:0:
443,382,235737,2,0,P|479:363|500:326,2,85,0|0|8,3:0|3:0|0:0,0:0:0:0:
480,243,236054,6,0,B|489:198|489:198|426:169|427:99,1,170,2|0,0:0|0:0,0:0:0:0:
396,0,236370,2,0,P|380:39|349:67,1,85,8|0,0:0|0:0,0:0:0:0:
272,102,236582,1,0,3:0:0:0:
193,71,236687,1,0,3:0:0:0:
115,104,236793,1,8,0:0:0:0:
83,182,236899,1,0,3:0:0:0:
115,259,237004,5,4,0:0:0:0:
115,259,237110,2,0,L|215:246,1,85,0|8,0:0|0:0,0:0:0:0:
232,168,237321,1,2,0:0:0:0:
232,168,237427,2,0,P|265:195|283:234,1,85,0|0,3:0|3:0,0:0:0:0:
367,247,237638,1,8,0:0:0:0:
367,247,237744,6,0,P|342:281|335:322,2,85,2|0|0,0:0|0:0|0:0,0:0:0:0:
250,314,238061,2,0,L|165:324,1,85,8|0,0:0|0:0,0:0:0:0:
33,249,238272,1,0,3:0:0:0:
83,182,238377,1,0,3:0:0:0:
166,191,238483,2,0,L|270:202,1,85,8|0,0:0|0:0,0:0:0:0:
330,137,238694,5,2,0:0:0:0:
330,137,238800,2,0,P|327:179|347:217,1,85,0|8,0:0|0:0,0:0:0:0:
258,92,239011,1,2,0:0:0:0:
258,92,239117,2,0,P|226:119|214:160,1,85,0|0,3:0|3:0,0:0:0:0:
242,7,239328,1,8,0:0:0:0:
241,6,239434,6,0,P|198:4|161:24,2,85,2|0|0,0:0|0:0|0:0,0:0:0:0:
79,46,239751,2,0,P|98:83|134:105,1,85,8|0,0:0|0:0,0:0:0:0:
83,182,239962,2,0,L|186:194,1,85,0|0,3:0|3:0,0:0:0:0:
168,277,240173,2,0,L|252:267,1,85,8|0,0:0|0:0,0:0:0:0:
326,198,240385,5,2,0:0:0:0:
326,198,240490,2,0,L|336:283,1,85,0|8,0:0|0:0,0:0:0:0:
384,136,240701,1,2,0:0:0:0:
384,136,240807,2,0,B|401:156|401:156|409:213,1,85,0|0,3:0|3:0,0:0:0:0:
422,59,241018,1,8,0:0:0:0:
422,59,241124,6,0,B|480:120|480:120|492:210,1,170,2|0,0:0|0:0,0:0:0:0:
413,299,241441,2,0,P|452:283|494:290,1,85,8|0,0:0|0:0,0:0:0:0:
377,374,241652,1,0,3:0:0:0:
329,304,241757,1,0,3:0:0:0:
245,288,241863,2,0,P|204:286|148:335,1,85,8|0,0:0|0:0,0:0:0:0:
57,366,242075,6,0,P|80:330|80:289,1,85,2|0,0:0|0:0,0:0:0:0:
82,164,242286,2,0,P|101:201|137:222,1,85,8|0,0:0|0:0,0:0:0:0:
188,60,242497,2,0,L|163:141,1,85,0|0,3:0|3:0,0:0:0:0:
324,106,242708,2,0,P|282:104|246:125,1,85,8|0,0:0|0:0,0:0:0:0:
245,288,242920,5,0,3:0:0:0:
329,304,243025,1,0,3:0:0:0:
399,255,243131,1,0,3:0:0:0:
413,170,243237,1,0,3:0:0:0:
362,99,243342,5,0,3:0:0:0:
413,28,243448,1,0,3:0:0:0:
496,54,243554,1,8,3:2:0:0:
496,140,243659,1,8,3:2:0:0:
413,170,243765,6,0,L|284:217,1,127.500004863739,4|0,0:0|0:0,0:0:0:0:
229,151,244082,1,0,0:0:0:0:
229,150,244187,2,0,P|204:209|225:271,1,127.500004863739,2|0,0:0|0:0,0:0:0:0:
250,352,244504,6,0,P|212:301|152:287,1,127.500004863739,2|0,0:0|0:0,0:0:0:0:
65,263,244821,2,0,L|83:372,1,63.7500024318696,2|0,0:0|0:0,0:0:0:0:
167,373,245032,5,8,0:0:0:0:
0,192,245244,1,8,0:0:0:0:
