osu file format v14

[General]
AudioFilename: godofspeed.mp3
AudioLeadIn: 0
PreviewTime: 100631
Countdown: 0
SampleSet: Soft
StackLeniency: 0.7
Mode: 0
LetterboxInBreaks: 0
WidescreenStoryboard: 0

[Editor]
DistanceSpacing: 1.1
BeatDivisor: 4
GridSize: 4
TimelineZoom: 2.899999

[Metadata]
Title:Kyouran Hey Kids!!
TitleUnicode:狂乱 Hey Kids!!
Artist:THE ORAL CIGARETTES
ArtistUnicode:THE ORAL CIGARETTES
Creator:monstrata
Version:Easy
Source:ノラガミ ARAGOTO
Tags:milan- cerulean veyron gray noragami aragoto yato hiyori second 2nd op opening full version
BeatmapID:829723
BeatmapSetID:372510

[Difficulty]
HPDrainRate:2
CircleSize:2
OverallDifficulty:3
ApproachRate:3
SliderMultiplier:1
SliderTickRate:1

[Events]
//Background and Video events
0,0,"608362.jpg",0,0
//Break Periods
2,74751,86832
2,128835,137536
2,166218,178099
2,189880,191621
2,227063,228804
//Storyboard Layer 0 (Background)
//Storyboard Layer 1 (Fail)
//Storyboard Layer 2 (Pass)
//Storyboard Layer 3 (Foreground)
//Storyboard Sound Samples

[TimingPoints]
385,422.535211267606,4,2,0,65,1,0
5455,-100,4,2,1,60,0,0
7145,-100,4,2,1,60,0,0
20666,-100,4,2,1,40,0,0
34187,-100,4,2,1,60,0,0
40948,-100,4,2,1,65,0,0
46018,-100,4,2,1,65,0,0
47708,-100,4,2,1,65,0,1
71370,-100,4,2,1,65,0,0
71793,-100,4,2,1,35,0,0
88272,-100,4,2,1,40,0,0
91018,-100,4,2,1,60,0,0
91441,-100,4,2,1,40,0,0
97779,-100,4,2,1,60,0,0
98413,-100,4,2,1,65,0,0
100948,-100,4,2,1,65,0,0
101793,-100,4,2,1,65,0,1
115314,-100,4,2,1,65,0,1
125455,-100,4,2,1,65,0,0
138976,-100,4,2,1,65,0,0
151758,-100,4,2,1,35,0,0
151863,-100,4,2,1,65,0,0
152497,-100,4,2,1,40,0,0
162638,-100,4,2,1,35,0,0
164328,-100,4,2,1,45,0,0
179539,-100,4,2,1,50,0,0
192215,-100,4,2,1,65,0,0
193061,-100,4,2,1,65,0,1
226863,-100,4,2,1,65,0,0
227286,-100,4,2,1,35,0,0
230244,-100,4,2,1,60,0,0
243765,-100,4,2,1,40,0,0

[Colours]
Combo1 : 255,162,162
Combo2 : 108,207,255
Combo3 : 163,88,254
Combo4 : 0,99,198

[HitObjects]
9,165,385,6,0,P|72:123|206:164,1,200,4|2,0:0|0:0,0:0:0:0:
214,242,1652,1,2,0:0:0:0:
246,336,2075,6,0,B|316:345|316:345|459:287,1,200,0|2,3:0|0:0,0:0:0:0:
460,197,3342,1,2,0:0:0:0:
484,97,3765,6,0,P|418:103|359:217,1,200,0|2,3:0|0:0,0:0:0:0:
274,265,5032,1,2,0:0:0:0:
180,229,5455,5,4,3:3:0:0:
52,78,7145,6,0,L|188:100,1,100,4|2,1:0|3:2,0:0:0:0:
210,174,7990,2,0,L|308:158,1,100,0|2,0:0|0:0,0:0:0:0:
406,141,8835,2,0,P|402:190|374:231,1,100,2|2,0:0|3:2,0:0:0:0:
279,259,9680,2,0,P|251:299|247:349,1,100,0|2,0:0|0:0,0:0:0:0:
347,335,10525,6,0,L|472:345,1,100,0|2,3:0|3:2,0:0:0:0:
480,248,11370,2,0,L|380:240,1,100,0|2,0:0|3:2,0:0:0:0:
318,161,12215,2,0,B|260:158|260:158|185:196|185:196|127:190,1,200,2|0,3:2|0:0,0:0:0:0:
28,178,13483,1,0,3:0:0:0:
65,270,13906,6,0,L|47:384,2,100,4|2|0,0:0|3:2|0:0,0:0:0:0:
127,190,15173,1,0,3:0:0:0:
228,204,15596,2,0,L|335:162,2,100,2|2|0,0:0|0:0|0:0,0:0:0:0:
166,282,16863,1,2,3:2:0:0:
204,373,17286,6,0,P|250:333|265:281,1,100,2|2,0:0|3:2,0:0:0:0:
356,260,18131,2,0,L|463:218,1,100,0|2,0:0|3:2,0:0:0:0:
444,124,18976,2,0,L|336:165,1,100,2|2,0:0|3:2,0:0:0:0:
256,125,19821,1,8,0:0:0:0:
161,90,20244,1,0,3:0:0:0:
83,154,20666,6,0,P|92:235|194:316,1,200,2|0,0:0|3:0,0:0:0:0:
256,251,21934,1,8,0:0:0:0:
335,311,22356,2,0,P|412:250|429:154,1,200,2|0,0:0|3:0,0:0:0:0:
351,90,23624,1,8,0:0:0:0:
256,125,24046,6,0,P|251:74|284:15,2,100,2|8|0,0:0|0:0|3:0,0:0:0:0:
335,186,25314,1,8,0:0:0:0:
414,247,25737,2,0,P|419:298|386:357,2,100,2|8|0,0:0|0:0|3:0,0:0:0:0:
320,282,27004,1,8,0:0:0:0:
225,319,27427,6,0,B|131:346|131:346|72:331|54:285,1,200,2|0,0:0|3:0,0:0:0:0:
90,192,28694,1,8,0:0:0:0:
54,98,29117,2,0,B|72:53|131:38|131:38|225:64,1,200,2|2,0:0|3:2,0:0:0:0:
320,102,30385,1,8,0:0:0:0:
414,135,30807,6,0,B|448:213|392:213|424:285,2,150,10|10|10,3:2|0:0|0:0,0:0:0:0:
394,36,32497,1,4,0:0:0:0:
299,4,32920,2,0,B|216:40|232:121|232:121|272:176,1,200,8|0,0:0|0:0,0:0:0:0:
360,172,34187,6,0,P|344:218|307:251,1,100,4|2,0:0|3:2,0:0:0:0:
207,241,35032,2,0,L|108:232,1,100,0|2,0:0|3:2,0:0:0:0:
74,137,35877,2,0,L|173:146,1,100,2|2,0:0|3:2,0:0:0:0:
242,73,36723,2,0,P|291:52|347:62,1,100,0|0,0:0|3:0,0:0:0:0:
393,139,37568,6,0,B|371:182|371:182|387:246,1,100,2|2,0:0|3:2,0:0:0:0:
407,329,38413,2,0,P|355:327|304:291,1,100,0|2,0:0|3:2,0:0:0:0:
247,229,39258,2,0,L|135:242,1,100,0|10,3:0|0:0,0:0:0:0:
99,152,40103,2,0,L|-13:139,1,100,0|8,3:0|3:0,0:0:0:0:
47,52,40948,6,0,L|252:75,1,200,0|8,3:0|0:0,0:0:0:0:
321,140,42215,1,8,0:0:0:0:
413,101,42638,2,0,P|417:162|310:241,1,200,0|8,3:0|0:0,0:0:0:0:
233,185,43906,1,0,0:0:0:0:
153,124,44328,6,0,B|122:162|137:217|137:217|91:252|98:314,1,200,0|8,3:0|0:0,0:0:0:0:
197,298,45596,1,8,0:0:0:0:
294,318,46018,2,0,L|404:340,1,100,8|8,3:2|0:2,0:0:0:0:
455,44,47708,6,0,L|327:61,1,100,4|8,0:0|3:2,0:0:0:0:
256,72,48554,2,0,P|280:127|323:152,1,100,2|0,0:0|3:0,0:0:0:0:
412,145,49399,2,0,P|390:211|353:237,1,100,2|8,0:0|0:2,0:0:0:0:
268,233,50244,2,0,L|168:219,1,100,2|0,0:0|3:0,0:0:0:0:
69,208,51089,6,0,P|76:264|139:312,2,100,4|8|0,0:0|3:2|3:0,0:0:0:0:
128,127,52356,1,0,3:0:0:0:
119,27,52779,2,0,P|181:42|226:102,1,100,2|8,0:0|3:2,0:0:0:0:
219,164,53624,1,2,0:0:0:0:
141,226,54046,1,0,3:0:0:0:
155,324,54469,6,0,L|264:367,1,100,4|8,0:0|3:2,0:0:0:0:
317,289,55314,2,0,L|434:271,1,100,2|0,0:0|3:0,0:0:0:0:
456,185,56159,2,0,P|492:212|514:270,2,100,2|8|2,0:0|3:2|0:0,0:0:0:0:
355,188,57427,1,0,3:0:0:0:
254,191,57849,6,0,P|218:164|196:106,1,100,2|8,0:0|3:2,0:0:0:0:
112,60,58694,2,0,P|106:104|67:152,1,100,2|0,0:0|3:0,0:0:0:0:
69,248,59539,2,0,P|110:230|171:240,2,100,2|8|2,3:2|3:2|0:0,0:0:0:0:
127,329,60807,1,8,3:2:0:0:
226,317,61230,6,0,L|346:301,1,100,4|8,0:0|3:2,0:0:0:0:
356,208,62075,1,2,0:0:0:0:
301,124,62497,1,0,3:0:0:0:
346,34,62920,2,0,L|466:50,2,100,2|8|2,0:0|3:2|0:0,0:0:0:0:
246,22,64187,1,0,3:0:0:0:
146,10,64610,6,0,P|163:80|205:114,1,100,2|8,0:0|3:2,0:0:0:0:
278,119,65455,2,0,L|245:241,1,100,2|0,3:2|3:0,0:0:0:0:
176,281,66300,2,0,L|209:403,2,100,2|8|2,0:0|3:2|0:0,0:0:0:0:
151,184,67568,1,0,3:0:0:0:
222,113,67990,6,0,P|248:163|240:228,2,100,4|8|2,0:0|3:2|0:0,0:0:0:0:
125,84,69258,1,0,3:0:0:0:
55,156,69680,2,0,P|53:208|108:274,2,100,2|8|2,0:0|3:2|0:0,0:0:0:0:
151,184,70948,2,0,L|181:299,1,100,0|6,3:0|0:0,0:0:0:0:
329,68,88272,6,0,P|393:113|407:242,1,200,2|0,0:0|3:0,0:0:0:0:
340,297,89539,1,8,0:0:0:0:
256,241,89962,2,0,L|256:122,2,100,2|8|0,0:0|0:0|3:0,0:0:0:0:
172,297,91230,1,8,0:3:0:0:
99,227,91652,6,0,P|108:130|183:68,1,200,2|0,0:0|3:0,0:0:0:0:
256,141,92920,1,8,0:0:0:0:
335,80,93342,2,0,P|355:131|294:235,2,150,8|0|8,3:2|3:0|0:0,0:0:0:0:
242,40,95032,5,2,0:0:0:0:
162,101,95455,2,0,L|41:90,2,100,8|0|8,0:0|3:0|0:0,0:0:0:0:
256,141,96723,2,0,L|377:130,2,100,0|8|0,3:0|0:0|3:0,0:0:0:0:
174,198,97990,1,8,0:3:0:0:
91,255,98413,6,0,P|151:297|224:285,2,150,0|0|8,3:0|3:0|0:0,0:0:0:0:
83,156,100103,1,8,3:2:0:0:
470,55,101793,6,0,L|453:185,1,100,4|8,0:2|3:2,0:0:0:0:
444,253,102638,2,0,P|393:230|362:176,1,100,2|0,0:0|3:0,0:0:0:0:
368,95,103483,2,0,P|319:108|284:141,1,100,2|8,0:0|3:2,0:0:0:0:
278,240,104328,1,2,0:0:0:0:
188,282,104751,1,0,3:0:0:0:
106,225,105173,6,0,P|90:278|111:342,2,100,2|8|2,0:0|3:2|0:0,0:0:0:0:
196,183,106441,1,0,3:0:0:0:
286,141,106863,2,0,P|302:88|281:24,1,100,2|8,0:0|3:2,0:0:0:0:
202,86,107708,2,0,L|97:102,1,100,2|0,0:0|3:0,0:0:0:0:
19,46,108554,6,0,P|3:99|24:163,1,100,4|8,0:0|3:2,0:0:0:0:
92,200,109399,1,2,0:0:0:0:
81,298,109821,1,0,3:0:0:0:
160,356,110244,2,0,P|208:349|259:299,2,100,2|8|2,0:0|3:2|0:0,0:0:0:0:
171,258,111511,1,0,3:0:0:0:
181,159,111934,6,0,P|227:179|259:217,1,100,2|8,0:0|3:2,0:0:0:0:
337,279,112779,2,0,B|387:284|387:284|432:263,1,100,2|0,0:0|3:0,0:0:0:0:
441,163,113624,2,0,L|531:119,2,100,2|8|2,0:0|3:2|3:2,0:0:0:0:
345,133,114892,1,0,3:0:0:0:
249,103,115314,6,0,B|233:164|233:164|246:239|246:239|229:308,1,200,4|8,0:0|0:0,0:0:0:0:
143,345,116582,1,8,0:0:0:0:
54,298,117004,2,0,B|40:239|40:239|53:164|53:164|37:103,1,200,0|8,3:0|0:0,0:0:0:0:
79,12,118272,1,8,0:0:0:0:
160,68,118694,6,0,P|256:91|352:68,1,200,0|8,3:0|3:2,0:0:0:0:
433,12,119962,1,0,0:0:0:0:
475,103,120385,2,0,B|459:164|459:164|472:239|472:239|457:298,1,200,0|8,3:0|0:0,0:0:0:0:
369,345,121652,1,0,0:0:0:0:
300,271,122075,6,0,L|326:166,2,100,0|8|8,3:0|3:2|0:0,0:0:0:0:
275,368,123342,1,8,0:0:0:0:
203,298,123765,2,0,L|99:327,2,100,0|8|8,3:0|3:2|0:0,0:0:0:0:
226,200,125032,2,0,P|275:171|336:176,1,100,0|4,0:0|3:2,0:0:0:0:
263,87,138976,6,0,P|316:80|362:98,1,100,4|0,0:0|3:0,0:0:0:0:
305,181,139821,2,0,L|352:287,1,100,2|0,3:2|3:0,0:0:0:0:
387,366,140666,2,0,P|334:373|288:355,2,100,2|2|0,0:0|3:2|0:0,0:0:0:0:
443,283,141934,1,0,3:0:0:0:
499,200,142356,6,0,P|439:184|369:214,1,100,2|0,0:0|3:0,0:0:0:0:
303,205,143201,2,0,P|319:145|289:75,1,100,2|0,0:0|3:0,0:0:0:0:
227,53,144046,2,0,P|211:113|241:183,2,100,2|2|2,0:0|3:2|0:0,0:0:0:0:
317,10,145314,1,0,3:0:0:0:
399,66,145737,6,0,P|407:114|393:162,1,100,2|0,0:0|3:0,0:0:0:0:
303,205,146582,2,0,L|288:326,1,100,2|0,0:0|3:0,0:0:0:0:
192,323,147427,2,0,L|204:223,2,100,2|2|2,0:0|3:2|0:0,0:0:0:0:
93,339,148694,1,0,3:0:0:0:
27,264,149117,5,0,0:0:0:0:
60,168,149539,2,0,P|109:144|162:149,2,100,0|2|8,3:0|0:0|0:0,0:0:0:0:
127,245,150807,2,0,L|92:340,2,100,0|2|8,3:0|0:0|0:0,0:0:0:0:
224,221,152075,1,8,0:0:0:0:
321,197,152497,6,0,L|356:102,2,100,8|0|8,0:3|3:0|0:0,0:0:0:0:
294,294,153765,1,8,0:0:0:0:
363,364,154187,2,0,P|413:365|456:342,2,100,0|0|8,3:0|3:0|0:0,0:0:0:0:
390,268,155455,1,8,0:0:0:0:
415,170,155877,6,0,P|459:195|485:237,2,100,0|0|8,3:0|3:0|0:0,0:0:0:0:
321,197,157145,1,8,0:0:0:0:
294,294,157568,2,0,P|251:319|201:321,1,100,0|0,3:0|3:0,0:0:0:0:
223,223,158413,2,0,L|145:145,1,100,8|0,3:0|3:0,0:0:0:0:
81,81,159258,6,0,P|123:55|173:53,2,100,8|0|8,3:0|3:0|3:0,0:0:0:0:
61,179,160525,1,8,0:0:0:0:
135,245,160948,2,0,L|111:353,1,100,0|0,3:0|3:0,0:0:0:0:
213,330,161793,2,0,L|321:353,1,100,8|0,3:2|3:0,0:0:0:0:
388,288,162638,6,0,B|447:264|452:185|410:133|334:152|334:152|306:130|261:139,1,300,0|0,0:0|0:0,0:0:0:0:
178,190,164328,2,0,L|72:170,2,100,0|0|8,3:0|3:0|0:0,0:0:0:0:
208,285,165596,1,8,0:0:0:0:
238,380,166018,5,12,3:2:0:0:
313,97,179539,5,2,0:0:0:0:
350,189,179962,2,0,L|449:202,2,100,0|2|0,3:0|3:2|3:0,0:0:0:0:
251,175,181230,2,0,L|189:253,1,100,2|2,0:0|3:2,0:0:0:0:
127,331,182075,2,0,P|97:292|91:243,1,100,2|0,0:0|3:0,0:0:0:0:
141,156,182920,5,2,0:0:0:0:
196,72,183342,2,0,P|150:57|92:69,2,100,0|2|0,3:0|0:0|3:0,0:0:0:0:
241,162,184610,2,0,L|356:152,1,100,2|0,0:0|3:0,0:0:0:0:
439,145,185455,2,0,P|431:194|400:233,1,100,2|0,0:0|3:0,0:0:0:0:
302,254,186300,5,2,0:0:0:0:
203,272,186723,2,0,P|220:316|272:351,2,100,0|2|0,3:0|0:0|3:0,0:0:0:0:
125,209,187990,2,0,L|26:192,1,100,2|0,0:0|3:0,0:0:0:0:
30,92,188835,2,0,L|129:109,1,100,2|0,0:0|3:0,0:0:0:0:
217,154,189680,5,6,0:0:0:0:
344,113,193061,6,0,P|301:69|253:56,1,100,4|8,0:0|3:2,0:0:0:0:
255,157,193906,2,0,L|246:260,1,100,2|0,0:0|3:0,0:0:0:0:
165,315,194751,2,0,L|62:306,2,100,2|8|2,0:0|3:2|0:0,0:0:0:0:
256,355,196018,1,0,3:0:0:0:
347,315,196441,6,0,L|450:306,1,100,4|8,0:0|3:2,0:0:0:0:
495,218,197286,1,2,0:0:0:0:
442,133,197708,1,0,3:0:0:0:
489,44,198131,2,0,P|426:33|384:51,1,100,2|8,0:0|3:2,0:0:0:0:
341,130,198976,2,0,L|220:126,1,100,2|0,0:0|3:0,0:0:0:0:
140,125,199821,6,0,P|161:190|188:212,1,100,4|8,0:0|3:2,0:0:0:0:
282,224,200666,1,2,0:0:0:0:
331,311,201089,1,0,3:0:0:0:
429,325,201511,2,0,P|478:282|492:227,1,100,2|10,0:0|3:2,0:0:0:0:
392,233,202356,2,0,L|347:118,1,100,2|2,0:0|3:2,0:0:0:0:
318,47,203201,6,0,P|269:90|255:145,1,100,4|8,0:0|3:2,0:0:0:0:
156,110,204046,2,0,P|168:173|209:213,1,100,2|0,0:0|3:0,0:0:0:0:
129,281,204892,2,0,P|190:301|245:286,2,100,2|8|2,0:0|3:2|0:0,0:0:0:0:
74,197,206159,1,0,3:0:0:0:
19,113,206582,6,0,P|73:97|127:112,1,100,4|8,0:0|3:2,0:0:0:0:
175,185,207427,2,0,L|285:171,1,100,2|0,0:0|3:0,0:0:0:0:
335,92,208272,2,0,L|322:-6,2,100,2|8|2,0:0|3:2|0:0,0:0:0:0:
373,184,209539,1,0,3:0:0:0:
471,197,209962,6,0,P|462:140|422:96,2,100,4|8|2,0:0|3:2|0:0,0:0:0:0:
407,274,211230,1,0,3:0:0:0:
343,351,211652,2,0,L|244:340,1,100,2|8,0:0|3:2,0:0:0:0:
144,328,212497,2,0,P|164:277|215:243,1,100,2|8,0:0|3:0,0:0:0:0:
298,251,213342,6,0,B|313:201|313:201|298:146,1,100,6|8,0:0|3:2,0:0:0:0:
263,61,214187,1,2,0:0:0:0:
162,46,214610,1,0,3:0:0:0:
99,125,215032,2,0,P|106:184|136:222,1,100,2|8,0:0|3:2,0:0:0:0:
199,140,215877,2,0,L|315:158,1,100,2|0,0:0|3:0,0:0:0:0:
367,78,216723,6,0,P|393:120|366:232,2,150,4|8|0,0:0|0:0|3:0,0:0:0:0:
268,62,218413,2,0,B|169:48|169:48|117:75,2,150,4|8|0,0:0|0:0|3:0,0:0:0:0:
297,155,220103,6,0,L|348:316,2,150,4|8|2,0:0|0:0|3:2,0:0:0:0:
199,140,221793,2,0,L|82:122,1,100,2|8,0:0|3:2,0:0:0:0:
1,108,222638,2,0,P|14:176|52:212,1,100,2|8,0:0|3:2,0:0:0:0:
130,219,223483,6,0,P|90:281|19:298,2,150,4|10|2,0:0|0:0|3:2,0:0:0:0:
100,124,225173,2,0,P|156:121|209:154,1,100,2|8,3:2|3:0,0:0:0:0:
225,233,226018,2,0,P|266:208|289:163,1,100,0|8,3:0|3:0,0:0:0:0:
259,68,226863,5,4,0:0:0:0:
397,124,230244,6,0,B|347:128|347:128|302:170,1,100,4|0,0:0|3:0,0:0:0:0:
210,156,231089,2,0,B|214:206|214:206|256:251,1,100,0|0,0:0|3:0,0:0:0:0:
242,343,231934,2,0,B|292:339|292:339|337:297,1,100,2|0,0:0|3:0,0:0:0:0:
429,311,232779,2,0,B|425:261|425:261|383:216,1,100,0|0,0:0|3:0,0:0:0:0:
397,124,233624,6,0,P|348:133|310:165,1,100,2|0,0:0|3:0,0:0:0:0:
249,245,234469,2,0,L|132:236,1,100,0|0,0:0|3:0,0:0:0:0:
49,227,235314,2,0,P|65:292|100:326,2,100,2|0|0,0:0|3:0|0:0,0:0:0:0:
106,144,236582,1,0,3:0:0:0:
163,61,237004,6,0,P|213:52|273:77,1,100,4|0,0:0|3:0,0:0:0:0:
205,151,237849,2,0,L|251:252,1,100,0|0,0:0|3:0,0:0:0:0:
192,326,238694,2,0,P|239:341|288:332,1,100,2|0,0:0|3:0,0:0:0:0:
345,250,239539,2,0,L|455:260,1,100,0|0,0:0|3:0,0:0:0:0:
491,170,240385,6,0,L|380:159,1,100,2|0,0:0|3:0,0:0:0:0:
339,74,241230,2,0,L|228:84,1,100,0|0,0:0|3:0,0:0:0:0:
166,151,242075,2,0,P|141:103|148:44,2,100,2|0|0,0:0|3:0|3:0,0:0:0:0:
261,181,243342,1,0,3:0:0:0:
282,278,243765,5,4,0:0:0:0:
