osu file format v14

[General]
AudioFilename: THE ORAL CIGARETTES - Hey Kids!!.mp3
AudioLeadIn: 0
PreviewTime: 46908
Countdown: 0
SampleSet: Soft
StackLeniency: 0.7
Mode: 0
LetterboxInBreaks: 0
WidescreenStoryboard: 0

[Editor]
DistanceSpacing: 1.3
BeatDivisor: 2
GridSize: 8
TimelineZoom: 1.8

[Metadata]
Title:Kyouran Hey Kids!!
TitleUnicode:狂乱Hey Kids!!
Artist:THE ORAL CIGARETTES
ArtistUnicode:ジ オーラル シガレッツ
Creator:Chamue
Version:Normal
Source:ノラガミ ARAGOTO
Tags:Anime OP Opening Noragami TV size HB24 FCL tutuhara 山中拓也 鈴木重伸 中西雅哉 Takuya Yamanaka Shigenobu Suzuki Masaya Nakanishi
BeatmapID:794934
BeatmapSetID:361706

[Difficulty]
HPDrainRate:3
CircleSize:3
OverallDifficulty:3
ApproachRate:4
SliderMultiplier:1.2
SliderTickRate:1

[Events]
//Background and Video events
0,0,"BG.png",0,0
//Break Periods
//Storyboard Layer 0 (Background)
//Storyboard Layer 1 (Fail)
//Storyboard Layer 2 (Pass)
//Storyboard Layer 3 (Foreground)
//Storyboard Sound Samples

[TimingPoints]
641,422.535211267606,4,2,1,40,1,0
1063,-100,4,2,2,40,0,0
5711,-100,4,2,1,40,0,0
7401,-100,4,1,3,50,0,0
20922,-100,4,1,1,40,0,0
34443,-100,4,1,3,50,0,0
41204,-125,4,1,2,50,0,0
47964,-83.3333333333333,4,1,4,70,0,1
48070,-83.3333333333333,4,1,3,60,0,1
61486,-100,4,1,2,60,0,0
71626,-100,4,1,5,50,0,0
72260,-100,4,1,5,40,0,0
72894,-100,4,1,5,30,0,0
73317,-100,4,1,5,20,0,0
75007,-83.3333333333333,4,1,4,70,0,1
75112,-83.3333333333333,4,1,3,60,0,1
85148,-83.3333333333333,4,1,3,60,0,0
87683,-83.3333333333333,4,2,1,60,0,0

[Colours]
Combo1 : 82,81,115
Combo2 : 61,92,204
Combo3 : 240,223,127
Combo4 : 75,47,125

[HitObjects]
368,8,641,6,0,P|376:72|368:136,1,120,6|2,0:0|0:0,0:0:0:0:
336,200,1274,1,2,0:0:0:0:
256,192,1486,2,0,L|176:184,2,60,2|0|2,0:0|0:0|0:0,0:0:0:0:
288,264,2119,1,0,0:0:0:0:
320,336,2331,6,0,P|384:328|448:336,1,120,2|2,0:0|0:0,0:0:0:0:
456,256,2964,1,0,0:0:0:0:
424,184,3176,2,0,L|424:112,2,60,2|0|2,0:0|0:0|0:0,0:0:0:0:
352,216,3810,1,0,0:0:0:0:
280,184,4021,6,0,P|216:176|152:184,1,120,2|2,0:0|0:0,0:0:0:0:
80,192,4655,1,0,0:0:0:0:
32,128,4866,2,0,L|32:56,2,60,2|0|2,0:0|0:0|0:0,0:0:0:0:
0,200,5500,1,0,0:0:0:0:
32,272,5711,5,10,0:0:0:0:
496,288,6979,5,8,0:0:0:0:
512,200,7401,6,0,P|504:144|512:80,2,120,6|2|2,0:0|0:0|0:0,0:0:0:0:
448,248,8457,2,0,L|456:320,2,60,10|2|10,0:0|0:0|0:0,0:0:0:0:
384,200,9091,6,0,P|328:208|264:200,2,120,2|2|2,0:0|0:0|0:0,0:0:0:0:
440,144,10147,2,0,L|448:56,2,60,10|2|10,0:0|0:0|0:0,0:0:0:0:
488,208,10781,6,0,L|496:336,2,120,2|2|2,0:0|0:0|0:0,0:0:0:0:
408,224,11837,2,0,L|412:288,2,60,10|2|10,0:0|0:0|0:0,0:0:0:0:
328,240,12471,6,0,P|272:248|208:240,2,120,2|2|2,0:0|0:0|0:0,0:0:0:0:
344,160,13527,1,10,0:0:0:0:
304,88,13739,1,2,0:0:0:0:
224,72,13950,1,10,0:0:0:0:
152,112,14161,6,0,P|160:168|152:232,2,120,6|2|2,0:0|0:0|0:0,0:0:0:0:
96,56,15218,2,0,L|32:64,2,60,10|2|10,0:0|0:0|0:0,0:0:0:0:
168,16,15851,6,0,L|312:24,2,120,2|2|2,0:0|0:0|0:0,0:0:0:0:
176,96,16908,2,0,L|184:176,2,60,10|2|10,0:0|0:0|0:0,0:0:0:0:
256,104,17541,6,0,L|268:231,2,120,2|2|2,0:0|0:0|0:0,0:0:0:0:
336,96,18598,2,0,L|400:88,2,60,10|2|10,0:0|0:0|0:0,0:0:0:0:
352,176,19231,6,0,P|408:168|472:176,2,120,2|2|2,0:0|0:0|0:0,0:0:0:0:
344,256,20288,2,0,L|336:328,2,60,10|2|10,0:0|0:0|0:0,0:0:0:0:
264,240,20922,6,0,B|208:248|208:248|144:240,1,120,4|8,0:0|0:0,0:0:0:0:
64,224,21556,1,0,0:0:0:0:
40,72,21978,2,0,L|32:8,2,60,0|8|8,0:0|0:0|0:0,0:0:0:0:
112,112,22612,6,0,B|168:104|168:104|232:112,1,120,0|8,0:0|0:0,0:0:0:0:
304,144,23246,1,0,0:0:0:0:
456,96,23668,2,0,L|464:32,2,60,0|8|0,0:0|0:0|0:0,0:0:0:0:
464,176,24302,6,0,B|456:232|456:232|464:296,1,120,0|8,0:0|0:0,0:0:0:0:
400,344,24936,1,0,0:0:0:0:
256,280,25358,2,0,L|192:288,2,60,0|8|8,0:0|0:0|0:0,0:0:0:0:
320,232,25992,6,0,B|312:176|312:176|320:112,1,120,0|8,0:0|0:0,0:0:0:0:
280,40,26626,1,0,0:0:0:0:
144,64,27048,1,0,0:0:0:0:
112,136,27260,1,8,0:0:0:0:
144,208,27471,1,8,0:0:0:0:
216,248,27682,6,0,B|272:240|272:240|336:248,1,120,4|8,0:0|0:0,0:0:0:0:
408,280,28317,1,0,0:0:0:0:
412,142,28739,2,0,L|472:136,2,60
400,64,29372,6,0,L|256:80,1,120,0|8,0:0|0:0,0:0:0:0:
200,88,30007,1,0,0:0:0:0:
48,64,30429,2,0,L|56:0,2,60,0|8|0,0:0|0:0|0:0,0:0:0:0:
56,144,31063,6,0,P|64:200|56:264,1,120,0|8,0:0|0:0,0:0:0:0:
120,312,31696,2,0,P|176:304|240:312,1,120
272,240,32330,2,0,P|328:248|392:240,1,120,8|4,0:0|0:0,0:0:0:0:
472,232,32964,6,0,L|480:312,2,60,0|8|8,0:0|0:0|0:0,0:0:0:0:
424,168,33598,2,0,L|432:48,1,120,8|4,0:0|0:0,0:0:0:0:
280,88,34443,6,0,P|224:96|160:88,2,120,6|2|2,0:0|0:0|0:0,0:0:0:0:
320,160,35499,2,0,L|384:168,2,60,10|2|10,0:0|0:0|0:0,0:0:0:0:
248,200,36133,6,0,P|256:256|248:320,2,120,2|2|2,0:0|0:0|0:0,0:0:0:0:
176,160,37189,2,0,L|96:160,2,60,10|2|10,0:0|0:0|0:0,0:0:0:0:
224,96,37823,6,0,P|280:104|344:96,2,120,2|2|2,0:0|0:0|0:0,0:0:0:0:
144,80,38879,2,0,L|136:8,2,60,10|2|10,0:0|0:0|0:0,0:0:0:0:
88,136,39513,5,10,0:0:0:0:
120,208,39725,2,0,L|112:280,2,60,2|10|10,0:0|0:0|0:0,0:0:0:0:
200,216,40358,2,0,L|192:280,1,60,10|8,0:0|0:0,0:0:0:0:
272,280,40781,2,0,L|280:192,1,60,10|8,0:0|0:0,0:0:0:0:
320,152,41204,6,0,P|392:160|432:144,1,96,6|0,0:0|0:0,0:0:0:0:
488,120,41837,1,0,0:0:0:0:
488,200,42048,2,0,L|488:264,2,48,8|0|0,0:0|0:0|0:0,0:0:0:0:
336,232,42894,6,0,P|344:304|328:344,1,96,2|0,0:0|0:0,0:0:0:0:
264,360,43527,2,0,L|208:360,2,48,0|8|0,0:0|0:0|0:0,0:0:0:0:
264,280,44161,1,0,0:0:0:0:
128,208,44584,6,0,P|200:216|240:200,1,96,2|0,0:0|0:0,0:0:0:0:
296,176,45218,2,0,P|368:168|408:184,1,96
464,208,45851,1,8,0:0:0:0:
504,136,46062,1,0,0:0:0:0:
440,88,46274,6,0,L|440:32,2,48,10|2|10,0:0|0:0|0:0,0:0:0:0:
256,192,47964,5,14,0:0:0:0:
184,224,48175,2,0,L|192:312,1,71.9999978027344,10|0,0:0|0:0,0:0:0:0:
112,312,48598,1,10,0:0:0:0:
48,264,48809,2,0,L|56:120,1,143.999995605469,2|2,0:0|0:0,0:0:0:0:
64,40,49443,1,10,0:0:0:0:
144,56,49654,6,0,L|224:64,2,71.9999978027344,2|10|2,0:0|0:0|0:0,0:0:0:0:
136,136,50288,1,10,0:0:0:0:
208,168,50499,2,0,P|232:248|208:312,1,143.999995605469,2|2,0:0|0:0,0:0:0:0:
288,336,51133,2,0,L|368:336,1,71.9999978027344,10|0,0:0|0:0,0:0:0:0:
376,256,51556,6,0,L|384:176,2,71.9999978027344,10|2|10,0:0|0:0|0:0,0:0:0:0:
456,264,52189,2,0,L|472:112,1,143.999995605469,2|2,0:0|0:0,0:0:0:0:
416,64,52823,1,10,0:0:0:0:
344,104,53034,6,0,P|264:128|200:104,1,143.999995605469,2|0,0:0|0:0,0:0:0:0:
136,72,53668,1,10,0:0:0:0:
72,120,53879,2,0,L|64:200,1,71.9999978027344,2|8,0:0|0:0,0:0:0:0:
112,256,54302,1,10,0:0:0:0:
192,248,54513,2,0,L|200:160,1,71.9999978027344,10|4,0:0|0:0,0:0:0:0:
256,120,54936,6,0,P|336:144|400:120,1,143.999995605469,10|10,0:0|0:0,0:0:0:0:
464,72,55570,1,0,0:0:0:0:
512,152,55781,1,0,0:0:0:0:
432,200,55993,2,0,L|432:280,1,71.9999978027344,2|8,0:0|0:0,0:0:0:0:
352,312,56415,6,0,P|272:288|208:312,2,143.999995605469,2|2|2,0:0|0:0|0:0,0:0:0:0:
424,352,57471,1,10,0:0:0:0:
488,304,57682,1,2,0:0:0:0:
472,224,57894,2,0,P|496:144|472:80,1,143.999995605469,10|10,0:0|0:0,0:0:0:0:
408,48,58527,5,0,0:0:0:0:
336,88,58739,2,0,P|312:168|336:232,1,143.999995605469,10|10,0:0|0:0,0:0:0:0:
264,272,59372,2,0,L|184:272,1,71.9999978027344,0|10,0:0|0:0,0:0:0:0:
128,224,59795,6,0,P|152:144|128:80,1,143.999995605469,2|8,0:0|0:0,0:0:0:0:
168,16,60429,2,0,L|240:16,2,71.9999978027344,10|2|10,0:0|0:0|0:0,0:0:0:0:
88,16,61062,1,10,0:0:0:0:
56,88,61274,1,10,0:0:0:0:
88,160,61486,6,0,P|96:216|88:280,1,120,6|0,0:0|0:0,0:0:0:0:
168,296,62119,2,0,L|160:360,2,60,2|8|2,0:0|0:0|0:0,0:0:0:0:
232,248,62753,2,0,L|240:176,1,60,2|0,0:0|0:0,0:0:0:0:
280,120,63175,6,0,P|336:128|400:120,2,120,2|2|10,0:0|0:0|0:0,0:0:0:0:
416,200,64443,1,2,0:0:0:0:
384,272,64654,2,0,L|392:336,1,60,2|0,0:0|0:0,0:0:0:0:
312,344,65077,6,0,L|304:256,2,60,2|2|2,0:0|0:0|0:0,0:0:0:0:
232,352,65710,2,0,L|220:208,1,120,10|2,0:0|0:0,0:0:0:0:
216,152,66344,1,2,0:0:0:0:
208,72,66556,6,0,P|152:80|88:72,1,120,2|0,0:0|0:0,0:0:0:0:
32,128,67189,1,10,0:0:0:0:
88,184,67401,2,0,P|96:240|88:304,1,120,10|2,0:0|0:0,0:0:0:0:
168,320,68034,2,0,L|232:320,1,60,2|4,0:0|0:0,0:0:0:0:
288,264,68457,6,0,P|280:208|288:144,1,120,2|2,0:0|0:0,0:0:0:0:
216,112,69091,2,0,L|208:48,2,60,10|2|2,0:0|0:0|0:0,0:0:0:0:
168,176,69724,1,10,0:0:0:0:
112,232,69936,6,0,L|120:360,1,120,2|2,0:0|0:0,0:0:0:0:
200,344,70570,1,0,0:0:0:0:
280,336,70781,2,0,P|336:328|400:336,1,120,10|0,0:0|0:0,0:0:0:0:
456,280,71415,1,2,0:0:0:0:
416,208,71626,6,0,L|424:96,1,90,6|10,0:0|0:0,0:0:0:0:
344,80,72260,2,0,L|336:192,1,90,6|10,0:0|0:0,0:0:0:0:
256,200,72894,2,0,L|260:132,2,60,6|10|6,0:0|0:0|0:0,0:0:0:0:
168,312,75006,5,14,0:0:0:0:
112,256,75218,2,0,P|136:176|112:112,1,143.999995605469,10|10,0:0|0:0,0:0:0:0:
152,48,75851,2,0,L|232:56,2,71.9999978027344,2|10|2,0:0|0:0|0:0,0:0:0:0:
296,112,76696,6,0,L|456:104,2,143.999995605469,2|2|2,0:0|0:0|0:0,0:0:0:0:
224,256,77964,1,2,0:0:0:0:
152,216,78175,2,0,P|176:136|152:72,1,143.999995605469,10|10,0:0|0:0,0:0:0:0:
88,48,78809,6,0,L|0:48,1,71.9999978027344,2|10,0:0|0:0,0:0:0:0:
0,128,79232,2,0,P|24:208|0:272,1,143.999995605469,2|2,0:0|0:0,0:0:0:0:
72,312,79865,1,10,0:0:0:0:
152,288,80077,6,0,P|232:264|296:288,1,143.999995605469,2|0,0:0|0:0,0:0:0:0:
360,320,80710,1,10,0:0:0:0:
424,272,80922,2,0,L|432:176,1,71.9999978027344,2|8,0:0|0:0,0:0:0:0:
440,120,81344,1,10,0:0:0:0:
360,96,81555,2,0,L|352:16,1,71.9999978027344,10|4,0:0|0:0,0:0:0:0:
272,32,81978,6,0,L|288:200,1,143.999995605469,10|10,0:0|0:0,0:0:0:0:
208,200,82612,2,0,L|200:280,2,71.9999978027344,2|8|2,0:0|0:0|0:0,0:0:0:0:
160,136,83246,1,10,0:0:0:0:
80,160,83457,6,0,P|104:240|80:304,1,143.999995605469,2|2,0:0|0:0,0:0:0:0:
160,336,84091,1,8,0:0:0:0:
232,296,84302,2,0,P|208:216|232:152,1,143.999995605469,2|10,0:0|0:0,0:0:0:0:
288,104,84936,1,0,0:0:0:0:
360,144,85147,5,4,0:0:0:0:
256,192,85358,12,8,87682,0:0:0:0:
168,192,87894,6,0,L|176:280,2,71.9999978027344,2|8|2,0:0|0:0|0:0,0:0:0:0:
160,112,88527,5,12,0:0:0:0:
