osu file format v14

[General]
AudioFilename: Noragami Aragoto OP.mp3
AudioLeadIn: 0
PreviewTime: 0
Countdown: 0
SampleSet: None
StackLeniency: 0.6
Mode: 0
LetterboxInBreaks: 0
WidescreenStoryboard: 1

[Editor]
Bookmarks: 8978
DistanceSpacing: 1
BeatDivisor: 4
GridSize: 8
TimelineZoom: 1.3

[Metadata]
Title:Kyouran Hey Kids!! [TV Size]
TitleUnicode:Kyouran Hey Kids!! [TV Size]
Artist:THE ORAL CIGARETTES
ArtistUnicode:THE ORAL CIGARETTES
Creator:Sebastianblunt
Version:Guest
Source:Noragami ARAGOTO
Tags:Noragami 2 Aragoto Opening Anime THE ORAL CIGARETTES Kyouran Hey Kids!!
BeatmapID:804413
BeatmapSetID:366107

[Difficulty]
HPDrainRate:3
CircleSize:3.5
OverallDifficulty:2
ApproachRate:2
SliderMultiplier:2
SliderTickRate:1

[Events]
//Background and Video events
0,0,"g.PNG",0,0
Video,0,"Noragami Aragoto OP.avi"
//Break Periods
2,1045,4355
//Storyboard Layer 0 (Background)
//Storyboard Layer 1 (Fail)
//Storyboard Layer 2 (Pass)
//Storyboard Layer 3 (Foreground)
//Storyboard Sound Samples

[TimingPoints]
0,422.535211267606,4,3,0,100,1,0
48169,422.535211267606,4,3,0,100,1,1
61690,422.535211267606,4,3,0,100,1,0
75211,422.535211267606,4,3,0,100,1,1

[Colours]
Combo1 : 128,128,128
Combo2 : 0,0,40
Combo3 : 0,222,240
Combo4 : 255,130,4
Combo5 : 255,0,128
Combo6 : 111,0,111

[HitObjects]
256,168,845,5,0,0:0:0:0:
272,192,5915,5,0,0:0:0:0:
248,312,7183,5,0,0:0:0:0:
112,328,7605,6,0,L|112:208,1,100
56,144,8028,2,0,L|56:200|56:200,2,50
96,48,8450,2,0,L|208:24|208:24,1,100
320,56,8873,2,0,L|320:0|320:0,2,50
408,96,9295,6,0,L|312:168|312:168,1,100
200,128,9718,2,0,L|200:72|200:72,2,50
192,224,10140,6,0,L|264:224,2,50
248,312,10563,2,0,L|184:312|192:312,2,50
248,312,10985,6,0,L|368:312|368:312,1,100
344,208,11408,2,0,L|400:208|400:208,2,50
264,152,11830,6,0,L|152:152|152:152,1,100
152,56,12253,2,0,L|208:56|208:56,2,50
80,128,12676,6,0,L|-40:128,1,100
8,224,13098,2,0,L|8:280|8:280,2,50
96,272,13521,6,0,L|216:272,1,100
192,176,13943,2,0,L|248:176|248:176,3,50
312,144,14366,6,2,L|424:80|424:80,1,100
472,144,14788,2,0,L|472:200|472:200,2,50
408,224,15211,6,0,L|288:224,1,100
308,224,15633,2,0,L|308:280|308:280,2,50
224,280,16056,6,0,L|88:280|88:280,1,100,0|0,3:0|3:0,3:0:0:0:
48,216,16478,2,0,L|48:128|48:128,2,50
112,144,16901,6,0,L|112:16|112:16,1,100,0|0,3:0|3:0,3:0:0:0:
208,8,17323,2,0,L|272:40|272:16,2,50,0|0|0,2:0|2:0|2:0,2:0:0:0:
256,112,17746,6,0,L|368:112|368:112,1,100,0|0,3:0|3:0,3:0:0:0:
464,112,18168,2,0,L|464:24|464:24,2,50
504,208,18591,6,0,L|368:208|368:208,1,100,0|0,2:0|2:0,2:0:0:0:
392,304,19014,2,0,L|328:304|328:304,2,50,0|0|0,2:0|2:0|2:0,2:0:0:0:
320,232,19436,6,0,L|320:104|320:104,1,100,0|0,2:0|2:0,2:0:0:0:
224,112,19859,2,0,L|224:40|224:40,2,50,0|0|0,2:0|2:0|2:0,2:0:0:0:
128,96,20281,6,0,L|128:224|128:224,1,100
232,192,20704,2,0,L|288:192|288:192,4,50
232,40,21443,6,0,L|160:40|160:40,1,50
16,152,21971,1,2,0:0:0:0:
120,328,22394,1,2,0:0:0:0:
216,328,22605,2,0,L|304:328|304:328,1,50
266,328,22816,2,0,B|288:216|264:176|224:144|256:136|256:136,2,200
352,144,24084,6,0,L|488:144|488:144,2,100
344,0,24823,2,0,L|272:0|272:0,1,50
104,56,25352,1,0,0:0:0:0:
8,232,25774,1,0,0:0:0:0:
80,296,25985,2,0,L|80:352|80:352,2,50
280,304,26619,6,0,B|440:320|464:304|464:304|480:296|480:296,1,200
376,128,27464,1,0,0:0:0:0:
312,88,27676,2,8,L|232:88|232:88,1,50
216,96,27887,2,0,B|146:88|82:120|66:200|66:200,2,200
280,288,29154,1,8,0:0:0:0:
160,288,29366,2,0,L|160:232|160:232,2,50
24,144,30000,5,0,0:0:0:0:
168,8,30422,1,0,0:0:0:0:
320,24,30845,2,0,L|456:24|456:24,2,100
264,160,31584,6,0,L|352:160|352:160,1,50
432,216,32112,1,0,0:0:0:0:
296,360,32535,1,0,0:0:0:0:
200,352,32746,2,0,L|200:280|200:280,2,50
232,152,33380,2,0,B|288:152|288:152|264:160,8,50
400,40,34647,6,0,L|400:144|400:144,1,100
464,216,35070,2,0,L|392:216|392:216,2,50
464,216,35492,6,0,L|464:344|464:344,1,100
368,328,35915,2,0,L|296:328|296:328,2,50
264,328,36338,6,0,L|264:184|264:184,1,100
280,128,36760,2,0,B|216:128|216:128|232:128,2,50
232,40,37183,2,0,L|296:40|296:40,2,50
136,56,37605,2,0,B|136:0|136:0|136:0,2,50
120,152,38028,6,0,L|16:152|16:152,1,100
16,240,38450,2,0,L|80:240|80:240,2,50
88,312,38873,6,0,L|208:312|208:312,1,100
280,272,39295,2,0,L|280:352|280:352,2,50
248,176,39718,6,0,L|312:176|312:176,8,50
168,112,40774,6,8,L|168:8|168:8,3,100
312,40,41725,2,0,L|312:112|312:112,1,50
440,248,42253,2,0,B|304:280|264:296|224:344|232:336|232:336,2,200
392,104,43415,5,0,0:0:0:0:
256,48,43732,1,0,0:0:0:0:
160,80,43943,2,0,B|40:88|72:264|72:264,2,200
144,232,45105,1,0,0:0:0:0:
56,352,45422,6,0,L|184:352|184:352,1,100
352,320,46056,1,0,0:0:0:0:
224,168,46478,2,0,B|280:168|280:168|296:176,4,50
112,216,48169,6,0,B|224:216|224:216|216:224,1,100
224,296,48591,2,0,B|224:360|224:360|224:344,2,50
320,328,49014,6,0,L|320:216|320:216,1,100
320,128,49436,2,0,L|320:56|320:56,2,50
320,128,49859,6,0,L|424:128|424:128,1,100
464,216,50281,2,0,L|464:296|464:296,2,50
368,248,50704,6,0,L|368:360|368:360,1,100
272,352,51126,2,0,L|192:352|192:352,2,50
272,240,51549,6,0,L|152:240|152:240,1,100
72,232,51971,2,0,L|72:152|72:152,2,50
64,328,52394,6,0,L|200:328|200:328,1,100
256,328,52816,2,0,L|336:328|336:328,2,50
248,232,53239,6,0,L|384:232|384:232,1,100
448,216,53661,2,0,L|448:120|448:120,2,50
440,112,54084,6,0,L|304:112|304:112,1,100
272,40,54507,2,0,B|200:40|200:40|224:40,3,50
222,40,54929,6,0,L|222:168|222:168,1,100,2|0,0:0|0:0,0:0:0:0:
120,136,55351,2,0,L|120:208|120:208,2,50
128,240,55774,6,0,L|232:240|232:240,1,100
232,344,56197,2,0,L|160:344|160:344,2,50
328,352,56619,6,0,L|328:232|328:232,1,100
328,152,57042,2,0,L|328:80|328:80,2,50
240,112,57464,2,0,L|240:184|240:184,2,50
136,96,57887,2,0,L|56:96|56:96,2,50
128,184,58309,6,0,L|128:304|128:304,1,100
216,336,58732,2,0,L|280:336|280:336,2,50
232,240,59154,6,0,L|360:240|360:240,1,100
416,184,59577,2,0,L|416:120|416:120,2,50
336,96,59999,6,0,L|224:96|224:96,1,100
200,8,60422,2,0,L|120:8|120:8,2,50
128,84,60845,6,0,L|128:204|128:204,1,100
216,240,61267,2,0,L|296:240|296:240,3,50
266,240,61690,2,4,L|266:112|266:112,4,100
416,376,62957,1,4,0:0:0:0:
464,288,63169,1,12,0:0:0:0:
464,192,63380,6,4,L|352:192|352:192,3,100
352,96,64225,1,12,0:0:0:0:
168,24,64647,1,4,0:0:0:0:
88,88,64859,1,12,0:0:0:0:
96,184,65070,6,4,L|96:344|96:344,2,150
184,232,65915,2,4,L|352:232|352:232,2,150
312,136,66760,6,4,B|416:104|424:72|424:72,2,150
296,40,67605,2,12,B|168:72|152:112|152:112,2,150,12|12|12,3:3|3:3|3:3,3:3:0:0:
392,64,68450,2,4,B|432:104|400:136|400:136,4,100
192,96,69718,6,4,B|160:152|168:184|168:184,6,100
360,208,71408,2,0,L|360:264|360:264,4,50
240,296,72147,1,0,0:0:0:0:
88,296,72464,2,8,L|88:136|88:136,1,150
232,176,73098,2,0,L|288:176|288:176,4,50
248,368,75211,6,0,B|248:248|248:248|232:248,1,100
152,296,75633,2,0,B|80:296|80:296|96:296|96:296,2,50
104,208,76056,6,0,L|-16:208|-16:208,1,100,2|0,0:0|0:0,0:0:0:0:
8,112,76478,2,0,L|8:40|8:40,2,50
88,48,76901,6,0,L|200:48|200:48,1,100,2|0,0:0|0:0,0:0:0:0:
216,144,77323,2,0,L|216:216|216:216,2,50
288,216,77746,6,0,L|288:328|288:328,1,100
288,316,78169,2,0,L|224:320|224:320,2,50
384,316,78591,6,0,L|384:180|384:180,1,100
384,120,79013,2,0,L|384:24|384:24,2,50
280,128,79436,6,0,L|160:128|160:128,1,100
176,32,79858,2,0,L|104:32|104:32,2,50
104,104,80281,6,0,L|104:208|104:208,1,100
152,280,80703,2,0,L|232:280|232:280,2,50
160,376,81126,6,0,L|296:376|296:376,1,100
352,336,81549,2,0,L|352:400|352:400,3,50
432,320,81971,6,0,L|432:192|432:192,1,100
432,144,82393,2,0,L|512:144|512:144,2,50
472,48,82816,6,0,L|344:48,1,100
272,48,83239,2,0,L|272:112|272:112,2,50
176,40,83661,6,0,L|176:168,1,100
72,136,84084,2,0,L|72:56|72:56,2,50
72,232,84506,6,0,L|192:232,1,100
248,168,84929,2,0,L|304:168|304:168,4,50
256,192,85774,12,0,87464,0:0:0:0:
200,320,87887,54,0,B|264:320|304:312|304:312|296:312|296:312,4,100
