osu file format v5

[General]
AudioFilename: i_allstars.mp3
AudioLeadIn: 0
PreviewTime: -1
Countdown: 1
SampleSet: Normal
StackLeniency: 0.7
Mode: 0
LetterboxInBreaks: 1
EditorBookmarks: 17462,31177

[Metadata]
Title:i
Artist:THE IDOLM@STER All Stars
Creator:k400358
Version:Hard
Source:
Tags:

[Difficulty]
HPDrainRate:6
CircleSize:4
OverallDifficulty:5
SliderMultiplier:1.4
SliderTickRate:2

[Events]
//Background and Video events
0,0,"00_allstars_bg.jpg"
//Break Periods
2,58376,71120
2,113662,125334
2,140662,152762
2,168090,181262
2,209662,221977
2,278233,290548
//Storyboard Layer 0 (Background)
//Storyboard Layer 1 (Failing)
//Storyboard Layer 2 (Passing)
//Storyboard Layer 3 (Foreground)
//Storyboard Sound Samples
//Background Colour Transformations
3,100,163,162,255

[TimingPoints]
320,428.571428571429,4,1,0,100,1

[Colours]
Combo1 : 0,128,255
Combo2 : 255,0,0
Combo3 : 255,198,0
Combo4 : 0,255,64

[HitObjects]
109,102,31177,1,0
200,103,31605,1,0
270,104,31820,1,0
396,104,32248,1,0
396,104,32462,1,0
397,264,32891,1,0
331,263,33105,1,0
203,263,33534,1,0
100,264,34177,1,0
72,65,34605,5,0
68,180,35034,1,0
72,244,35248,1,0
153,319,35677,1,0
282,321,36105,2,0,B|358:305|403:279|432:224|440:167|452:93|360:66,1,350,0|2
299,60,37605,1,2
218,58,38034,5,0
146,125,38462,1,0
98,164,38677,1,0
39,237,39105,1,0
39,237,39320,1,0
171,320,39748,1,0
171,320,39962,1,0
340,324,40391,1,0
410,256,41034,1,0
473,64,41462,5,0
378,65,41891,1,0
310,67,42105,1,0
184,67,42534,1,0
55,69,42962,2,0,B|52:185|74:238|107:276|144:296|194:318|257:321,1,350,0|6
238,320,44462,1,6
180,246,44891,5,0
107,166,45320,1,0
94,105,45534,1,0
192,66,45962,1,0
298,64,46605,1,0
338,117,46820,1,0
402,212,47248,1,0
414,264,47462,1,0
330,321,47891,1,0
204,327,48320,5,0
110,252,48748,1,0
85,163,49177,1,0
155,78,49605,1,0
230,56,50034,2,0,B|222:135|199:167|231:201|295:153|351:232|248:264|255:330|334:325|408:268|446:198,1,420
456,98,51748,5,0
362,96,52177,1,0
276,96,52605,1,0
199,96,53034,1,0
112,203,53462,1,0
112,203,53677,1,0
264,207,54105,1,0
264,207,54320,1,0
404,194,54748,1,0
445,310,55177,5,0
375,314,55605,1,0
307,316,56034,1,0
241,315,56462,1,0
164,316,56891,2,0,B|73:277|52:221|60:153|139:84|317:114,1,420
78,77,72320,5,0
78,77,72534,1,0
78,77,72748,1,0
82,215,73177,1,0
84,282,73391,1,0
204,283,74248,5,0
264,248,74462,1,0
326,204,74677,1,0
389,160,74891,1,0
439,103,75320,1,0
345,66,75748,5,0
263,55,76177,1,0
210,54,76391,1,0
80,153,76820,1,0
134,230,77248,5,0
197,283,77891,5,0
279,290,78320,5,0
346,244,78748,5,0
439,80,79177,6,0,B|285:78,1,140
261,148,80034,2,0,B|102:147,1,140
256,192,80891,12,6,85177
71,80,86034,5,0
160,85,86462,1,0
240,81,86891,1,0
330,80,87320,1,0
412,158,87748,5,0
296,160,88177,1,0
180,162,88605,1,0
64,163,89034,1,0
119,242,89462,5,0
247,241,89891,1,0
371,240,90320,1,0
488,239,90748,1,0
435,316,91177,5,0
317,314,91605,1,0
271,268,91820,1,0
255,191,92248,5,0
255,191,92462,1,0
255,191,92677,1,0
255,121,92891,5,0
328,68,93320,1,0
329,69,93534,2,2,B|368:69|404:73|431:101|429:159|412:202|389:232|313:258,1,280
290,194,94820,1,2
256,251,95248,1,2
219,194,95677,1,2
219,195,95891,1,2
91,71,96320,5,0
134,139,96748,1,0
190,195,97177,1,0
237,245,97391,1,0
384,270,97820,1,0
68,79,99105,5,0
70,79,99320,1,0
71,81,99534,1,0
71,80,99748,5,0
160,85,100176,1,0
240,81,100605,1,0
330,80,101034,1,0
412,158,101462,5,2
296,160,101891,1,2
180,162,102319,1,2
64,163,102748,1,2
119,242,103176,5,0
247,241,103605,1,0
371,240,104034,1,0
488,239,104462,1,0
435,316,104891,5,0
289,290,105319,1,2
287,289,105534,1,4
255,191,105962,5,0
255,191,106176,1,0
255,191,106391,1,0
255,121,106605,5,0
328,68,107034,1,0
329,69,107248,2,2,B|368:69|404:73|431:101|429:159|412:202|389:232|313:258,1,280
290,199,108534,1,2
259,253,108962,1,2
219,200,109391,1,2
218,200,109605,1,2
57,69,110034,5,0
119,134,110462,1,0
190,195,110891,1,0
237,245,111105,1,0
304,273,111534,2,0,B|369:271|439:242|465:206|451:131|446:98|435:80|405:57|321:62,1,350
284,72,112819,5,0
284,72,113034,1,0
284,72,113248,1,0
284,72,113462,1,4
256,191,126534,5,0
256,191,126748,1,0
256,191,126962,1,0
257,117,127177,5,0
260,36,127605,1,0
364,48,128034,1,0
422,118,128462,1,0
439,197,128891,5,0
388,280,129320,1,0
302,317,129748,1,0
216,326,130177,1,0
124,298,130605,5,0
76,228,131034,1,0
64,155,131462,1,0
93,67,131891,1,0
166,35,132320,6,0,B|211:20|240:12|273:28|276:64|280:81|279:109|282:136|276:193|271:279|294:308|326:317|356:312|380:295|396:282,1,420
448,188,134034,5,0
416,96,134463,1,0
353,30,134890,1,0
257,5,135320,1,0
148,33,135748,5,0
91,94,136177,1,0
70,172,136605,1,0
99,261,137034,1,0
155,312,137462,5,0
251,342,137891,1,0
365,316,138320,1,0
431,247,138748,1,0
462,178,139177,6,0,B|418:76|325:15|282:3|267:0|245:2|197:4|123:64,1,420,0|6
255,50,153962,5,0
255,50,154177,1,0
255,50,154391,1,0
327,56,154605,5,0
382,73,154820,1,0
407,131,155034,1,0
420,190,155462,5,0
420,190,155677,1,0
345,291,156534,5,0
310,232,156748,1,0
276,291,156962,1,0
236,233,157177,1,0
208,291,157605,1,0
117,190,158034,5,0
178,109,158462,1,0
235,82,158677,1,0
233,156,159105,1,0
240,216,159534,2,0,B|239:309|318:332|384:304|439:248|463:120,1,350
363,108,161462,5,0
312,56,161677,1,0
256,40,161891,1,0
254,136,162320,5,0
254,136,162534,1,0
132,311,163391,5,0
160,256,163605,1,0
192,308,163820,1,0
231,256,164034,1,0
260,308,164462,1,0
345,308,164891,5,0
419,251,165320,1,0
448,168,165748,1,0
432,74,166177,1,0
376,1,166605,2,0,B|40:288,1,420
49,40,182034,5,0
160,40,182462,1,0
212,40,182677,1,0
324,40,183105,1,0
324,40,183320,1,0
412,131,183748,5,0
265,128,184177,1,0
211,132,184391,1,0
116,133,184820,1,0
116,133,185034,1,0
54,258,185462,5,0
180,254,185891,1,0
248,254,186105,1,0
368,251,186534,1,0
452,142,186962,1,0
365,50,187605,1,0
303,96,187820,1,0
254,165,188248,5,0
254,165,188462,1,0
254,165,188677,1,0
180,172,188891,5,0
108,300,189320,1,0
184,304,189534,1,0
340,304,189962,1,0
405,237,190391,1,0
430,143,190820,1,0
404,72,191248,1,0
339,25,191677,1,0
339,25,191891,1,0
204,134,192320,5,0
308,134,192748,1,0
199,240,193177,1,0
304,240,193605,1,0
255,191,194034,1,0
69,79,195105,5,0
70,80,195320,1,0
71,80,195534,1,0
71,80,195748,5,0
160,85,196176,1,0
226,86,196391,1,0
367,82,196820,1,0
433,83,197034,1,0
412,158,197462,5,2
296,160,197891,1,2
224,162,198105,1,2
121,166,198534,1,2
53,164,198748,1,2
73,244,199176,5,0
213,244,199605,1,0
288,243,199820,1,0
384,240,200248,1,0
457,239,200462,1,0
435,316,200891,5,0
289,290,201319,1,2
287,289,201534,1,4
255,191,201962,5,0
255,191,202176,1,0
255,191,202391,1,0
255,121,202605,5,0
328,68,203034,1,0
329,69,203248,2,2,B|368:69|404:73|431:101|429:159|412:202|389:232|313:258,1,280
290,199,204534,1,2
259,253,204962,1,2
219,200,205391,1,2
218,200,205605,1,2
57,69,206034,5,0
119,134,206462,1,0
190,195,206891,1,0
237,245,207105,1,0
304,273,207534,2,0,B|369:271|439:242|465:206|451:131|446:98|435:80|405:57|321:62,1,350
284,72,208819,5,0
284,72,209034,1,0
284,72,209248,1,0
284,72,209462,1,4
118,61,223177,5,0
252,55,224034,1,0
440,55,224891,1,0
448,191,225748,1,0
456,344,226605,1,0
244,343,227462,1,0
46,345,228320,1,0
45,185,229177,1,4
146,58,230034,5,0
242,57,230462,1,0
305,56,230677,1,0
447,56,231105,1,0
447,56,231320,1,0
435,186,232605,5,0
364,276,233034,1,0
256,309,233462,1,0
128,256,233891,1,0
100,184,234105,1,0
192,68,234534,1,0
250,50,234748,1,0
390,86,236034,5,0
296,157,236462,5,0
216,218,236891,5,0
211,131,237320,5,0
213,58,237748,1,0
355,118,238391,1,0
404,179,238605,1,0
378,288,239034,1,0
276,303,239462,2,0,B|141:301|85:273|51:199|54:144,1,280
141,99,240748,5,0
219,56,241177,1,0
359,84,241820,1,0
291,164,242034,1,0
418,162,242462,1,0
288,270,242891,1,0
412,271,243320,1,0
352,211,243748,5,0
237,214,244177,1,0
169,218,244391,1,0
25,208,244820,1,0
25,208,245034,1,0
174,180,246320,5,0
241,238,246748,1,0
292,300,247177,2,0,B|392:274|415:255|437:217|444:184|445:132|434:83|388:20|356:4|288:-12|243:-18|216:-11|180:-1|155:4|112:24|94:48|84:68|74:97|60:125|52:168|56:204|96:262|125:294|164:322|192:324|237:320,1,980
71,80,250605,5,0
160,85,251033,1,0
240,81,251462,1,0
330,80,251891,1,0
412,158,252319,5,0
296,160,252748,1,0
180,162,253176,1,0
64,163,253605,1,0
119,242,254033,5,0
247,241,254462,1,0
371,240,254891,1,0
488,239,255319,1,0
435,316,255748,5,0
317,314,256176,1,0
271,268,256391,1,0
255,191,256819,5,0
255,191,257033,1,0
255,191,257248,1,0
255,121,257462,5,0
328,68,257891,1,0
329,69,258105,2,2,B|368:69|404:73|431:101|429:159|412:202|389:232|313:258,1,280
290,194,259391,1,2
256,251,259819,1,2
219,194,260248,1,2
219,195,260462,1,2
91,71,260891,5,0
134,139,261319,1,0
190,195,261748,1,0
237,245,261962,1,0
384,270,262391,1,0
68,79,263676,5,0
70,79,263891,1,0
71,81,264105,1,0
71,80,264319,5,0
160,85,264747,1,0
240,81,265176,1,0
330,80,265605,1,0
412,158,266033,5,2
296,160,266462,1,2
180,162,266890,1,2
64,163,267319,1,2
119,242,267747,5,0
247,241,268176,1,0
371,240,268605,1,0
488,239,269033,1,0
435,316,269462,5,0
289,290,269890,1,2
287,289,270105,1,4
255,191,270533,5,0
255,191,270747,1,0
255,191,270962,1,0
255,121,271176,5,0
328,68,271605,1,0
329,69,271819,2,2,B|368:69|404:73|431:101|429:159|412:202|389:232|313:258,1,280
290,199,273105,1,2
259,253,273533,1,2
219,200,273962,1,2
218,200,274176,1,2
57,69,274605,5,0
119,134,275033,1,0
190,195,275462,1,0
237,245,275676,1,0
304,273,276105,2,0,B|369:271|439:242|465:206|451:131|446:98|435:80|405:57|321:62,1,350
284,72,277390,5,0
284,72,277605,1,0
284,72,277819,1,0
284,72,278033,1,4
49,40,291748,5,0
160,40,292176,1,0
212,40,292391,1,0
324,40,292819,1,0
324,40,293034,1,0
412,131,293462,5,0
265,128,293891,1,0
211,132,294105,1,0
116,133,294534,1,0
116,133,294748,1,0
54,258,295176,5,0
180,254,295605,1,0
248,254,295819,1,0
368,251,296248,1,0
452,142,296676,1,0
365,50,297319,1,0
303,96,297534,1,0
254,165,297962,5,0
254,165,298176,1,0
254,165,298391,1,0
180,172,298605,5,0
108,300,299034,1,0
184,304,299248,1,0
340,304,299676,1,0
405,237,300105,1,0
430,143,300534,1,0
404,72,300962,1,0
339,25,301391,1,0
339,25,301605,1,0
204,134,302034,5,0
308,134,302462,1,0
199,240,302891,1,0
304,240,303319,1,0
255,191,303748,1,0
63,72,304819,5,0
70,75,305034,1,0
71,78,305248,1,0
71,80,305462,5,0
160,85,305890,1,0
226,86,306105,1,0
338,88,306534,1,0
411,85,306748,1,0
412,158,307176,5,2
296,160,307605,1,2
224,162,307819,1,2
121,166,308248,1,2
53,164,308462,1,2
73,244,308890,5,0
213,244,309319,1,0
288,243,309534,1,0
384,240,309962,1,0
457,239,310176,1,0
435,316,310605,5,0
289,290,311033,1,2
287,289,311248,1,4
256,182,311676,5,0
254,180,311890,1,0
257,179,312105,1,0
426,237,312320,6,0,B|378:297|344:332|309:335|276:342|215:346|151:324|103:292|71:236|62:207|52:160|58:133|76:90|98:54|127:24|156:4|182:-6|218:-12|254:-12|290:-9|339:2|390:53|403:73|394:125|375:168|357:203|354:225|342:244|316:250|286:253|269:244|288:237|288:237|263:113|274:175,1,1120
256,192,316177,12,6,319177
