osu file format v5

[General]
AudioFilename: MerryChristmas.mp3
AudioLeadIn: 0
PreviewTime: -1
Countdown: 0
SampleSet: Normal
StackLeniency: 0.7
Mode: 0
LetterboxInBreaks: 1
EditorBookmarks: 55126,129934,169671

[Metadata]
Title:Christmas for you!
Artist:THE IDOLM@STER
Creator:EVA-X
Version:Normal
Source:
Tags:

[Difficulty]
HPDrainRate:3
CircleSize:4
OverallDifficulty:5
SliderMultiplier:1.4
SliderTickRate:2

[Events]
//Background and Video events
0,0,"BG.jpg"
//Break Periods
2,117385,129222
//Storyboard Layer 0 (Background)
//Storyboard Layer 1 (Failing)
//Storyboard Layer 2 (Passing)
//Storyboard Layer 3 (Foreground)
//Storyboard Sound Samples
//Background Colour Transformations
3,100,0,0,0

[TimingPoints]
43680,374.976563964752,4,1,0,60,1
134049,750,4,1,0,60,1
135924,374.976563964752,4,1,0,60,1

[Colours]
Combo1 : 0,128,128
Combo2 : 255,0,0
Combo3 : 255,255,255

[HitObjects]
88,64,55116,6,0,B|128:8|176:48,2,70
224,96,55866,2,0,B|200:128|128:128,2,70,0|0|0
136,208,56616,2,0,B|176:224|224:184,2,70,0|0|0
272,168,57366,6,0,B|320:152|344:224,1,70
368,248,57741,1,0
312,288,57929,1,0
240,288,58116,1,0
168,280,58304,2,0,B|128:272|88:232,1,70
152,112,58866,1,0
224,112,59054,2,0,B|264:24,5,70
384,120,61116,5,0
384,192,61303,1,0
312,192,61491,1,0
168,192,61866,1,0
168,120,62054,1,0
240,120,62241,1,0
240,256,62616,1,0
240,328,62803,1,0
168,328,62991,1,0
152,184,63366,6,0,B|88:104|200:88,1,140,0|0
264,88,63928,1,0
264,160,64116,1,0
264,232,64303,1,0
192,240,64491,2,0,B|184:296|232:320,2,70
184,168,65053,2,0,B|176:80,5,70
408,88,67116,6,0,B|352:168,1,70
328,200,67491,1,0
240,88,67865,2,0,B|296:152,1,70
328,200,68240,1,0
240,312,68615,6,0,B|160:352,1,70,0|0
152,272,68990,2,0,B|232:232,1,70
176,176,69365,2,0,B|96:216,1,70
88,136,69740,1,0
216,72,70115,5,0
288,72,70303,2,0,B|384:72,1,70
232,136,70865,1,0
160,136,71053,2,0,B|80:136,1,70
160,256,71615,6,0,B|160:344,1,70,0|0
232,320,71990,2,0,B|320:320,1,70
368,320,72365,2,0,B|368:232,1,70
296,248,72740,1,0
280,104,73115,6,0,B|352:32,2,70
184,208,73865,2,0,B|128:264,2,70
200,64,74614,5,0
128,64,74802,1,0
128,136,74989,1,0
200,136,75178,2,0,B|200:232,1,70
128,208,75553,2,0,B|128:288,1,70
200,272,75927,2,0,B|200:360,1,70
128,344,76302,1,0
264,328,76677,6,0,B|312:328|328:264,1,70,0|0
368,240,77052,1,0
392,176,77240,2,0,B|356:139|304:152,1,70
264,176,77615,1,0
208,224,77802,1,0
64,232,78177,2,0,B|120:104|232:112,1,210
344,216,79115,5,0
344,288,79302,1,0
272,288,79490,1,0
272,216,79677,2,0,B|272:120,2,70
272,288,80240,1,0
136,256,80615,6,0,B|96:232|112:176,1,70,0|0
176,176,80990,2,0,B|184:120|128:104,1,70,0|0
88,136,81365,1,0
88,64,81552,1,0
152,40,81740,2,0,B|192:30|240:56,1,70
264,96,82115,1,0
264,96,82302,1,0
400,192,82677,6,0,B|448:304|328:280,1,140
280,288,83240,1,0
280,144,83615,1,0
136,144,83989,1,0
144,280,84364,1,0
144,280,84551,1,0
144,280,84739,2,0,B|232:280,1,70
208,208,85114,1,0
208,208,85302,1,0
344,192,85677,6,0,B|360:136|312:104,1,70,0|0
280,80,86052,1,0
280,80,86239,1,0
136,88,86614,1,0
136,160,86802,1,0
208,160,86989,2,0,B|288:160,1,70
280,232,87364,1,0
280,232,87552,1,0
280,232,87739,1,0
96,128,88302,6,0,B|88:184|152:200,1,70
168,136,88677,2,0,B|198:115|264:128,6,70
368,200,90364,6,0,B|400:240|368:272,1,70,0|0
304,264,90739,2,0,B|272:232|312:176,1,70
328,136,91114,1,0
192,80,91489,2,0,B|136:80|144:152,1,70,0|0
144,192,91864,1,0
144,264,92051,1,0
216,264,92239,1,0
336,296,93739,6,0,B|432:296,1,70
408,224,94114,1,0
336,224,94301,1,0
264,224,94489,1,0
336,224,94676,6,0,B|336:136,1,70
304,88,95051,2,0,B|240:160,1,70
184,136,95426,2,0,B|120:64,1,70
80,128,95801,1,0
200,232,96176,2,0,B|296:232,2,70
128,232,96739,2,8,B|48:232,2,70
200,232,97301,1,8
344,232,97676,6,0,B|424:232,2,70
344,160,98239,2,0,B|344:72,1,70
272,88,98614,1,0
200,88,98801,2,0,B|200:184,1,70
200,232,99176,2,0,B|104:232,2,70
272,232,99738,2,8,B|272:136,2,70
272,304,100301,1,8
128,312,100676,6,0,B|80:264|136:200,1,105
200,144,101238,2,0,B|248:200|192:264,1,105
320,248,101801,1,2
392,120,102176,1,2
320,248,102551,1,2
256,120,102926,1,2
320,248,103301,1,2
320,104,103676,6,0,B|320:192,1,70
320,248,104051,1,0
320,248,104238,1,0
176,248,104613,1,0
176,248,104801,1,0
176,104,105176,1,0
376,64,105738,6,0,B|384:56|384:56|392:64|392:64|400:56|400:56|408:64|408:64|416:56|416:56|424:64|424:64|432:56|432:56|440:64|440:64|448:56|448:56|456:64|456:64|464:56|464:56|472:64|472:64|480:56|480:56|488:64|488:64|496:56,1,140
472,136,106301,1,0
416,184,106488,1,0
376,240,106676,6,0,B|320:320,1,70
312,216,107051,2,0,B|240:184,1,70,0|0
272,272,107426,2,0,B|224:344,1,70,0|0
216,240,107801,2,0,B|128:192,1,70,0|0
176,296,108176,2,0,B|128:376,2,70,0|0|0
208,232,108738,2,8,B|256:144,2,70
176,296,109301,1,8
136,152,109675,6,0,B|192:104,1,70
240,152,110050,2,0,B|184:104,1,70,0|0
248,64,110425,2,0,B|176:120,1,70,0|0
136,64,110800,2,0,B|192:112,1,70,0|0
192,184,111175,2,0,B|192:272,2,70,0|0|0
192,112,111737,2,8,B|192:16,2,70
192,184,112300,1,8
288,288,112675,6,8,B|400:200,1,140,8|0
328,176,113238,2,8,B|216:264,1,140,8|0
192,200,113800,5,0
296,112,114175,1,0
400,200,114550,1,0
296,288,114925,1,0
192,200,115300,1,0
80,112,115675,1,0
192,24,116050,5,0
192,24,116237,1,0
296,112,116612,1,0
296,112,116800,1,0
192,200,117175,1,0
64,136,130112,6,0,B|152:136,2,70
208,136,130862,2,0,B|296:136,2,70,0|0|0
352,136,131612,2,0,B|440:136,2,70
352,272,132361,6,0,B|256:272,1,70
208,272,132736,1,0
208,200,132924,1,0
280,200,133111,1,0
208,200,133299,1,0
208,128,133486,2,0,B|312:128,1,70,0|0
344,128,133861,1,0
344,200,134049,2,0,B|344:296,3,70,0|0|0|0
264,144,136111,5,0
264,144,136298,1,0
192,144,136486,1,0
328,144,136861,1,0
328,144,137048,1,0
400,144,137236,1,0
264,144,137611,5,0
264,144,137798,1,0
192,144,137986,2,0,B|192:248,1,70
192,280,138361,1,0
328,280,138736,1,0
328,280,138923,1,0
328,208,139111,2,0,B|328:136,1,70
328,64,139486,1,0
184,64,139861,5,0
184,136,140048,2,0,B|184:224,5,70
184,272,141173,2,0,B|320:272,2,105
240,128,142111,5,0
240,128,142298,1,0
240,128,142486,1,0
368,168,142861,1,0
368,168,143048,1,0
368,168,143236,1,0
272,272,143611,6,0,B|224:296|184:240,1,70
160,200,143985,2,0,B|128:176|144:120,1,70
144,64,144360,2,0,B|176:24|216:32,1,70
272,32,144735,1,0
232,168,145110,5,0
192,224,145297,1,0
232,168,145485,1,0
360,232,145860,1,0
400,176,146047,1,0
360,232,146235,1,0
304,104,146610,6,0,B|256:128|280:184,1,70
224,216,146984,2,0,B|168:240|144:176,1,70
120,144,147359,2,0,B|120:96|184:80,1,70
224,88,147734,1,0
264,224,148110,5,0
264,224,148298,2,0,B|200:296,1,70
312,176,148860,1,0
312,176,149048,2,0,B|384:104,1,70
240,200,149610,6,0,B|160:144,2,70
296,248,150173,1,0
296,104,150548,1,0
408,184,150923,1,0
408,40,151298,1,0
296,104,151673,6,0,B|200:144,1,70
168,160,152047,1,0
208,216,152235,2,0,B|248:280,1,70
312,248,152610,1,0
368,208,152797,2,0,B|440:168,1,70
384,120,153172,1,0
168,96,154110,5,0
168,96,154297,1,0
168,96,154485,2,0,B|168:200,1,70
288,232,155047,2,0,B|376:232,1,70,0|0
360,160,155422,1,0
360,160,155610,1,0
360,160,155797,1,0
360,88,155985,2,0,B|208:88,1,140
224,88,156547,1,0
224,160,156735,1,0
80,320,157672,6,0,B|168:328|176:200,1,140
184,168,158235,2,0,B|296:200|208:120|328:128,1,140
304,128,158797,1,0
302,127,158985,2,0,B|376:184|328:248,1,140
328,248,159547,1,0
328,248,159735,2,0,B|280:288|240:254,3,70
168,0,161047,6,0,B|104:72,1,70
80,104,161422,2,0,B|144:168,1,70
264,136,161984,2,0,B|344:136,1,70
336,64,162359,1,0
336,136,162547,1,0
336,208,162734,1,0
256,192,163297,12,0,164797
312,136,165359,5,0
240,136,165547,1,0
168,136,165734,1,0
208,192,165922,1,0
280,192,166109,1,0
368,296,166484,2,0,B|264:296,1,70
232,296,166859,1,0
232,296,167047,1,0
232,296,167234,1,0
328,160,168171,5,0
400,160,168359,1,0
256,160,168734,1,0
112,160,169109,1,0
184,160,169296,1,0
264,320,170234,6,0,B|304:352|360:312,1,70
376,280,170609,1,0
400,216,170796,1,0
368,152,170984,1,0
296,136,171171,6,0,B|256:128|224:160,1,70
208,216,171546,1,0
232,280,171734,2,0,B|248:312|296:304,1,70
344,264,172109,1,0
392,208,172296,2,0,B|416:168|376:120,1,70
336,96,172671,2,0,B|296:64|240:88,2,70
288,144,173234,2,8,B|232:160|200:112,2,70
352,160,173796,1,8
216,200,174171,6,0,B|176:192|144:224,1,70
184,280,174546,1,0
112,280,174734,2,0,B|56:280|32:240,1,70
32,192,175109,1,0
64,128,175296,2,0,B|104:104|136:136,1,70
192,160,175671,2,0,B|240:184|232:216,2,70
176,248,176234,2,8,B|192:288|248:288,2,70,8|8|8
128,192,176796,1,8
280,152,177171,6,0,B|224:104|224:104|288:40,1,140
328,96,177733,2,0,B|376:144|376:144|312:216,1,140
272,240,178296,1,2
168,136,178671,1,2
272,40,179046,1,2
376,136,179421,1,2
272,232,179796,1,2
144,168,180171,6,0,B|208:240,1,70
136,264,180546,1,0
184,312,180733,1,0
288,216,181108,1,0
240,264,181296,1,0
376,264,181671,1,0
200,144,182233,6,0,B|240:176|296:136,1,70
320,104,182608,1,0
248,80,182796,2,0,B|208:56|160:80,1,70
128,120,183171,5,8
128,120,183358,1,8
128,120,183546,1,8
128,192,183733,1,8
128,192,183921,1,8
128,192,184108,1,8
128,264,184295,1,8
264,264,184670,5,8
264,264,184857,1,8
264,264,185045,1,8
264,192,185232,1,8
264,192,185420,1,8
264,192,185607,1,8
264,120,185794,1,8
400,112,186170,6,8,B|352:120|360:176,1,70
320,216,186545,2,0,B|376:192|352:152,1,70
296,136,186920,2,8,B|256:136|232:88,1,70
200,40,187295,1,8
128,160,187670,6,0,B|88:184|40:128,2,70
192,128,188233,2,8,B|232:112|280:160,2,70
192,200,188795,1,8
328,170,189170,6,0,B|248:136|280:184|337:240,1,140
336,168,189733,2,0,B|416:136|384:184|325:238,1,140
328,304,190295,1,2
152,304,190670,1,2
88,144,191045,1,2
232,48,191420,1,2
376,144,191795,1,2
232,144,192170,5,0
232,280,192545,1,0
232,280,192732,1,0
232,144,193107,1,0
232,144,193295,1,0
256,192,193670,12,0,194795
