osu file format v5

[General]
AudioFilename: Kumikyoku Collection - 01 - Agent Yoru o Iku.mp3
AudioLeadIn: 0
PreviewTime: 55914
Countdown: 1
SampleSet: Normal
EditorBookmarks: 15176,26192,33182,40087,55582,66613,89434,95919

[Metadata]
Title:Agent Yoru wo Iku
Artist:THE IDOLM@STER
Creator:kingcobra52
Version:Normal

[Difficulty]
HPDrainRate:4
CircleSize:5
OverallDifficulty:5
SliderMultiplier:1.2
SliderTickRate:2

[Events]
//Background and Video events
0,0,"idol.jpg"
1,0,"TEST.avi"
//Break Periods
2,76666,91603
//Storyboard Layer 0 (Background)
//Storyboard Layer 1 (Failing)
//Storyboard Layer 2 (Passing)
//Storyboard Layer 3 (Foreground)
//Storyboard Sound Samples
//Background Colour Transformations
3,100,163,162,255

[TimingPoints]
15498,336.842715061644,4,1,0,100

[HitObjects]
320,192,15498,2,0,B|392:192,2,60
272,160,16003,2,0,B|232:87|90:62|56:151|164:318|256:336,1,420
336,320,17519,1,0
400,240,17855,1,0
368,192,18024,1,0
400,160,18192,1,2
384,64,18529,2,0,B|312:64,2,60
304,112,19203,2,0,B|224:112,1,60
48,256,20213,2,2,B|96:304,2,60
48,160,20887,5,0
96,80,21224,1,0
240,64,21729,1,0
336,96,22066,1,0
416,144,22403,2,0,B|416:224,3,60
384,288,23245,1,0
336,272,23413,2,0,B|336:208|252:75|188:292|52:258|64:48,1,420
112,64,24761,2,2,B|188:24|286:30|352:96,1,240
368,112,25603,2,2,B|416:176,2,60
288,160,26276,6,0,B|368:272,1,120
384,304,26782,1,0
288,304,27119,2,0,B|208:304,2,60
240,224,27792,2,0,B|180:224,2,60
240,176,28298,1,0
288,96,28634,1,0
192,48,28971,5,0
112,96,29308,2,0,B|64:144,2,60
144,208,29982,1,0
80,272,30319,1,0
160,304,30655,2,0,B|171:340|217:356|287:352|329:339|384:304,1,240
256,192,31666,12,2,32845
80,48,33687,2,0,B|80:120,1,60
80,160,34024,1,0
80,256,34361,2,0,B|80:320|184:328|312:264,1,240
384,288,35371,1,2
416,256,35540,2,2,B|416:208|400:176|381:133|320:112,1,180
272,112,36213,2,0,B|192:112,5,60
272,240,37561,2,0,B|272:304,2,60
224,208,38066,1,0
176,208,38234,1,0
96,256,38571,2,2,B|96:320,2,60
256,192,39076,12,2,39750
176,64,40424,2,0,B|224:112,3,60
224,288,41771,2,0,B|160:224,3,60
352,96,43119,2,0,B|280:96,3,60
240,96,43792,2,2,B|183:75|118:115|103:205|83:249|156:309|272:288,1,360
320,224,45140,6,0,B|448:224,1,120
432,320,45813,2,0,B|360:320,3,60
208,144,47161,2,0,B|128:144,3,60
312,72,48508,6,0,B|312:208,2,120
160,48,49687,1,2
128,160,50192,1,2
256,192,50529,12,2,55582
176,144,56255,1,4
256,208,56592,1,4
400,176,57098,1,0
384,272,57434,2,0,B|304:272,2,60
368,320,57940,2,0,B|288:320,4,60
416,240,58950,2,0,B|464:176,1,60
416,48,59624,1,2
272,48,60129,1,0
176,48,60466,2,0,B|116:48,1,60
64,128,60971,1,0
80,224,61308,5,4
224,256,61813,1,4
368,240,62319,1,4
464,144,62824,2,0,B|416:96,2,60
464,192,63329,1,0
464,288,63666,1,0
368,320,64003,2,0,B|304:320|272:272|256:240,1,120
272,208,64508,2,0,B|260:87|128:96,1,180
64,208,65519,6,2,B|64:136,2,60
64,256,66024,1,2
144,304,66361,1,2
192,304,66529,1,2
336,304,67034,5,4
416,240,67371,1,4
416,96,67877,1,0
320,96,68213,2,0,B|320:176,6,60
272,96,69392,1,0
176,96,69729,2,0,B|120:152,1,60
240,240,70403,1,2
128,320,70908,1,0
64,240,71245,2,0,B|144:240,1,60
64,160,71750,1,0
96,64,72087,6,0,B|216:152,1,120
224,160,72592,2,0,B|384:280,1,180
432,144,73603,2,0,B|432:64,2,60
432,192,74108,1,2
432,288,74445,1,2
256,192,74782,12,2,76466
256,192,92803,12,2,95498
232,72,96340,5,4
136,112,96677,1,4
48,224,97182,2,0,B|108:284|160:208,1,120
176,192,97687,1,0
224,176,97856,1,0
272,192,98024,1,0
272,288,98361,1,0
368,272,98698,2,0,B|464:176,1,120
448,144,99203,1,0
336,48,99708,1,2
192,64,100213,2,0,B|108:19|80:112,1,120
64,128,100719,2,0,B|12:162|64:240,1,120
144,272,101392,6,0,B|184:340|272:320,1,120
272,288,101898,2,0,B|346:208|448:288,1,180
384,144,102908,2,0,B|336:80,6,60
400,192,104087,2,0,B|458:263|352:288,1,120
312,216,104592,2,2,B|241:274|120:184,1,180
96,64,105603,2,2,B|96:128,2,60
144,64,106108,1,2
240,64,106445,1,2
288,64,106613,1,2
368,192,107119,5,4
272,192,107456,1,4
128,192,107961,1,0
80,112,108466,2,0,B|76:54|192:80,2,120
80,208,109477,2,0,B|43:256|100:318,1,120
144,304,109982,2,0,B|203:364|315:311,1,180
432,240,110992,2,0,B|485:172|416:120,1,120
384,96,111498,1,0
288,64,111835,1,0
336,144,112171,6,0,B|284:142|188:60|68:154|211:176|127:265|32:240,1,360
160,320,113687,1,2
208,320,113856,1,2
256,320,114024,1,2
304,320,114192,1,2
400,320,114529,1,2
256,192,114866,12,4,121266
