osu file format v9

[General]
AudioFilename: 00.mp3
AudioLeadIn: 1500
PreviewTime: 44263
Countdown: 1
SampleSet: Normal
StackLeniency: 0.7
Mode: 0
LetterboxInBreaks: 1

[Editor]
DistanceSpacing: 0.8
BeatDivisor: 2
GridSize: 8

[Metadata]
Title:Wana(TV size)
Artist:THE BACK HORN
Creator:loli_milk
Version:Insane
Source:Gundam00
Tags:gundam 00

[Difficulty]
HPDrainRate:7
CircleSize:4
OverallDifficulty:7
ApproachRate:9
SliderMultiplier:2.2
SliderTickRate:0.5

[Events]
//Background and Video events
0,0,"00.jpg"
//Break Periods
//Storyboard Layer 0 (Background)
//Storyboard Layer 1 (Fail)
//Storyboard Layer 2 (Pass)
//Storyboard Layer 3 (Foreground)
//Storyboard Sound Samples
//Background Colour Transformations
3,100,0,0,0

[TimingPoints]
609,303.152789005659,4,1,0,50,1,0
10309,-200,4,1,0,50,0,0
49113,-100,4,1,0,50,0,1
70940,-133.333333333333,4,1,0,50,0,1
89735,-100,4,1,0,50,0,0

[Colours]
Combo1 : 128,0,128
Combo2 : 0,0,255
Combo3 : 0,64,64
Combo4 : 255,128,0

[HitObjects]
144,280,609,1,0
80,168,912,2,0,B|168:88|328:112,1,220
408,144,1518,1,0
448,272,1821,2,0,B|288:296|184:232,1,220
256,128,2427,1,0
80,208,2882,5,0
176,304,3185,1,0
240,304,3337,1,0
328,208,3640,2,0,B|448:208,2,110
320,80,4246,6,0,B|240:160,1,110
248,88,4549,2,0,B|168:168,1,110
176,96,4853,2,0,B|96:176,1,110
128,232,5156,5,0
128,296,5307,1,0
352,296,5611,1,0
352,232,5762,1,0
232,48,6065,6,0,B|360:16|448:88,1,220
312,112,6672,1,0
432,160,6975,1,0
336,248,7278,1,0
192,80,7581,6,0,B|80:128,1,110
304,176,8036,2,0,B|400:240,1,110
256,304,8490,6,0,B|24:304,2,220
256,240,9248,1,0
248,176,9400,1,0
224,112,9552,1,0
200,48,9703,1,0
264,72,9855,1,0
328,72,10006,1,0
392,56,10158,1,0
392,56,10309,6,0,B|424:112|424:112|400:184,1,110
456,256,10916,2,0,B|408:288|408:288|320:256,1,110
312,168,11522,2,0,B|272:128|272:128|192:144,1,110
256,240,12128,1,0
200,144,12431,6,0,B|152:112|152:112|184:64,1,110
144,232,13038,2,0,B|112:280|112:280|64:248,1,110
232,224,13644,2,0,B|280:256|280:256|248:304,1,110
256,304,14554,1,0
256,88,15160,6,0,B|256:208,1,110
144,192,15766,2,0,B|272:192,1,110
256,296,16372,2,0,B|256:176,1,110
368,192,16979,1,0
408,88,17282,5,0
312,32,17585,1,0
200,32,17888,1,0
104,80,18191,1,0
40,168,18495,1,0
56,280,18798,1,0
160,256,19101,1,0
216,256,19252,1,0
272,256,19404,1,0
328,256,19556,1,0
384,256,19707,1,0
472,192,20010,5,0
256,160,20617,1,0
448,48,21223,1,0
256,160,21829,1,0
40,192,22436,5,0
112,104,22739,2,0,B|144:168|144:168|192:176,1,110
224,72,23345,1,0
280,72,23497,1,0
336,72,23648,1,0
280,168,23951,2,0,B|400:168,2,110
168,168,24861,5,0
128,272,25164,1,0
240,288,25467,2,0,B|392:272|432:144,1,220
448,280,26376,1,0
376,72,26983,5,0
280,24,27286,1,0
280,136,27589,1,0
192,72,27892,1,0
96,24,28195,1,0
96,136,28499,1,0
192,192,28802,2,0,B|232:136,1,55
256,192,29105,2,0,B|296:248,1,55
320,192,29408,1,0
256,280,29711,5,0
56,192,30317,1,0
256,280,30924,1,0
456,192,31530,1,0
360,136,31833,6,0,B|360:16,1,110
256,152,32440,2,0,B|256:288,1,110
152,136,33046,2,0,B|152:16,1,110
256,336,33955,1,0
440,64,34562,5,0
112,64,35168,1,0
112,288,35774,1,0
440,288,36381,1,0
440,120,36684,5,0
320,8,36987,1,0
152,8,37290,1,0
32,120,37593,1,0
32,288,37896,1,0
168,192,38199,5,0
280,192,38503,1,0
336,192,38654,1,0
392,192,38806,1,0
448,192,38957,1,0
504,192,39109,1,0
456,288,39412,6,0,B|456:48,1,220
48,64,40625,2,0,B|48:304,1,220
144,88,41837,6,0,B|144:232,1,110
144,312,42444,1,0
232,248,42747,1,0
288,232,42898,1,0
248,192,43050,1,0
352,152,43353,5,0
352,40,43656,1,0
184,40,43959,1,0
184,96,44111,1,0
184,152,44263,1,0
440,96,44717,6,0,B|456:152,1,55
88,152,45324,2,0,B|48:224,1,55
424,272,45930,2,0,B|472:336,1,55
400,248,46385,5,0
400,80,46688,1,0
232,80,46991,1,0
232,248,47294,1,0
400,248,47597,1,0
192,168,47900,6,0,B|72:168,1,110
56,216,48352,1,0
56,216,48428,1,0
56,216,48507,1,0
112,216,48658,1,0
168,216,48810,1,0
224,216,48961,1,0
280,216,49113,6,0,B|352:288|352:288|480:288,1,220
408,168,49719,2,0,B|344:80|344:80|192:80,1,220
112,32,50326,2,0,B|72:144|72:144|104:256,1,220
216,304,50932,5,0
344,304,51235,1,0
216,304,51538,1,0
280,192,51841,2,0,B|296:136|296:136|280:80,2,110
160,144,52448,2,0,B|144:200|144:200|160:256,2,110
256,48,53054,5,0
320,56,53206,1,0
376,88,53357,1,0
408,144,53509,1,0
416,208,53660,1,0
288,176,53963,5,0
264,240,54115,1,0
208,272,54267,1,0
144,264,54418,1,0
184,136,54721,5,0
272,40,55024,1,0
360,136,55328,1,0
360,200,55479,1,0
256,280,55782,6,0,B|80:280,2,110
392,280,56389,1,0
296,192,56692,1,0
360,192,56843,1,0
432,80,57146,2,0,B|328:112|328:112|200:88,1,220
96,136,57753,5,0
136,184,57904,1,0
168,240,58056,1,0
184,304,58208,1,0
184,304,58359,1,0
232,264,58511,1,0
288,232,58662,1,0
352,216,58814,1,0
448,120,59117,5,0
328,72,59420,1,0
328,72,59572,2,0,B|224:128|224:128|96:128,1,220
240,192,60178,1,0
240,192,60330,1,0
112,216,60633,5,0
192,320,60936,1,0
320,320,61239,1,0
400,216,61542,1,0
368,160,61694,1,0
256,88,61997,2,0,B|136:88,2,110
256,216,62603,5,0
256,280,62755,1,0
256,152,63058,1,0
144,80,63361,5,0
144,144,63513,1,0
368,144,63816,5,0
368,80,63967,1,0
256,152,64271,5,0
208,192,64422,1,0
256,232,64574,1,0
304,192,64725,1,0
256,152,64877,1,0
128,192,65180,5,0
128,192,65332,1,0
384,192,65635,1,0
384,192,65786,1,0
192,96,66090,5,0
144,48,66241,1,0
320,288,66544,1,0
368,336,66695,1,0
352,128,66999,1,0
400,80,67150,1,0
160,256,67454,1,0
112,304,67605,1,0
256,48,67908,5,0
200,104,68060,1,0
144,160,68212,1,0
200,104,68363,1,0
256,160,68515,5,0
304,208,68666,1,0
88,192,68969,1,0
48,136,69121,1,0
208,248,69424,1,0
152,288,69576,1,0
368,232,69879,1,0
416,184,70030,1,0
256,32,70334,5,0
160,88,70485,1,0
96,192,70637,1,0
152,288,70788,1,0
256,328,70940,2,0,B|264:320|264:320|272:336|272:336|280:320|280:320|288:336|288:336|296:320|296:320|304:336|304:336|312:320|312:320|320:336|320:336|328:320|328:320|336:336|336:336|344:320|344:320|352:336|352:336|360:320|360:320|368:336|368:336|376:320|376:320|384:336|384:336|392:320|392:320|400:336|400:336|408:320|408:320|416:336|416:336|424:320|424:320,1,329.999990165234
256,56,72153,2,0,B|248:64|248:64|240:48|240:48|232:64|232:64|224:48|224:48|216:64|216:64|208:48|208:48|200:64|200:64|192:48|192:48|184:64|184:64|176:48|176:48|168:64|168:64|160:48|160:48|152:64|152:64|144:48|144:48|136:64|136:64|128:48|128:48|120:64|120:64|112:48|112:48|104:64|104:64|96:48|96:48|88:64|88:64,1,329.999990165234
80,256,73365,6,0,B|96:336|96:336|184:296,1,164.999995082617
168,200,73971,2,0,B|243:165|243:165|259:245,1,164.999995082617
320,168,74578,2,0,B|336:248|336:248|424:208,1,164.999995082617,0|0
416,112,75184,2,0,B|400:32|400:32|312:72,1,164.999995082617
256,328,75790,6,0,B|248:320|248:320|240:336|240:336|232:320|232:320|224:336|224:336|216:320|216:320|208:336|208:336|200:320|200:320|192:336|192:336|184:320|184:320|176:336|176:336|168:320|168:320|160:336|160:336|152:320|152:320|144:336|144:336|136:320|136:320|128:336|128:336|120:320|120:320|112:336|112:336|104:320|104:320|96:336|96:336|88:320|88:320,1,329.999990165234
256,56,77003,2,0,B|264:64|264:64|272:48|272:48|280:64|280:64|288:48|288:48|296:64|296:64|304:48|304:48|312:64|312:64|320:48|320:48|328:64|328:64|336:48|336:48|344:64|344:64|352:48|352:48|360:64|360:64|368:48|368:48|376:64|376:64|384:48|384:48|392:64|392:64|400:48|400:48|408:64|408:64|416:48|416:48|424:64|424:64,1,329.999990165234
256,192,78216,5,0
256,192,78822,1,0
256,192,79125,1,0
256,184,79731,1,0
256,168,80035,1,0
256,144,80338,1,0
256,112,80489,1,0
256,72,80641,1,0
120,192,81247,6,0,B|128:200|128:200|112:208|112:208|128:216|128:216|112:224|112:224|128:232|128:232|112:240|112:240|128:248|128:248|112:256|112:256|128:264|128:264|112:272|112:272|128:280|128:280|112:288|112:288|128:296|128:296|112:304|112:304|128:312|128:312|112:320|112:320|128:328|128:328|112:336|112:336|128:344|128:344|112:352|112:352|128:360|128:360,1,329.999990165234
392,192,82460,2,0,B|384:184|384:184|400:176|400:176|384:168|384:168|400:160|400:160|384:152|384:152|400:144|400:144|384:136|384:136|400:128|400:128|384:120|384:120|400:112|400:112|384:104|384:104|400:96|400:96|384:88|384:88|400:80|400:80|384:72|384:72|400:64|400:64|384:56|384:56|400:48|400:48|384:40|384:40|400:32|400:32|384:24|384:24,1,329.999990165234
256,192,83672,1,0
256,288,83976,1,0
256,288,84127,1,0
256,288,84279,2,0,B|80:288,2,164.999995082617
256,136,85340,6,0,B|256:32,2,82.4999975413085
256,288,86098,1,0
328,224,86401,2,0,B|424:136,2,82.4999975413085
256,288,87007,1,0
328,224,87310,1,0
184,224,87765,2,0,B|88:136,2,82.4999975413085
256,288,88371,1,0
256,192,88826,1,0
256,128,88978,1,0
