osu file format v5

[General]
AudioFilename: THA-Supremacy.mp3
AudioLeadIn: 0
PreviewTime: -1
Countdown: 1
SampleSet: Normal
StackLeniency: 0.7
Mode: 0
LetterboxInBreaks: 1
EditorDistanceSpacing: 0.800000011920929

[Metadata]
Title:Supremacy
Artist:THA
Creator:Pancakes1019
Version:Hard
Source:
Tags:

[Difficulty]
HPDrainRate:9
CircleSize:6
OverallDifficulty:7
SliderMultiplier:1.4
SliderTickRate:1

[Events]
//Background and Video events
0,0,"THA 2.jpg"
//Break Periods
2,88355,106899
2,110131,119082
2,145613,150909
//Storyboard Layer 0 (Background)
//Storyboard Layer 1 (Failing)
//Storyboard Layer 2 (Passing)
//Storyboard Layer 3 (Foreground)
//Storyboard Sound Samples
//Background Colour Transformations
3,100,163,162,255

[TimingPoints]
50845.4314720812,304.568527918782,4,1,0,100,1,0

[HitObjects]
96,192,19534,5,0
96,192,19994,1,0
96,192,20454,1,0
256,192,21374,1,0
256,192,21681,1,0
256,192,21988,1,0
384,192,22908,1,0
384,192,23828,1,0
256,96,29373,5,0
256,96,29830,1,0
256,96,30287,1,0
256,192,31200,1,0
256,192,31505,1,0
256,192,31809,1,0
256,288,32723,1,0
256,288,33637,1,0
128,96,39119,5,0
128,96,39576,1,0
128,96,40033,1,0
256,192,40946,1,0
256,192,41251,1,0
256,192,41556,1,0
384,288,42469,1,0
384,288,43383,1,0
96,32,48865,6,0,B|256:32,2,140
96,32,49627,1,0
96,32,49779,1,0
96,32,50693,1,0
160,32,51302,2,0,B|160:192,2,140
160,32,52063,1,0
160,32,52215,1,0
160,32,53129,1,0
224,32,53738,2,0,B|384:32|416:32,2,140
224,32,54500,1,0
224,32,54652,1,0
224,32,55566,1,0
256,96,58764,5,0
256,128,59221,1,0
256,160,59677,1,0
96,192,60591,1,0
128,192,60896,1,0
160,192,61200,1,0
288,192,62114,1,0
384,192,63028,1,0
256,192,67292,12,0,68510
64,32,68814,6,0,B|352:32,1,280
344,32,69576,1,0
344,32,69728,1,0
352,96,70033,2,0,B|64:96,1,280
72,96,70794,1,0
72,96,70946,1,0
64,160,71251,2,0,B|384:160,1,280
344,160,72012,1,0
344,160,72165,1,0
96,320,72469,6,0,B|192:192|64:64,1,280
68,64,73231,1,0
68,64,73383,1,0
416,320,73688,2,0,B|320:160|448:32,1,280
423,59,74449,1,0
423,59,74601,1,0
256,192,74906,2,0,B|192:224|192:128|320:128,1,280
418,126,75667,1,0
418,126,75820,1,0
256,192,76124,6,0,B|320:128|256:288|32:192|32:224,1,280
34,219,76886,1,0
34,219,77038,1,0
256,192,77342,12,0,77799
256,192,78256,6,0,B|128:64,2,140
256,192,79018,1,0
256,192,79170,1,0
256,192,79474,6,0,B|384:320,2,140
256,192,80236,1,0
256,192,80388,1,0
256,192,80693,6,0,B|128:320,2,140
256,192,81454,1,0
256,192,81606,1,0
256,192,81911,6,0,B|384:64,2,140
256,192,82672,1,0
256,192,82825,1,0
96,64,83129,6,0,B|384:64,1,280
376,64,83891,1,0
376,64,84043,1,0
384,288,84347,2,0,B|96:288,1,280
104,288,85109,1,0
104,288,85261,1,0
256,32,85566,6,0,B|256:320,1,280
256,312,86327,1,0
256,312,86479,1,0
256,192,86784,12,0,88155
256,192,107799,12,0,109931
96,64,119982,6,0,B|192:64,1,70
416,64,120896,2,0,B|320:64,1,70
256,320,124855,2,0,B|256:224,1,70
256,32,125769,2,0,B|256:128,1,70
96,320,129728,2,0,B|192:256,1,70
416,64,130642,2,0,B|320:128,1,70
256,192,134601,2,0,B|160:192,1,70
256,192,135515,2,0,B|352:192,1,70
128,96,139474,2,0,B|128:192,1,70
352,96,140388,2,0,B|352:192,1,70
128,320,144347,2,0,B|128:224,1,70
384,320,145261,2,0,B|384:224,1,70
256,192,151809,6,0,B|256:288|0:256,1,280
11,257,152571,1,0
11,257,152723,1,0
256,192,153028,6,0,B|256:288|512:256,1,280
500,257,153789,1,0
500,257,153941,1,0
256,192,154246,6,0,B|256:96|0:128,1,280
11,126,155007,1,0
11,126,155160,1,0
256,192,155464,6,0,B|256:96|512:128,1,280
500,126,156226,1,0
500,126,156378,1,0
0,192,156682,6,0,B|256:192|256:32,1,280
244,91,157444,1,0
244,91,157596,1,0
512,192,157901,6,0,B|256:192|256:32,1,280
267,91,158662,1,0
267,91,158814,1,0
256,64,159119,2,0,B|256:352,1,280
256,344,159880,1,0
256,344,160033,1,0
256,192,160337,12,0,160946
64,64,161556,6,0,B|64:160,1,70
64,134,161860,2,0,B|64:224,1,70
64,204,162012,6,0,B|64:288,1,70
128,288,162469,6,0,B|128:192,1,70
128,218,162622,6,0,B|128:128,1,70
128,148,162926,6,0,B|128:64,1,70
192,64,163383,6,0,B|192:160,1,70
448,64,163992,6,0,B|448:160,1,70
448,134,164297,6,0,B|448:256,1,70
448,204,164449,6,0,B|448:320,1,70
384,288,164906,6,0,B|384:192,1,70
384,218,165058,2,0,B|384:128,1,70
384,148,165363,6,0,B|384:64,1,70
320,64,165820,6,0,B|320:160,1,70
224,64,166429,6,0,B|224:160,1,70
224,134,166733,2,0,B|224:224,1,70
224,204,166886,2,0,B|224:320,1,70
288,288,167342,2,0,B|288:192,1,70
288,218,167495,2,0,B|288:128,1,70
288,148,167799,2,0,B|288:64,1,70
256,32,168256,2,0,B|256:128,1,70
256,192,168865,12,0,170084
