osu file format v13

[General]
AudioFilename: Mo Fa Cheng Bao.mp3
AudioLeadIn: 0
PreviewTime: 104647
Countdown: 1
SampleSet: None
StackLeniency: 0.7
Mode: 0
LetterboxInBreaks: 1
CountdownOffset: 2
WidescreenStoryboard: 0

[Editor]
Bookmarks: 23926,44956,64750,84544,157534,167431,199596,209493,239183
DistanceSpacing: 1
BeatDivisor: 4
GridSize: 8
TimelineZoom: 1.5

[Metadata]
Title:Mo Fa Cheng Bao
TitleUnicode:魔法城堡
Artist:TFBOYS
ArtistUnicode:TFBOYS
Creator:S h i o n
Version:Hard
Source:
Tags:
BeatmapID:433901
BeatmapSetID:180610

[Difficulty]
HPDrainRate:7
CircleSize:4
OverallDifficulty:7
ApproachRate:8
SliderMultiplier:1.5
SliderTickRate:1

[Events]
//Background and Video events
0,0,"BG.jpg",0,0
//Break Periods
2,126606,136503
//Storyboard Layer 0 (Background)
//Storyboard Layer 1 (Fail)
//Storyboard Layer 2 (Pass)
//Storyboard Layer 3 (Foreground)
//Storyboard Sound Samples
//Background Colour Transformations
3,100,163,162,255

[TimingPoints]
12792,618.556701030928,4,2,1,40,1,0
23926,-100,4,2,1,60,0,1
28255,-100,4,2,1,40,0,1
28410,-100,4,2,1,44,0,1
28565,-100,4,2,1,48,0,1
28719,-100,4,2,1,52,0,1
28874,-100,4,2,1,55,0,1
29183,-100,4,2,1,60,0,1
29802,-100,4,2,1,55,0,1
30111,-100,4,2,1,60,0,1
30420,-100,4,2,1,65,0,1
30730,-100,4,2,1,60,0,1
32585,-100,4,2,1,40,0,1
32895,-100,4,2,1,45,0,1
33204,-100,4,2,1,50,0,1
33513,-100,4,2,1,55,0,1
33822,-100,4,2,1,60,0,1
34750,-100,4,2,1,50,0,1
35214,-100,4,2,1,60,0,1
38152,-100,4,2,1,40,0,1
38307,-100,4,2,1,44,0,1
38462,-100,4,2,1,48,0,1
38616,-100,4,2,1,52,0,1
38771,-100,4,2,1,55,0,1
44956,-100,4,2,1,30,0,0
59802,-100,4,2,1,40,0,0
63359,-100,4,2,1,30,0,0
64750,-100,4,2,1,40,0,0
76967,-100,4,2,1,35,0,0
77585,-100,4,2,1,40,0,0
78204,-100,4,2,1,45,0,0
102946,-100,4,2,1,40,0,0
103565,-100,4,2,1,45,0,0
103874,-100,4,2,1,50,0,0
104956,-100,4,2,1,40,0,0
105111,-100,4,2,1,43,0,0
105266,-100,4,2,1,45,0,0
105420,-100,4,2,1,47,0,0
105575,-100,4,2,1,50,0,1
106503,-100,4,2,1,50,0,1
106967,-100,4,2,1,60,0,1
109750,-100,4,2,1,40,0,1
109905,-100,4,2,1,44,0,1
110060,-100,4,2,1,48,0,1
110214,-100,4,2,1,52,0,1
110369,-100,4,2,1,56,0,1
110523,-100,4,2,1,50,0,1
110833,-100,4,2,1,60,0,1
111451,-100,4,2,1,50,0,1
111761,-100,4,2,1,60,0,1
112070,-100,4,2,1,65,0,1
112379,-100,4,2,1,55,0,1
112998,-100,4,2,1,60,0,1
114235,-100,4,2,1,50,0,1
114544,-100,4,2,1,45,0,1
114853,-100,4,2,1,55,0,1
115472,-100,4,2,1,60,0,1
116400,-100,4,2,1,50,0,1
116864,-100,4,2,1,60,0,1
120420,-100,4,2,1,50,0,1
120730,-100,4,2,1,60,0,1
121348,-100,4,2,1,50,0,1
121657,-100,4,2,1,60,0,1
121967,-100,4,2,1,65,0,1
122276,-100,4,2,1,60,0,1
124132,-100,4,2,1,50,0,1
124441,-100,4,2,1,60,0,1
125369,-100,4,2,1,50,0,0
157534,-100,4,2,1,45,0,0
162173,-100,4,2,1,35,0,0
162482,-100,4,2,1,45,0,0
178565,-100,4,2,1,70,0,1
198359,-76.9230769230769,4,2,1,70,0,0
199286,-100,4,2,1,70,0,0
203926,-100,4,2,1,60,0,0
204235,-100,4,2,1,70,0,0
208255,-66.6666666666667,4,2,1,70,0,0
208719,-100,4,2,1,70,0,0
213204,-66.6666666666667,4,2,1,70,0,0
213668,-100,4,2,1,70,0,0
219389,-100,4,2,1,70,0,1
258977,-100,4,2,1,70,0,0
259596,-100,4,2,1,60,0,0
259905,-100,4,2,1,50,0,0
260214,-100,4,2,1,40,0,0
260523,-100,4,2,1,30,0,0
260833,-100,4,2,1,20,0,0
261142,-100,4,2,1,10,0,0
261451,-100,4,2,1,5,0,0

[Colours]
Combo1 : 255,206,157
Combo2 : 255,102,102
Combo3 : 117,117,255
Combo4 : 0,189,95

[HitObjects]
296,88,14029,5,2,0:0:0:0:
352,136,14338,1,0,0:0:0:0:
424,160,14647,2,0,P|440:152|472:104,1,75,0|2,0:0|0:0,0:0:0:0:
328,208,15266,2,0,P|328:279|376:344,1,150,0|0,0:0|0:0,0:0:0:0:
432,296,16193,5,0,0:0:0:0:
464,232,16503,2,0,P|468:187|456:160,1,75,2|0,0:0|0:0,0:0:0:0:
416,96,17121,2,0,P|392:56|400:16,1,75,0|2,0:0|0:0,0:0:0:0:
328,104,17740,1,2,0:0:0:0:
256,72,18049,6,0,L|232:72,4,18.75,0|0|0|0|0,0:0|0:0|0:0|0:0|0:0,0:0:0:0:
328,104,18668,5,0,0:0:0:0:
304,176,18977,2,0,P|272:176|232:144,1,75,0|2,0:0|0:0,0:0:0:0:
176,104,19596,2,0,P|168:72|184:24,1,75,0|0,0:0|0:0,0:0:0:0:
237,152,20214,5,2,0:0:0:0:
208,224,20523,1,0,0:0:0:0:
320,272,20833,1,0,0:0:0:0:
352,200,21142,1,0,0:0:0:0:
176,296,21451,6,0,P|104:312|24:296,2,150,2|2|8,0:0|0:0|0:0,0:0:0:0:
208,256,22843,6,0,L|224:192,1,37.5
264,208,23152,2,0,L|256:144,1,37.5,0|8,0:0|0:0,0:0:0:0:
248,144,23461,1,0,0:0:0:0:
256,112,23616,1,0,0:0:0:0:
264,88,23771,1,0,0:0:0:0:
232,80,23925,6,0,P|184:80|152:48,1,75,2|0,0:0|0:0,0:0:0:0:
88,128,24544,2,0,P|48:104|32:72,1,75,8|2,0:0|0:0,0:0:0:0:
112,168,25163,6,0,L|80:328,1,150,2|8,0:0|0:0,0:0:0:0:
160,328,26090,1,0,0:0:0:0:
256,328,26400,2,0,P|296:320|320:280,1,75,2|0,0:0|0:0,0:0:0:0:
368,184,27018,2,0,P|336:168|296:168,1,75,8|0,0:0|0:0,0:0:0:0:
192,224,27637,1,2,0:0:0:0:
152,144,27946,1,2,0:0:0:0:
248,248,28255,5,8,0:0:0:0:
264,264,28410,1,0,0:0:0:0:
280,280,28565,1,0,0:0:0:0:
296,296,28719,1,0,0:0:0:0:
328,320,28874,6,0,P|366:316|400:296,1,75,2|0,0:0|0:0,0:0:0:0:
472,208,29492,2,0,P|472:168|456:136,1,75,8|2,0:0|0:0,0:0:0:0:
376,200,30111,5,2,0:0:0:0:
240,192,30420,1,0,0:0:0:0:
256,56,30730,1,8,0:0:0:0:
352,48,31039,1,2,0:0:0:0:
248,96,31348,6,0,P|184:112|136:88,1,112.5,2|0,0:0|0:0,0:0:0:0:
168,208,31967,2,0,P|104:192|72:144,1,112.5,8|0,0:0|0:0,0:0:0:0:
72,112,32585,5,8,0:0:0:0:
144,48,32894,1,8,0:0:0:0:
184,136,33204,2,0,P|200:144|224:144,1,37.5,8|0,0:0|0:0,0:0:0:0:
248,120,33513,2,0,P|272:120|296:136,1,37.5
288,176,33822,6,0,P|296:216|280:256,1,75,2|0,0:0|0:0,0:0:0:0:
216,320,34441,2,0,P|176:320|136:288,1,75,8|2,0:0|0:0,0:0:0:0:
200,200,35059,2,0,P|272:224|312:304,1,150,2|8,0:0|0:0,0:0:0:0:
216,320,35987,5,0,0:0:0:0:
280,232,36297,2,0,P|320:224|352:232,1,75,2|0,0:0|0:0,0:0:0:0:
440,152,36915,2,0,P|464:184|496:200,1,75,8|0,0:0|0:0,0:0:0:0:
432,296,37534,1,2,0:0:0:0:
368,224,37843,1,2,0:0:0:0:
392,120,38152,5,8,0:0:0:0:
400,96,38307,1,0,0:0:0:0:
408,72,38461,1,0,0:0:0:0:
416,48,38616,1,0,0:0:0:0:
384,32,38771,6,0,P|342:27|312:8,1,75,2|0,0:0|0:0,0:0:0:0:
248,88,39389,2,0,P|209:71|185:45,1,75,8|2,0:0|0:0,0:0:0:0:
184,144,40008,5,2,0:0:0:0:
328,88,40317,1,0,0:0:0:0:
352,240,40626,1,8,0:0:0:0:
272,296,40936,1,2,0:0:0:0:
176,272,41245,6,0,P|112:272|64:304,1,112.5,2|0,0:0|0:0,0:0:0:0:
240,216,41864,2,0,P|192:192|128:192,1,112.5,8|0,0:0|0:0,0:0:0:0:
104,152,42482,5,2,0:0:0:0:
152,64,42791,1,2,0:0:0:0:
248,72,43101,2,0,P|272:80|280:104,1,37.5,10|0,0:0|0:0,0:0:0:0:
312,112,43410,5,0,0:0:0:0:
304,136,43565,1,0,0:0:0:0:
288,152,43719,1,2,0:0:0:0:
256,192,43874,12,0,44956,0:0:0:0:
288,112,45575,5,0,0:0:0:0:
320,176,45884,1,0,0:0:0:0:
248,176,46193,2,0,P|195:220|192:312,1,150,0|0,0:0|0:0,0:0:0:0:
240,344,47121,1,0,0:0:0:0:
328,296,47431,6,0,P|404:285|480:296,1,150,0|0,0:0|0:0,0:0:0:0:
456,104,48668,2,0,P|381:113|307:102,1,150,0|0,0:0|0:0,0:0:0:0:
256,160,49596,5,0,0:0:0:0:
184,168,49905,2,0,P|140:110|164:41,1,150,0|0,0:0|0:0,0:0:0:0:
216,96,50833,1,0,0:0:0:0:
184,168,51142,2,0,P|152:184|112:184,1,75,0|0,0:0|0:0,0:0:0:0:
48,224,51760,2,0,P|48:264|80:304,1,75
144,312,52379,5,0,0:0:0:0:
200,264,52688,1,0,0:0:0:0:
264,296,52998,2,0,P|296:304|336:296,1,75,0|0,0:0|0:0,0:0:0:0:
400,264,53616,1,0,0:0:0:0:
360,200,53925,1,0,0:0:0:0:
360,200,54080,1,0,0:0:0:0:
400,136,54389,1,0,0:0:0:0:
400,136,54544,1,0,0:0:0:0:
360,200,54853,6,0,P|288:200|240:144,1,150,0|0,0:0|0:0,0:0:0:0:
272,72,55781,1,0,0:0:0:0:
320,128,56090,2,0,P|360:176|344:280,1,150,0|0,0:0|0:0,0:0:0:0:
280,272,57018,1,0,0:0:0:0:
208,296,57327,5,2,0:0:0:0:
136,320,57946,1,2,0:0:0:0:
280,272,58565,2,0,P|352:280|424:240,1,150,2|0,0:0|0:0,0:0:0:0:
384,152,59492,5,0,0:0:0:0:
376,128,59647,2,0,L|360:80,1,37.5,0|2,0:0|0:0,0:0:0:0:
392,176,60420,5,0,0:0:0:0:
304,224,60730,1,8,0:0:0:0:
200,144,61039,2,0,P|160:184|168:248,1,112.5,8|8,0:0|0:0,0:0:0:0:
280,328,61967,5,8,0:0:0:0:
296,232,62276,2,0,P|285:192|296:152,1,75,2|0,0:0|0:0,0:0:0:0:
368,40,62895,2,0,P|363:72|336:112,1,75,2|0,0:0|0:0,0:0:0:0:
248,72,63513,5,8,0:0:0:0:
248,72,63668,2,0,P|208:72|176:48,1,75,8|0,0:0|0:0,0:0:0:0:
232,152,64132,2,0,P|264:168|320:160,1,75,8|0,0:0|0:0,0:0:0:0:
448,216,64750,6,0,P|464:160|432:120,1,112.5,2|0,0:0|0:0,0:0:0:0:
416,112,65369,2,0,P|376:112|336:96,1,75,8|0,0:0|0:0,0:0:0:0:
264,40,65987,2,0,P|304:64|312:136,1,112.5,2|0,0:0|0:0,0:0:0:0:
304,144,66606,2,0,P|303:181|320:216,1,75,8|0,0:0|0:0,0:0:0:0:
200,232,67224,2,0,P|117:235|64:200,2,150,2|8|2,0:0|0:0|0:0,0:0:0:0:
288,336,69080,5,8,0:0:0:0:
336,280,69389,1,0,0:0:0:0:
432,248,69699,2,0,P|472:192|440:120,1,150,2|8,0:0|0:0,0:0:0:0:
336,176,70626,1,0,0:0:0:0:
296,112,70936,1,2,0:0:0:0:
360,72,71245,1,0,0:0:0:0:
240,176,71554,6,0,P|224:208|232:256,1,75,8|0,0:0|0:0,0:0:0:0:
128,88,72173,2,0,P|160:104|208:96,1,75,2|0,0:0|0:0,0:0:0:0:
360,200,72791,5,8,0:0:0:0:
312,144,73101,1,0,0:0:0:0:
240,240,73410,2,0,P|224:264|232:312,1,75,2|0,0:0|0:0,0:0:0:0:
168,184,74029,2,0,P|136:200|112:232,1,75,8|8,0:0|0:0,0:0:0:0:
80,328,74647,6,0,L|56:176,1,150,2|8,0:0|0:0,0:0:0:0:
112,232,75575,1,0,0:0:0:0:
168,136,75884,2,0,P|248:128|296:80,1,150,2|8,0:0|0:0,0:0:0:0:
232,40,76812,1,0,0:0:0:0:
152,96,77121,6,0,P|152:128|184:168,1,75,2|0,0:0|0:0,0:0:0:0:
136,248,77740,2,0,P|160:272|200:280,1,75,10|0,0:0|0:0,0:0:0:0:
280,336,78358,2,0,P|352:312|392:248,1,150,2|8,0:0|0:0,0:0:0:0:
360,160,79286,5,0,0:0:0:0:
344,144,79441,1,0,0:0:0:0:
328,128,79596,2,0,P|296:112|240:128,1,75,2|0,0:0|0:0,0:0:0:0:
200,192,80214,2,0,P|232:208|272:200,1,75,8|0,0:0|0:0,0:0:0:0:
368,32,80833,2,0,P|328:64|312:128,1,112.5,2|0,0:0|0:0,0:0:0:0:
328,136,81451,2,0,P|344:168|328:216,1,75,8|0,0:0|0:0,0:0:0:0:
200,80,82070,5,2,0:0:0:0:
272,72,82379,1,0,0:0:0:0:
192,176,82688,2,0,P|182:213|200:264,1,75,8|0,0:0|0:0,0:0:0:0:
344,312,83307,2,0,P|306:276|272:272,1,75,0|0,0:0|0:0,0:0:0:0:
216,304,83926,6,0,L|120:320,1,75,8|0,0:0|0:0,0:0:0:0:
344,232,84544,1,10,0:0:0:0:
288,280,84853,1,2,0:0:0:0:
344,232,85781,5,2,0:0:0:0:
224,320,86090,2,8,P|187:323|153:308,1,75,2|0,0:0|0:0,0:0:0:0:
104,256,86709,1,0,0:0:0:0:
216,176,87018,5,10,0:0:0:0:
144,184,87327,1,2,0:0:0:0:
216,176,88255,5,2,0:0:0:0:
64,176,88565,2,0,P|48:128|56:104,1,75,2|0,0:0|0:0,0:0:0:0:
96,40,89183,1,0,0:0:0:0:
232,104,89492,5,10,0:0:0:0:
248,176,89802,1,2,0:0:0:0:
232,104,90730,5,2,0:0:0:0:
272,248,91039,2,0,P|248:280|208:296,1,75,0|0,0:0|0:0,0:0:0:0:
128,256,91657,2,0,P|88:184|112:120,1,150
160,72,92585,1,0,0:0:0:0:
216,120,92894,1,0,0:0:0:0:
320,128,93204,2,0,P|360:120|384:80,1,75,2|0,0:0|0:0,0:0:0:0:
376,64,93590,6,0,L|376:32,3,18.75,0|0|0|2,0:0|0:0|0:0|0:0,0:0:0:0:
368,160,94132,1,0,0:0:0:0:
320,248,94441,6,0,P|325:288|352:320,1,75,10|2,0:0|0:0,0:0:0:0:
416,328,95059,1,0,0:0:0:0:
272,136,95678,6,0,P|232:144|200:168,1,75,10|2,0:0|0:0,0:0:0:0:
208,240,96297,1,0,0:0:0:0:
280,224,96606,1,0,0:0:0:0:
368,144,96915,6,0,P|376:104|360:64,1,75,10|2,0:0|0:0,0:0:0:0:
296,40,97534,1,0,0:0:0:0:
176,192,98152,6,0,P|136:192|104:168,1,75,10|2,0:0|0:0,0:0:0:0:
88,96,98771,1,0,0:0:0:0:
144,48,99080,1,0,0:0:0:0:
208,88,99389,6,0,P|248:96|280:88,1,75,8|2,0:0|0:0,0:0:0:0:
336,168,100008,2,0,P|373:152|396:128,1,75,0|0,0:0|0:0,0:0:0:0:
336,56,100626,1,8,0:0:0:0:
248,136,100936,1,2,0:0:0:0:
296,248,101245,1,0,0:0:0:0:
368,272,101554,1,0,0:0:0:0:
312,320,101864,6,0,P|240:336|176:288,1,150,8|0,0:0|0:0,0:0:0:0:
176,224,102791,1,0,0:0:0:0:
248,200,103101,2,0,P|288:208|320:248,1,75,2|0,0:0|0:0,0:0:0:0:
176,224,103719,5,2,0:0:0:0:
88,152,104029,1,0,0:0:0:0:
128,48,104338,1,2,0:0:0:0:
240,56,104647,2,0,P|240:80|248:112,1,37.5
248,112,104956,5,0,0:0:0:0:
256,136,105111,1,0,0:0:0:0:
264,160,105266,1,0,0:0:0:0:
264,184,105420,1,0,0:0:0:0:
264,224,105575,6,0,P|296:224|336:192,1,75,2|0,0:0|0:0,0:0:0:0:
200,288,106193,2,0,P|232:312|280:312,1,75,8|2,0:0|0:0,0:0:0:0:
384,288,106812,2,0,L|408:128,1,150,2|8,0:0|0:0,0:0:0:0:
406,139,107740,5,0,0:0:0:0:
304,80,108049,1,2,0:0:0:0:
368,32,108358,1,0,0:0:0:0:
320,152,108668,2,0,P|304:192|312:232,1,75,8|0,0:0|0:0,0:0:0:0:
176,232,109286,2,0,P|192:264|232:288,1,75,2|2,0:0|0:0,0:0:0:0:
256,288,109750,5,0,0:0:0:0:
272,272,109905,1,8,0:0:0:0:
280,248,110059,1,0,0:0:0:0:
280,224,110214,1,0,0:0:0:0:
272,200,110369,1,0,0:0:0:0:
256,168,110523,6,0,P|248:128|264:88,1,75,2|0,0:0|0:0,0:0:0:0:
168,64,111142,2,0,P|189:29|228:10,1,75,8|2,0:0|0:0,0:0:0:0:
312,48,111760,1,2,0:0:0:0:
248,152,112070,1,0,0:0:0:0:
128,152,112379,1,8,0:0:0:0:
176,80,112688,1,2,0:0:0:0:
168,200,112998,6,0,P|121:211|48:184,1,112.5,2|0,0:0|0:0,0:0:0:0:
232,248,113616,2,0,P|201:284|125:305,1,112.5,8|0,0:0|0:0,0:0:0:0:
104,280,114235,5,8,0:0:0:0:
168,208,114544,1,0,0:0:0:0:
192,112,114853,2,0,P|168:88|160:64,1,37.5,8|0,0:0|0:0,0:0:0:0:
184,40,115163,2,0,P|200:24|232:8,1,37.5
216,64,115472,6,0,P|248:72|296:64,1,75,2|0,0:0|0:0,0:0:0:0:
304,168,116090,2,0,P|333:153|365:116,1,75,8|2,0:0|0:0,0:0:0:0:
224,160,116709,2,0,L|264:312,1,150,2|8,0:0|0:0,0:0:0:0:
360,328,117637,5,0,0:0:0:0:
368,208,117946,1,2,0:0:0:0:
262,305,118255,1,0,0:0:0:0:
256,208,118565,2,0,P|274:172|312:152,1,75,8|0,0:0|0:0,0:0:0:0:
320,32,119183,2,0,P|359:38|390:67,1,75,2|2,0:0|0:0,0:0:0:0:
392,80,119647,5,0,0:0:0:0:
384,104,119802,1,8,0:0:0:0:
368,120,119956,1,0,0:0:0:0:
344,128,120111,1,0,0:0:0:0:
320,128,120266,1,0,0:0:0:0:
288,120,120420,6,0,P|243:110|200:128,1,75,2|0,0:0|0:0,0:0:0:0:
200,216,121039,2,0,P|173:252|172:300,1,75,8|2,0:0|0:0,0:0:0:0:
240,344,121657,5,2,0:0:0:0:
304,248,121967,1,0,0:0:0:0:
264,136,122276,1,8,0:0:0:0:
176,176,122585,1,2,0:0:0:0:
256,280,122895,6,0,P|303:323|353:333,1,112.5,2|0,0:0|0:0,0:0:0:0:
304,144,123513,2,0,P|304:192|344:248,1,112.5,8|0,0:0|0:0,0:0:0:0:
376,264,124132,5,2,0:0:0:0:
440,192,124441,1,2,0:0:0:0:
400,104,124750,2,0,P|392:80|392:48,1,37.5,10|0,0:0|0:0,0:0:0:0:
408,32,125060,5,0,0:0:0:0:
432,24,125214,1,0,0:0:0:0:
456,32,125369,1,2,0:0:0:0:
304,216,137431,5,0,0:0:0:0:
264,280,137740,2,0,P|200:312|112:288,1,150,2|8,0:0|0:0,0:0:0:0:
64,248,138668,1,0,0:0:0:0:
88,176,138977,2,0,P|96:120|56:72,1,112.5,2|0,0:0|0:0,0:0:0:0:
88,72,139596,2,0,P|128:80|160:72,1,75,8|0,0:0|0:0,0:0:0:0:
200,152,140214,6,0,P|220:221|289:241,1,150,2|8,0:0|0:0,0:0:0:0:
192,72,141451,2,0,P|264:80|320:16,1,150,0|8,0:0|0:0,3:0:0:0:
376,104,142379,1,0,0:0:0:0:
424,160,142688,6,0,L|408:304,1,112.5,2|0,0:0|0:0,0:0:0:0:
392,280,143307,2,0,P|355:283|320:272,1,75,8|0,0:0|0:0,0:0:0:0:
232,224,143926,2,0,P|200:248|184:296,1,75,2|0,0:0|0:0,0:0:0:0:
240,336,144544,1,8,0:0:0:0:
320,264,144853,2,0,P|360:192|328:128,1,150,0|0,0:0|0:0,0:0:0:0:
216,144,145781,5,8,0:0:0:0:
232,224,146090,1,0,0:0:0:0:
320,264,146400,2,0,P|354:272|400:264,1,75,0|0,0:0|0:0,0:0:0:0:
408,168,147018,2,0,P|416:128|440:96,1,75,8|0,0:0|0:0,0:0:0:0:
496,64,147637,6,0,P|426:63|376:32,1,112.5,2|0,0:0|0:0,0:0:0:0:
368,40,148255,2,0,P|368:80|392:120,1,75,8|0,0:0|0:0,0:0:0:0:
304,160,148874,2,0,L|264:336,1,150,2|8,0:0|0:0,0:0:0:0:
344,336,149802,1,0,0:0:0:0:
240,272,150111,6,0,P|200:256|152:264,1,75,2|0,0:0|0:0,0:0:0:0:
104,184,150730,2,0,P|74:206|57:239,1,75,8|0,0:0|0:0,0:0:0:0:
152,216,151348,2,0,L|128:56,1,150,2|8,0:0|0:0,0:0:0:0:
224,64,152276,5,0,0:0:0:0:
224,64,152431,1,0,0:0:0:0:
224,64,152585,2,0,P|184:48|152:48,1,75,2|0,0:0|0:0,0:0:0:0:
168,144,153204,1,8,0:0:0:0:
200,232,153513,1,0,0:0:0:0:
296,224,153822,6,0,P|272:256|296:320,1,112.5,2|0,0:0|0:0,0:0:0:0:
304,344,154441,2,0,P|336:336|384:336,1,75,8|0,0:0|0:0,0:0:0:0:
424,248,155060,2,0,P|456:240|504:232,1,75,2|0,0:0|0:0,0:0:0:0:
424,248,155678,5,8,0:0:0:0:
392,160,155987,1,0,0:0:0:0:
296,48,156297,2,0,P|256:96|288:168,1,150,0|8,0:0|0:0,0:0:0:0:
328,232,157224,5,0,0:0:0:0:
240,272,157534,2,0,P|208:280|168:272,1,75,10|2,0:0|0:0,0:0:0:0:
64,160,158462,5,0,0:0:0:0:
152,112,158771,2,0,P|192:104|232:112,1,75,10|2,0:0|0:0,0:0:0:0:
336,272,159699,5,0,0:0:0:0:
248,232,160008,2,0,P|216:240|168:232,1,75,10|2,0:0|0:0,0:0:0:0:
120,128,160627,2,0,L|136:296,1,150,0|10,0:0|0:0,0:0:0:0:
224,312,161554,1,2,0:0:0:0:
224,312,162173,5,8,0:0:0:0:
320,296,162482,2,0,P|352:304|400:288,1,75,10|2,0:0|0:0,0:0:0:0:
472,176,163410,1,0,0:0:0:0:
392,120,163719,2,0,P|352:112|320:120,1,75,10|2,0:0|0:0,0:0:0:0:
272,232,164338,5,0,0:0:0:0:
200,160,164647,2,0,P|190:83|240:32,1,150
328,88,165575,1,0,0:0:0:0:
400,112,165884,1,0,0:0:0:0:
312,128,166194,2,0,P|270:129|232:112,1,75,2|0,0:0|0:0,0:0:0:0:
216,160,166580,6,0,L|184:160,3,18.75
256,224,167121,1,0,0:0:0:0:
344,264,167431,6,0,P|376:280|392:328,1,75,10|2,0:0|0:0,0:0:0:0:
296,328,168049,1,0,0:0:0:0:
128,224,168668,2,0,P|90:226|64:264,1,75,10|2,0:0|0:0,0:0:0:0:
136,320,169286,1,0,0:0:0:0:
216,264,169596,1,0,0:0:0:0:
200,168,169905,6,0,P|152:104|80:112,1,150,10|0,0:0|0:0,0:0:0:0:
256,128,171142,2,0,P|262:161|296:192,1,75,10|2,0:0|0:0,0:0:0:0:
352,248,171761,1,0,0:0:0:0:
416,208,172070,1,0,0:0:0:0:
416,304,172379,6,0,P|448:320|496:304,1,75,10|2,0:0|0:0,0:0:0:0:
432,136,172998,2,0,P|438:175|472:216,1,75
488,96,173616,5,10,0:0:0:0:
376,48,173926,1,2,0:0:0:0:
288,136,174235,1,0,0:0:0:0:
344,240,174544,1,2,0:0:0:0:
272,232,174853,6,0,P|259:162|264:80,1,150
336,160,175781,1,0,0:0:0:0:
264,272,176090,2,0,P|224:272|192:256,1,75,2|0,0:0|0:0,0:0:0:0:
336,240,176709,5,2,0:0:0:0:
248,328,177018,1,0,0:0:0:0:
144,272,177328,1,2,0:0:0:0:
168,152,177637,2,0,P|160:120|144:104,1,37.5
136,104,177946,5,8,0:0:0:0:
112,96,178101,1,0,0:0:0:0:
88,104,178255,1,0,0:0:0:0:
72,120,178410,1,0,0:0:0:0:
64,160,178565,6,0,P|64:192|96:232,1,75,2|0,0:0|0:0,0:0:0:0:
120,320,179183,2,0,P|168:312|200:280,1,75,8|2,0:0|0:0,0:0:0:0:
248,192,179802,2,0,L|232:24,1,150,2|8,0:0|0:0,0:0:0:0:
280,136,180730,5,0,0:0:0:0:
160,88,181039,1,2,0:0:0:0:
236,43,181348,1,0,0:0:0:0:
336,56,181657,2,0,P|360:80|368:128,1,75,8|0,0:0|0:0,0:0:0:0:
280,216,182276,2,0,P|279:169|296:136,1,75,2|2,0:0|0:0,0:0:0:0:
304,128,182740,5,0,0:0:0:0:
328,144,182895,1,8,0:0:0:0:
336,168,183049,1,0,0:0:0:0:
336,192,183204,1,0,0:0:0:0:
336,216,183359,1,0,0:0:0:0:
328,248,183513,6,0,P|320:288|336:336,1,75,2|0,0:0|0:0,0:0:0:0:
432,272,184132,2,8,P|464:288|528:288,1,75,8|2,0:0|0:0,0:0:0:0:
488,200,184750,1,2,0:0:0:0:
368,184,185060,1,0,0:0:0:0:
328,72,185369,1,8,0:0:0:0:
408,96,185678,1,2,0:0:0:0:
312,160,185987,6,0,P|303:210|328:272,1,112.5,2|0,0:0|0:0,0:0:0:0:
312,56,186606,2,0,P|256:80|232:136,1,112.5,8|0,0:0|0:0,0:0:0:0:
240,168,187224,1,0,0:0:0:0:
288,256,187534,1,0,0:0:0:0:
192,288,187843,6,0,L|136:288,1,37.5,8|0,0:0|0:0,0:0:0:0:
136,240,188152,2,0,L|88:248,1,37.5
56,216,188462,6,0,P|49:173|56:136,1,75,2|0,0:0|0:0,0:0:0:0:
184,88,189080,2,0,P|168:128|128:152,1,75,8|2,0:0|0:0,0:0:0:0:
120,56,189699,2,0,L|280:64,1,150,2|8,0:0|0:0,0:0:0:0:
200,136,190627,5,0,0:0:0:0:
320,128,190936,1,2,0:0:0:0:
269,63,191245,1,0,0:0:0:0:
200,176,191554,2,0,P|216:208|256:232,1,75,8|0,0:0|0:0,0:0:0:0:
320,320,192173,2,0,P|361:321|400:296,1,75,2|2,0:0|0:0,0:0:0:0:
400,288,192637,5,0,0:0:0:0:
416,272,192792,1,8,0:0:0:0:
424,248,192946,1,0,0:0:0:0:
424,224,193101,1,0,0:0:0:0:
416,200,193255,1,0,0:0:0:0:
400,168,193410,6,0,P|400:120|448:88,1,75,2|0,0:0|0:0,0:0:0:0:
312,72,194029,2,0,P|326:38|360:16,1,75,8|2,0:0|0:0,0:0:0:0:
360,136,194647,5,2,0:0:0:0:
256,200,194956,1,0,0:0:0:0:
280,320,195266,1,8,0:0:0:0:
328,248,195575,1,2,0:0:0:0:
208,256,195884,6,0,P|148:251|88:272,1,112.5,2|0,0:0|0:0,0:0:0:0:
56,160,196503,2,8,P|111:165|165:149,1,112.5,8|0,0:0|0:0,0:0:0:0:
232,112,197121,6,0,P|232:72|264:24,1,75,2|0,0:0|0:0,0:0:0:0:
280,56,197585,1,0,0:0:0:0:
264,88,197740,1,10,0:0:0:0:
280,120,197895,1,0,0:0:0:0:
312,144,198049,1,0,0:0:0:0:
352,144,198204,1,0,0:0:0:0:
368,96,198359,6,0,P|339:165|447:206,1,194.999991073609,2|0,0:0|0:0,0:0:0:0:
504,232,199286,6,0,L|488:336,1,75,0|2,0:0|0:0,0:0:0:0:
472,336,199750,1,0,0:0:0:0:
440,312,199905,1,0,0:0:0:0:
408,296,200060,1,0,0:0:0:0:
368,304,200214,6,0,P|330:283|280:288,1,75,2|0,0:0|0:0,0:0:0:0:
208,192,200833,2,0,L|224:248,1,37.5,2|0,0:0|0:0,0:0:0:0:
256,160,201142,2,0,P|288:176|336:168,1,75,0|2,0:0|0:0,0:0:0:0:
328,56,201761,1,0,0:0:0:0:
224,64,202070,6,0,P|203:84|192:112,1,37.5,2|0,0:0|0:0,0:0:0:0:
176,120,202379,2,0,P|156:124|128:112,1,37.5,0|0,0:0|0:0,0:0:0:0:
104,112,202688,1,2,0:0:0:0:
120,144,202843,1,0,0:0:0:0:
120,184,202998,1,0,0:0:0:0:
96,216,203152,1,2,0:0:0:0:
64,240,203307,6,0,P|62:265|72:288,1,37.5,0|0,0:0|0:0,0:0:0:0:
168,352,203616,2,0,P|159:303|136:272,1,75,2|8,0:0|0:0,0:0:0:0:
184,224,204080,5,0,0:0:0:0:
224,184,204235,2,0,P|267:181|304:152,1,75,8|2,0:0|0:0,0:0:0:0:
312,120,204699,5,0,0:0:0:0:
304,88,204853,1,0,0:0:0:0:
280,56,205008,1,0,0:0:0:0:
312,64,205163,2,0,P|363:68|400:48,1,75,2|0,0:0|0:0,0:0:0:0:
264,176,205781,5,2,0:0:0:0:
240,208,205936,1,0,0:0:0:0:
208,224,206090,1,0,0:0:0:0:
224,256,206245,1,0,0:0:0:0:
256,280,206400,2,0,P|272:310|272:352,1,75,2|0,0:0|0:0,0:0:0:0:
192,328,206864,1,0,0:0:0:0:
144,272,207018,6,0,P|120:280|104:304,1,37.5,2|0,0:0|0:0,0:0:0:0:
64,264,207328,2,0,P|56:240|88:232,1,37.5
88,200,207637,1,2,0:0:0:0:
104,168,207792,1,0,0:0:0:0:
96,128,207946,1,0,0:0:0:0:
80,96,208101,1,2,0:0:0:0:
48,72,208255,6,0,L|176:48,1,112.500004291535,0|0,0:0|0:0,0:0:0:0:
232,184,208874,5,8,0:0:0:0:
304,200,209029,1,0,0:0:0:0:
376,184,209183,1,0,0:0:0:0:
416,120,209338,1,8,0:0:0:0:
400,88,209493,6,0,L|424:32,1,37.5,2|0,0:0|0:0,0:0:0:0:
328,72,209802,2,0,L|313:106,1,37.5
200,152,210111,6,0,P|232:176|280:168,1,75,2|0,0:0|0:0,0:0:0:0:
352,232,210730,2,0,L|344:288,1,37.5,2|0,0:0|0:0,0:0:0:0:
256,304,211039,2,0,L|261:266,1,37.5
392,352,211348,6,0,P|344:360|312:344,1,75,2|0,0:0|0:0,0:0:0:0:
304,304,211812,1,0,0:0:0:0:
296,256,211967,2,0,P|272:240|256:240,1,37.5,2|0,0:0|0:0,0:0:0:0:
224,208,212276,2,0,P|200:216|184:240,1,37.5
200,264,212585,5,2,0:0:0:0:
232,248,212740,1,0,0:0:0:0:
248,216,212895,1,0,0:0:0:0:
248,176,213049,1,2,0:0:0:0:
232,136,213204,6,0,L|112:120,1,112.500004291535,2|0,0:0|0:0,0:0:0:0:
72,256,213822,5,8,0:0:0:0:
144,224,213977,1,0,0:0:0:0:
216,232,214132,1,0,0:0:0:0:
272,280,214286,1,0,0:0:0:0:
296,312,214441,6,0,L|312:360,1,37.5,2|0,0:0|0:0,0:0:0:0:
384,304,214750,2,0,L|372:268,1,37.5,0|0,0:0|0:0,0:0:0:0:
320,160,215060,2,0,P|360:160|400:192,1,75,2|0,0:0|0:0,0:0:0:0:
248,112,215678,6,0,L|208:136,1,37.5,2|0,0:0|0:0,0:0:0:0:
232,224,215987,2,0,L|264:204,1,37.5
136,208,216297,2,0,P|136:248|160:288,1,75,2|0,0:0|0:0,0:0:0:0:
184,296,216761,5,0,0:0:0:0:
224,288,216915,1,0,0:0:0:0:
264,296,217070,1,2,0:0:0:0:
296,312,217224,1,0,0:0:0:0:
320,344,217379,1,0,0:0:0:0:
304,272,217534,6,0,P|295:231|312:184,1,75,2|0,0:0|0:0,0:0:0:0:
464,136,218152,2,0,P|432:160|392:160,1,75,0|0,0:0|0:0,0:0:0:0:
264,48,218771,1,8,0:0:0:0:
288,56,218926,1,0,0:0:0:0:
304,72,219080,1,0,0:0:0:0:
312,96,219235,1,0,0:0:0:0:
320,120,219389,6,0,P|304:160|312:200,1,75,2|0,0:0|0:0,0:0:0:0:
232,256,220008,2,0,P|258:289|297:302,1,75,8|2,0:0|0:0,0:0:0:0:
216,200,220627,2,0,L|192:32,1,150,2|8,0:0|0:0,0:0:0:0:
128,120,221554,5,0,0:0:0:0:
272,88,221864,1,2,0:0:0:0:
194,51,222173,1,0,0:0:0:0:
80,88,222482,2,0,P|67:126|72:176,1,75,8|0,0:0|0:0,0:0:0:0:
56,296,223101,2,0,P|92:290|128:256,1,75,2|2,0:0|0:0,0:0:0:0:
128,248,223565,5,0,0:0:0:0:
136,224,223719,1,8,0:0:0:0:
144,208,223874,1,0,0:0:0:0:
160,192,224029,1,0,0:0:0:0:
176,184,224183,1,0,0:0:0:0:
216,176,224338,6,0,P|253:188|288:224,1,75,2|0,0:0|0:0,0:0:0:0:
256,336,224956,2,0,P|232:312|216:256,1,75,8|2,0:0|0:0,0:0:0:0:
312,280,225575,1,2,0:0:0:0:
424,248,225884,1,0,0:0:0:0:
440,128,226194,1,8,0:0:0:0:
376,176,226503,1,2,0:0:0:0:
256,160,226812,6,0,P|224:112|248:48,1,112.5,2|0,0:0|0:0,0:0:0:0:
344,112,227431,2,0,P|376:160|352:224,1,112.5,8|0,0:0|0:0,0:0:0:0:
328,232,228049,5,0,0:0:0:0:
232,224,228359,1,0,0:0:0:0:
152,280,228668,2,0,L|115:286,1,37.5,8|0,0:0|0:0,0:0:0:0:
120,232,228977,2,0,L|72:240,1,37.5
48,184,229286,6,0,P|40:144|50:110,1,75,2|0,0:0|0:0,0:0:0:0:
152,152,229905,2,0,P|168:176|168:224,1,75,8|2,0:0|0:0,0:0:0:0:
184,344,230523,2,0,L|256:208,1,150,2|8,0:0|0:0,0:0:0:0:
352,232,231451,5,0,0:0:0:0:
256,128,231761,1,2,0:0:0:0:
254,211,232070,1,0,0:0:0:0:
304,328,232379,2,0,P|344:336|384:320,1,75,8|0,0:0|0:0,0:0:0:0:
456,192,232998,2,0,P|424:216|408:272,1,75,2|2,0:0|0:0,0:0:0:0:
400,264,233462,5,0,0:0:0:0:
384,280,233616,1,8,0:0:0:0:
360,280,233771,1,0,0:0:0:0:
336,272,233926,1,0,0:0:0:0:
320,256,234080,1,0,0:0:0:0:
304,224,234235,6,0,P|304:184|328:152,1,75,2|0,0:0|0:0,0:0:0:0:
248,24,234853,2,0,P|288:40|312:80,1,75,8|2,0:0|0:0,0:0:0:0:
400,80,235472,1,2,0:0:0:0:
296,160,235781,1,0,0:0:0:0:
320,288,236090,1,8,0:0:0:0:
368,216,236400,1,2,0:0:0:0:
224,200,236709,6,0,P|168:208|128:248,1,112.5,2|0,0:0|0:0,0:0:0:0:
256,352,237328,2,0,P|283:300|280:232,1,112.5,8|0,0:0|0:0,0:0:0:0:
144,160,237946,2,0,P|176:176|224:168,1,75
248,168,238410,5,0,0:0:0:0:
304,152,238565,5,8,0:0:0:0:
368,112,238719,5,0,0:0:0:0:
384,24,238874,5,0,0:0:0:0:
320,112,239029,5,0,0:0:0:0:
344,224,239183,6,0,P|352:256|336:304,1,75,2|0,0:0|0:0,0:0:0:0:
152,304,239802,2,0,P|168:320|216:336,1,75,8|2,0:0|0:0,0:0:0:0:
407,261,240420,2,0,P|335:221|255:237,1,150,2|8,0:0|0:0,0:0:0:0:
352,136,241348,5,0,0:0:0:0:
240,96,241657,1,2,0:0:0:0:
270,229,241967,1,0,0:0:0:0:
320,120,242276,2,0,P|320:72|296:40,1,75,8|0,0:0|0:0,0:0:0:0:
136,152,242895,2,0,P|170:173|224:168,1,75,2|2,0:0|0:0,0:0:0:0:
224,168,243359,5,0,0:0:0:0:
240,184,243513,1,8,0:0:0:0:
248,200,243668,1,0,0:0:0:0:
248,224,243822,1,0,0:0:0:0:
240,248,243977,1,0,0:0:0:0:
216,280,244132,6,0,P|224:320|256:344,1,75,2|0,0:0|0:0,0:0:0:0:
400,248,244750,2,0,P|374:271|320:280,1,75,8|2,0:0|0:0,0:0:0:0:
360,160,245369,1,2,0:0:0:0:
216,192,245678,1,0,0:0:0:0:
160,56,245987,1,8,0:0:0:0:
256,80,246297,1,2,0:0:0:0:
296,216,246606,6,0,L|280:344,1,112.5,2|0,0:0|0:0,0:0:0:0:
400,328,247224,2,0,L|384:216,1,112.5,8|0,0:0|0:0,0:0:0:0:
296,160,247843,2,0,P|256:160|224:144,1,75
200,136,248307,5,0,0:0:0:0:
192,88,248462,5,8,0:0:0:0:
240,136,248616,5,0,0:0:0:0:
264,216,248771,5,0,0:0:0:0:
248,312,248926,5,0,0:0:0:0:
168,312,249080,6,0,P|152:280|160:232,1,75,2|0,0:0|0:0,0:0:0:0:
32,184,249699,2,0,P|56:152|104:144,1,75,8|2,0:0|0:0,0:0:0:0:
272,208,250317,2,0,P|216:240|136:224,1,150,2|8,0:0|0:0,0:0:0:0:
192,120,251245,5,0,0:0:0:0:
312,136,251554,1,2,0:0:0:0:
272,208,251864,1,0,0:0:0:0:
320,304,252173,2,0,P|360:288|384:248,1,75,8|0,0:0|0:0,0:0:0:0:
200,256,252792,2,0,P|192:296|216:336,1,75,2|2,0:0|0:0,0:0:0:0:
224,336,253255,5,0,0:0:0:0:
248,328,253410,1,8,0:0:0:0:
264,312,253565,1,0,0:0:0:0:
272,288,253719,1,0,0:0:0:0:
272,264,253874,1,0,0:0:0:0:
264,224,254029,6,0,P|271:176|296:144,1,75,2|0,0:0|0:0,0:0:0:0:
392,48,254647,2,0,P|376:83|336:112,1,75,8|2,0:0|0:0,0:0:0:0:
248,40,255266,1,2,0:0:0:0:
136,112,255575,1,0,0:0:0:0:
168,240,255884,1,8,0:0:0:0:
224,184,256194,1,2,0:0:0:0:
288,280,256503,6,0,P|344:288|392:248,1,112.5,2|0,0:0|0:0,0:0:0:0:
432,144,257121,2,0,P|377:135|332:167,1,112.5,8|0,0:0|0:0,0:0:0:0:
192,160,257740,2,0,P|208:192|248:224,1,75
280,224,258204,5,0,0:0:0:0:
328,224,258359,5,8,0:0:0:0:
400,192,258513,5,0,0:0:0:0:
448,104,258668,5,0,0:0:0:0:
408,160,258822,5,0,0:0:0:0:
400,192,258977,5,8,0:0:0:0:
256,192,259132,12,0,261451,0:0:0:0:
