osu file format v13

[General]
AudioFilename: .mp3
AudioLeadIn: 0
PreviewTime: 49185
Countdown: 0
SampleSet: Soft
StackLeniency: 0.7
Mode: 0
LetterboxInBreaks: 1
WidescreenStoryboard: 1

[Editor]
DistanceSpacing: 1.8
BeatDivisor: 4
GridSize: 4
TimelineZoom: 1

[Metadata]
Title:Ai Chu Fa
TitleUnicode:爱出发
Artist:TFBOYS
ArtistUnicode:TFBOYS
Creator:iPhone
Version:Insane
Source:
Tags:Chinese Love Romantic 华语 中文
BeatmapID:484883
BeatmapSetID:205423

[Difficulty]
HPDrainRate:5
CircleSize:4
OverallDifficulty:7
ApproachRate:8
SliderMultiplier:2
SliderTickRate:2

[Events]
//Background and Video events
0,0,"57a700a4bf72c317d535c6d27ed95d75.jpg",0,0
Video,0,"bg.flv"
//Break Periods
2,96260,100935
2,191685,198435
//Storyboard Layer 0 (Background)
//Storyboard Layer 1 (Fail)
//Storyboard Layer 2 (Pass)
//Storyboard Layer 3 (Foreground)
//Storyboard Sound Samples
//Background Colour Transformations
3,100,163,162,255

[TimingPoints]
435,468.75,4,2,1,100,1,0
435,-133.333333333333,4,2,1,40,0,0
903,-133.333333333333,4,2,1,30,0,0
1372,-133.333333333333,4,2,1,20,0,0
1841,-133.333333333333,4,2,1,10,0,0
2310,-133.333333333333,4,2,1,40,0,0
4185,-100,4,2,1,40,0,0
4653,-125,4,2,1,30,0,0
5140,-153.846153846154,4,2,1,20,0,0
5591,-200,4,2,1,10,0,0
6060,-133.333333333333,4,2,1,40,0,0
7935,-100,4,2,1,40,0,0
8403,-125,4,2,1,30,0,0
8872,-153.846153846154,4,2,1,20,0,0
9341,-200,4,2,1,10,0,0
9810,-133.333333333333,4,2,1,40,0,0
11685,-100,4,2,1,40,0,0
12153,-125,4,2,1,30,0,0
12622,-153.846153846154,4,2,1,20,0,0
13091,-200,4,2,1,10,0,0
13560,-133.333333333333,4,2,1,50,0,0
13677,-133.333333333333,4,2,1,45,0,0
13794,-133.333333333333,4,2,1,40,0,0
13911,-133.333333333333,4,2,1,35,0,0
14028,-133.333333333333,4,2,1,30,0,0
14145,-133.333333333333,4,2,1,25,0,0
14263,-133.333333333333,4,2,1,20,0,0
14380,-133.333333333333,4,2,1,15,0,0
14497,-66.6666666666667,4,2,1,20,0,0
14614,-133.333333333333,4,2,1,30,0,0
14731,-133.333333333333,4,2,1,40,0,0
14849,-133.333333333333,4,2,1,50,0,0
14966,-133.333333333333,4,2,1,60,0,0
15083,-133.333333333333,4,2,1,70,0,0
15200,-133.333333333333,4,2,1,80,0,0
15317,-133.333333333333,4,2,1,90,0,0
15435,-133.333333333333,4,2,1,50,0,0
18716,-66.6666666666667,4,2,1,50,0,0
19185,-100,4,2,1,40,0,0
49185,-100,4,1,1,50,0,1
64185,-100,4,1,1,50,0,0
70981,-100,4,1,2,50,0,0
71216,-100,4,1,1,50,0,0
82231,-100,4,1,2,50,0,0
82466,-100,4,1,1,50,0,0
96060,-133.333333333333,4,1,1,40,0,0
106606,-133.333333333333,4,1,0,40,0,0
106841,-133.333333333333,4,1,1,40,0,0
109185,-133.333333333333,4,2,1,10,0,0
109419,-133.333333333333,4,2,1,15,0,0
109653,-133.333333333333,4,2,1,20,0,0
109888,-133.333333333333,4,2,1,25,0,0
110122,-133.333333333333,4,2,1,30,0,0
110356,-133.333333333333,4,2,1,35,0,0
110591,-133.333333333333,4,2,1,40,0,0
117622,-133.333333333333,4,2,1,10,0,0
117856,-133.333333333333,4,2,1,20,0,0
118091,-133.333333333333,4,2,1,40,0,0
118325,-133.333333333333,4,2,1,50,0,0
118560,-100,4,1,1,50,0,0
123716,-200,4,1,3,50,0,0
124185,-133.333333333333,4,1,3,50,0,0
124653,-100,4,1,3,50,0,0
125708,-66.6666666666667,4,1,3,50,0,0
126060,-100,4,1,1,50,0,1
141060,-100,4,1,1,50,0,0
171060,-133.333333333333,4,2,1,40,0,0
186060,-133.333333333333,4,1,1,50,0,0
187935,-133.333333333333,4,2,1,30,0,0
189810,-66.6666666666667,4,1,1,50,0,0
191685,-133.333333333333,4,1,1,50,0,0
200122,-133.333333333333,4,2,1,50,0,0
202935,-100,4,1,1,50,0,0
206685,-200,4,2,1,50,0,0
207153,-66.6666666666667,4,1,1,50,0,0
207622,-100,4,1,1,50,0,0
221802,-100,4,2,2,30,0,0

[HitObjects]
432,244,434,5,0,0:0:0:0:
80,140,903,1,0,0:0:0:0:
432,140,1372,1,0,0:0:0:0:
80,244,1841,1,0,0:0:0:0:
104,64,2310,6,0,P|12:100|48:212,1,225.000008583069,4|0,0:0|0:0,0:0:0:0:
172,144,3716,1,0,0:0:0:0:
396,60,4185,6,0,P|428:112|364:188,1,150,4|0,0:0|0:0,0:0:0:0:
386,182,4653,2,0,P|364:240|304:240,1,120
312,244,5122,2,0,P|280:296|224:276,1,120
230,283,5591,2,0,P|184:304|156:288,1,75
144,276,6060,5,0,0:0:0:0:
256,32,6763,1,0,0:0:0:0:
372,276,7466,1,0,0:0:0:0:
184,340,7935,6,0,P|124:348|68:272,1,150,4|0,0:0|0:0,0:0:0:0:
68,285,8403,2,0,P|20:260|20:196,1,120
17,199,8872,2,0,P|24:136|60:120,1,97.4999955368044
49,121,9341,2,0,P|79:88|119:92,1,75
132,96,9810,5,0,0:0:0:0:
256,336,10513,1,0,0:0:0:0:
380,96,11216,1,0,0:0:0:0:
60,80,11685,6,0,P|88:36|188:52,1,150,4|0,0:0|0:0,0:0:0:0:
177,40,12154,2,0,P|236:36|268:96,1,120
267,81,12623,2,0,P|312:104|308:160,1,97.4999955368044
315,146,13091,2,0,P|336:176|320:212,1,75
300,224,13560,6,0,L|308:256,14,18.7500007152558,0|0|0|0|0|0|0|0|0|0|0|0|0|0|0,0:0|0:0|0:0|0:0|0:0|0:0|0:0|0:0|0:0|0:0|0:0|0:0|0:0|0:0|0:0,0:0:0:0:
212,208,14497,6,0,L|202:171,14,37.5000014305115,0|0|0|0|0|0|0|0|0|0|0|0|0|0|0,0:0|0:0|0:0|0:0|0:0|0:0|0:0|0:0|0:0|0:0|0:0|0:0|0:0|0:0|0:0,0:0:0:0:
256,192,15435,5,2,0:0:0:0:
100,280,15903,1,0,0:0:0:0:
412,104,16372,1,0,0:0:0:0:
100,104,16841,1,0,0:0:0:0:
412,280,17310,5,0,0:0:0:0:
100,280,17544,1,0,0:0:0:0:
412,104,17778,1,0,0:0:0:0:
100,104,18013,2,0,L|216:164|216:164,1,112.500004291535,0|0,0:0|0:0,0:0:0:0:
148,216,18481,6,0,L|113:197,1,37.5000014305115
200,156,18716,2,0,L|240:176,6,37.5000014305115,0|0|0|0|0|0|0,0:0|0:0|0:0|0:0|0:0|0:0|0:0,0:0:0:0:
256,84,19185,5,8,0:0:0:0:
316,188,19419,2,0,P|280:252|228:256,2,100,0|8|0,0:0|0:0|0:0,0:0:0:0:
356,72,20122,2,0,P|396:124|400:172,1,100,8|0,0:0|0:0,0:0:0:0:
388,276,20591,2,0,P|316:328|268:332,1,100,8|0,0:0|0:0,0:0:0:0:
188,316,21060,5,8,0:0:0:0:
88,252,21294,1,0,0:0:0:0:
176,168,21528,1,8,0:0:0:0:
72,112,21763,1,0,0:0:0:0:
164,36,21997,2,0,P|256:4|356:36,1,200,8|8,0:0|0:0,0:0:0:0:
468,64,22700,2,0,P|432:116|380:116,1,100,0|8,0:0|0:0,0:0:0:0:
284,132,23169,5,0,0:0:0:0:
349,31,23403,1,8,0:0:0:0:
465,62,23638,1,0,0:0:0:0:
471,182,23872,1,8,0:0:0:0:
359,225,24106,1,0,0:0:0:0:
294,325,24341,1,8,0:0:0:0:
178,294,24575,1,0,0:0:0:0:
171,175,24810,5,8,0:0:0:0:
284,132,25044,1,0,0:0:0:0:
340,240,25278,2,0,P|276:256|232:240,1,100,8|0,0:0|0:0,0:0:0:0:
200,84,25747,2,0,P|280:44|376:104,1,200,8|8,0:0|0:0,0:0:0:0:
272,168,26450,2,0,L|172:176,1,100,0|8,0:0|0:0,0:0:0:0:
96,80,26919,5,0,0:0:0:0:
48,192,27153,1,8,0:0:0:0:
96,80,27388,1,0,0:0:0:0:
212,112,27622,2,0,P|284:88|336:116,2,100,8|0|8,0:0|0:0|0:0,0:0:0:0:
192,232,28325,6,0,B|276:176|276:176|340:188|376:152,1,200
300,256,29028,2,0,L|208:316,1,100,8|0,0:0|0:0,0:0:0:0:
148,144,29497,1,8,0:0:0:0:
320,96,29731,2,0,P|392:84|436:116,1,100,0|8,0:0|0:0,0:0:0:0:
284,220,30200,6,0,B|276:176|276:176|224:156|196:80|272:16,1,200
372,172,30903,1,8,0:0:0:0:
200,232,31138,1,0,0:0:0:0:
376,268,31372,1,8,0:0:0:0:
276,120,31606,2,0,L|284:224,1,100,0|8,0:0|0:0,0:0:0:0:
488,344,32075,1,0,0:0:0:0:
488,344,32544,6,0,L|476:208,2,100,0|8|0,0:0|0:0|0:0,0:0:0:0:
488,344,33247,2,0,P|524:252|464:172,1,200,8|8,0:0|0:0,0:0:0:0:
356,208,33950,1,0,0:0:0:0:
356,208,34067,1,0,0:0:0:0:
356,208,34185,1,8,0:0:0:0:
304,104,34419,6,0,L|420:80,2,100,0|8|0,0:0|0:0|0:0,0:0:0:0:
292,284,35122,1,8,0:0:0:0:
192,132,35356,1,0,0:0:0:0:
356,208,35591,1,8,0:0:0:0:
180,240,35825,1,0,0:0:0:0:
128,68,36060,5,8,0:0:0:0:
292,284,36294,1,0,0:0:0:0:
120,332,36528,1,8,0:0:0:0:
292,284,36763,1,0,0:0:0:0:
208,200,36997,2,0,B|224:232|224:232|184:288|224:356|288:372,1,200,8|8,0:0|0:0,0:0:0:0:
312,192,37700,2,0,L|252:108,1,100,0|8,0:0|0:0,0:0:0:0:
72,120,38169,5,0,0:0:0:0:
128,292,38403,1,8,0:0:0:0:
208,200,38638,1,0,0:0:0:0:
152,92,38872,2,0,L|132:212,1,100,8|0,0:0|0:0,0:0:0:0:
272,308,39341,1,8,0:0:0:0:
136,192,39575,1,0,0:0:0:0:
256,56,39810,5,8,0:0:0:0:
76,32,40044,1,0,0:0:0:0:
216,144,40278,1,8,0:0:0:0:
384,76,40513,1,0,0:0:0:0:
476,152,40747,2,0,B|448:132|448:132|408:168|324:172|296:80,1,200,8|8,0:0|0:0,0:0:0:0:
444,224,41450,2,0,P|476:264|472:328,1,100,0|8,0:0|0:0,0:0:0:0:
304,268,41919,6,0,L|252:152,2,100,0|8|0,0:0|0:0|0:0,0:0:0:0:
184,132,42622,2,0,P|236:88|304:116,1,100,8|0,0:0|0:0,0:0:0:0:
392,292,43091,1,8,0:0:0:0:
392,292,43325,6,0,P|340:360|232:324,1,200
360,200,44028,1,8,0:0:0:0:
240,336,44263,1,0,0:0:0:0:
272,160,44497,2,0,L|304:292,1,100,8|0,0:0|0:0,0:0:0:0:
88,136,44966,1,8,0:0:0:0:
320,72,45200,1,0,0:0:0:0:
320,72,45669,6,0,P|368:148|356:184,1,100,0|8,0:0|0:0,0:0:0:0:
256,292,46138,1,0,0:0:0:0:
256,112,46372,1,8,0:0:0:0:
436,112,46606,2,0,P|432:180|408:224,1,100,0|8,0:0|0:0,0:0:0:0:
419,208,47075,1,0,0:0:0:0:
240,204,47310,6,0,L|300:184,1,50,8|0,0:0|0:0,0:0:0:0:
332,228,47544,1,0,0:0:0:0:
180,328,47778,2,0,L|164:280,1,50,8|0,0:0|0:0,0:0:0:0:
116,244,48013,1,0,0:0:0:0:
240,116,48247,2,0,L|180:132,1,50,8|0,0:0|0:0,0:0:0:0:
152,84,48481,1,0,0:0:0:0:
320,16,48716,2,0,L|336:80,1,50,8|0,0:0|0:0,0:0:0:0:
392,72,48950,1,0,0:0:0:0:
256,192,49185,5,4,0:0:0:0:
416,296,49419,1,2,0:0:0:0:
96,296,49653,1,8,0:0:0:0:
252,16,49888,1,2,0:0:0:0:
383,192,50122,1,8,0:0:0:0:
128,192,50356,1,2,0:0:0:0:
128,192,50474,1,0,0:0:0:0:
128,192,50591,1,8,0:0:0:0:
256,320,50825,1,2,0:0:0:0:
80,100,51060,6,0,B|56:164|56:164|52:184|56:204,1,100,8|2,0:0|0:0,0:0:0:0:
316,240,51528,1,8,0:0:0:0:
196,240,51763,1,2,0:0:0:0:
432,100,51997,2,0,B|456:164|456:164|460:184|456:204,1,100,8|2,0:0|0:0,0:0:0:0:
456,212,52349,1,0,0:0:0:0:
452,228,52466,1,8,0:0:0:0:
320,320,52700,1,2,0:0:0:0:
200,236,52935,6,0,P|256:248|324:224,1,100,8|2,0:0|0:0,0:0:0:0:
144,144,53403,1,8,0:0:0:0:
188,320,53638,1,2,0:0:0:0:
404,232,53872,1,8,0:0:0:0:
116,232,54106,1,2,0:0:0:0:
256,120,54341,2,0,L|256:228,1,100,8|2,0:0|0:0,0:0:0:0:
388,96,54810,6,0,L|368:156,1,50,8|0,0:0|0:0,0:0:0:0:
316,76,55044,2,0,L|296:16,1,50,2|0,0:0|0:0,0:0:0:0:
212,28,55278,2,0,L|196:80,1,50,8|0,0:0|0:0,0:0:0:0:
136,144,55513,2,0,L|120:80,1,50,2|0,0:0|0:0,0:0:0:0:
52,148,55747,1,8,0:0:0:0:
124,312,55981,1,2,0:0:0:0:
124,312,56099,1,0,0:0:0:0:
124,312,56216,1,8,0:0:0:0:
256,192,56450,2,0,L|256:168,4,25,2|0|0|0|12,0:0|0:0|0:0|0:0|0:0,0:0:0:0:
392,312,56919,5,2,0:0:0:0:
332,144,57153,1,8,0:0:0:0:
444,4,57388,1,2,0:0:0:0:
280,72,57622,2,0,P|252:136|268:200,1,100,8|2,0:0|0:0,0:0:0:0:
288,340,58091,2,0,P|308:276|300:224,1,100,8|2,0:0|0:0,0:0:0:0:
124,228,58560,5,8,0:0:0:0:
388,156,58794,1,2,0:0:0:0:
208,148,59028,1,8,0:0:0:0:
304,236,59263,1,2,0:0:0:0:
304,236,59380,1,0,0:0:0:0:
304,236,59497,1,8,0:0:0:0:
140,312,59731,2,0,P|68:284|52:236,1,100,2|8,0:0|0:0,0:0:0:0:
160,80,60200,6,0,P|256:64|372:84,1,200,2|2,0:0|0:0,0:0:0:0:
453,267,60903,2,0,P|420:303|372:312,1,100,8|2,0:0|0:0,0:0:0:0:
368,132,61372,2,0,P|392:192|384:232,1,100,8|2,0:0|0:0,0:0:0:0:
386,225,61724,1,0,0:0:0:0:
386,225,61841,1,8,0:0:0:0:
256,348,62075,1,2,0:0:0:0:
124,224,62310,2,0,L|188:192,4,50,0|2|0|8|0,0:0|0:0|0:0|0:0|0:0,0:0:0:0:
108,208,62895,5,8,0:0:0:0:
100,188,63013,1,0,0:0:0:0:
100,172,63130,1,0,0:0:0:0:
104,156,63247,1,0,0:0:0:0:
112,144,63364,1,0,0:0:0:0:
120,132,63481,1,0,0:0:0:0:
132,120,63599,1,0,0:0:0:0:
144,112,63716,1,0,0:0:0:0:
156,104,63833,1,0,0:0:0:0:
184,100,63950,2,0,L|216:100,2,25,2|0|0,0:0|0:0|0:0,0:0:0:0:
248,36,64185,6,0,L|304:68,1,50,8|0,0:0|0:0,0:0:0:0:
308,148,64419,2,0,L|256:120,1,50,2|0,0:0|0:0,0:0:0:0:
188,172,64653,2,0,L|256:208,1,50,8|0,0:0|0:0,0:0:0:0:
252,284,64888,2,0,L|208:260,1,50,2|0,0:0|0:0,0:0:0:0:
212,348,65122,2,0,P|268:360|320:328,1,100,8|2,0:0|0:0,0:0:0:0:
324,320,65474,1,0,0:0:0:0:
324,292,65591,1,8,0:0:0:0:
160,240,65825,2,0,L|121:332,2,100,2|8|2,0:0|0:0|0:0,0:0:0:0:
136,120,66528,5,8,0:0:0:0:
252,260,66763,1,2,0:0:0:0:
348,108,66997,1,8,0:0:0:0:
320,120,67114,1,0,0:0:0:0:
292,132,67231,1,2,0:0:0:0:
264,144,67349,1,0,0:0:0:0:
240,156,67466,2,0,P|176:208|164:280,1,150,8|0,0:0|0:0,0:0:0:0:
224,340,67935,5,8,0:0:0:0:
256,56,68403,1,8,0:0:0:0:
108,244,68872,1,8,0:0:0:0:
116,256,68989,1,0,0:0:0:0:
128,264,69106,1,2,0:0:0:0:
140,272,69224,1,0,0:0:0:0:
156,276,69341,1,8,0:0:0:0:
332,304,69575,6,0,P|340:231|243:163,1,200,2|2,0:0|0:0,0:0:0:0:
120,40,70278,2,0,P|200:64|256:56,1,100,8|2,0:0|0:0,0:0:0:0:
396,108,70747,2,0,P|344:200|248:248,1,200,8|8,0:0|0:0,0:0:0:0:
96,180,71450,1,2,0:0:0:0:
96,180,71567,1,0,0:0:0:0:
96,180,71685,6,0,L|148:292|148:292,1,100,8|2,0:0|0:0,0:0:0:0:
428,304,72153,2,0,L|380:208,1,100,8|2,0:0|0:0,0:0:0:0:
204,184,72622,1,8,0:0:0:0:
320,48,72856,1,2,0:0:0:0:
152,116,73091,1,8,0:0:0:0:
256,260,73325,2,0,P|292:188|276:140,1,100,2|8,0:0|0:0,0:0:0:0:
176,32,73794,5,2,0:0:0:0:
120,204,74028,2,0,L|184:188,1,50,8|0,0:0|0:0,0:0:0:0:
204,184,74263,1,2,0:0:0:0:
336,308,74497,1,8,0:0:0:0:
392,204,74731,2,0,L|328:188,1,50,2|0,0:0|0:0,0:0:0:0:
308,184,74966,1,8,0:0:0:0:
176,308,75200,1,2,0:0:0:0:
32,196,75435,6,0,L|64:80,1,100,8|2,0:0|0:0,0:0:0:0:
272,252,75903,2,0,L|240:368,1,100,8|2,0:0|0:0,0:0:0:0:
96,248,76372,1,8,0:0:0:0:
204,104,76606,1,2,0:0:0:0:
256,76,76724,1,0,0:0:0:0:
308,104,76841,1,8,0:0:0:0:
424,248,77075,1,2,0:0:0:0:
412,68,77310,5,8,0:0:0:0:
308,220,77544,1,2,0:0:0:0:
256,252,77661,1,0,0:0:0:0:
204,220,77779,1,8,0:0:0:0:
108,68,78013,2,0,L|84:100,4,25,2|0|0|0|8,0:0|0:0|0:0|0:0|0:0,0:0:0:0:
256,172,78481,1,2,0:0:0:0:
404,68,78716,2,0,L|428:100,6,25,8|0|0|2|0|0|0,0:0|0:0|0:0|0:0|0:0|0:0|0:0,0:0:0:0:
384,44,79185,6,0,L|356:116,1,50,8|0,0:0|0:0,0:0:0:0:
316,164,79419,2,0,L|292:88,1,50,2|0,0:0|0:0,0:0:0:0:
212,116,79653,2,0,L|192:176,1,50,8|0,0:0|0:0,0:0:0:0:
144,92,79888,2,0,L|124:24,1,50,2|0,0:0|0:0,0:0:0:0:
64,104,80122,1,8,0:0:0:0:
212,208,80356,1,2,0:0:0:0:
84,336,80591,1,8,0:0:0:0:
12,172,80825,6,0,P|116:208|152:288,1,200,2|2,0:0|0:0,0:0:0:0:
328,256,81528,1,8,0:0:0:0:
212,116,81763,1,2,0:0:0:0:
232,296,81997,2,0,P|316:356|416:312,1,200,8|8,0:0|0:0,0:0:0:0:
384,148,82700,2,0,L|368:92,1,50,2|0,0:0|0:0,0:0:0:0:
356,56,82935,5,8,0:0:0:0:
156,328,83403,1,8,0:0:0:0:
384,236,83872,2,0,P|464:200|472:152,2,100,8|2|8,0:0|0:0|0:0,0:0:0:0:
296,156,84575,2,0,P|244:128|124:200,1,200,2|2,0:0|0:0,0:0:0:0:
276,288,85278,2,0,P|252:236|208:204,1,100,8|2,0:0|0:0,0:0:0:0:
64,320,85747,1,8,0:0:0:0:
392,148,86216,1,8,0:0:0:0:
12,136,86685,6,0,L|44:252,1,100,8|2,0:0|0:0,0:0:0:0:
276,268,87153,2,0,L|240:160,1,100,8|2,0:0|0:0,0:0:0:0:
84,68,87622,1,8,0:0:0:0:
168,236,87856,1,2,0:0:0:0:
312,112,88091,1,8,0:0:0:0:
128,160,88325,2,0,P|84:232|144:320,1,200,2|2,0:0|0:0,0:0:0:0:
332,308,89028,1,8,0:0:0:0:
212,160,89263,2,0,P|128:160|88:264,1,200,2|2,0:0|0:0,0:0:0:0:
85,255,89849,1,0,0:0:0:0:
85,255,89966,1,8,0:0:0:0:
252,348,90200,1,2,0:0:0:0:
432,292,90435,6,0,L|476:188,1,100,8|2,0:0|0:0,0:0:0:0:
284,52,90903,2,0,L|232:168,1,100,8|2,0:0|0:0,0:0:0:0:
328,312,91372,1,8,0:0:0:0:
340,124,91606,1,2,0:0:0:0:
160,124,91841,1,8,0:0:0:0:
308,224,92075,2,0,L|360:200,1,50,2|0,0:0|0:0,0:0:0:0:
356,188,92310,5,8,0:0:0:0:
256,68,92544,2,0,L|256:128,1,50,2|0,0:0|0:0,0:0:0:0:
256,136,92778,1,8,0:0:0:0:
156,204,93013,2,0,L|201:224,1,50,2|0,0:0|0:0,0:0:0:0:
204,240,93247,1,8,0:0:0:0:
340,296,93481,1,2,0:0:0:0:
316,316,93599,1,0,0:0:0:0:
288,328,93716,1,8,0:0:0:0:
260,332,93833,1,0,0:0:0:0:
232,328,93950,1,2,0:0:0:0:
204,316,94067,1,0,0:0:0:0:
184,296,94185,1,8,0:0:0:0:
256,192,94302,12,8,96060,0:0:0:0:
256,192,101685,5,8,0:0:0:0:
256,56,102388,5,8,0:0:0:0:
256,192,102622,1,8,0:0:0:0:
256,56,103560,5,8,0:0:0:0:
256,324,104028,1,8,0:0:0:0:
412,236,104497,1,8,0:0:0:0:
336,280,104731,1,0,0:0:0:0:
336,280,104849,1,0,0:0:0:0:
336,280,104966,1,8,0:0:0:0:
256,240,105200,6,0,P|216:248|180:280,1,75.0000028610231,0|8,0:0|0:0,0:0:0:0:
144,344,105669,1,0,0:0:0:0:
56,320,105903,2,0,P|12:264|12:232,1,75.0000028610231,8|0,0:0|0:0,0:0:0:0:
64,136,106372,2,0,P|116:180|84:264,1,150.000005722046,8|8,0:0|0:0,0:0:0:0:
0,88,107310,6,0,P|44:56|96:64,1,75.0000028610231,8|0,0:0|0:0,0:0:0:0:
144,164,107778,2,0,P|100:212|60:216,1,75.0000028610231,8|0,0:0|0:0,0:0:0:0:
136,84,108247,1,8,0:0:0:0:
172,60,108364,1,0,0:0:0:0:
216,48,108481,1,0,0:0:0:0:
260,56,108599,1,0,0:0:0:0:
300,76,108716,1,8,0:0:0:0:
356,148,108950,2,0,P|324:168|296:172,1,37.5000014305115,0|0,0:0|0:0,0:0:0:0:
280,152,109185,6,0,L|248:136,24,18.7500007152558,0|0|0|0|0|0|0|0|0|0|0|0|0|0|0|0|0|0|0|0|0|0|0|0|0,0:0|0:0|0:0|0:0|0:0|0:0|0:0|0:0|0:0|0:0|0:0|0:0|0:0|0:0|0:0|0:0|0:0|0:0|0:0|0:0|0:0|0:0|0:0|0:0|0:0,0:0:0:0:
388,236,110825,6,0,P|404:292|380:332,1,75.0000028610231,0|8,0:0|0:0,0:0:0:0:
324,196,111294,1,0,0:0:0:0:
336,176,111411,1,0,0:0:0:0:
356,164,111528,1,8,0:0:0:0:
268,268,111763,1,0,0:0:0:0:
252,252,111880,1,0,0:0:0:0:
248,232,111997,1,8,0:0:0:0:
304,108,112231,2,0,L|352:88,1,37.5000014305115
360,92,112466,1,8,0:0:0:0:
248,16,112700,6,0,P|240:76|216:96,1,75.0000028610231,0|8,0:0|0:0,0:0:0:0:
204,104,113052,1,0,0:0:0:0:
172,104,113169,1,0,0:0:0:0:
144,88,113286,1,0,0:0:0:0:
112,80,113403,1,8,0:0:0:0:
80,88,113520,1,0,0:0:0:0:
52,108,113638,1,0,0:0:0:0:
36,136,113755,1,0,0:0:0:0:
28,168,113872,2,0,P|28:228|48:256,1,75.0000028610231,8|0,0:0|0:0,0:0:0:0:
52,272,114224,1,0,0:0:0:0:
72,296,114341,1,8,0:0:0:0:
200,252,114575,1,0,0:0:0:0:
184,224,114692,1,0,0:0:0:0:
160,200,114810,6,0,P|136:168|92:160,1,75.0000028610231,8|0,0:0|0:0,0:0:0:0:
100,180,115278,1,8,0:0:0:0:
144,308,115513,1,0,0:0:0:0:
144,308,115630,1,0,0:0:0:0:
144,308,115747,1,8,0:0:0:0:
272,268,115981,2,0,L|332:340,1,75.0000028610231,0|8,0:0|0:0,0:0:0:0:
232,340,116450,1,0,0:0:0:0:
384,244,116685,5,8,0:0:0:0:
356,112,116919,2,0,L|312:164,2,37.5000014305115,0|0|8,0:0|0:0|0:0,0:0:0:0:
196,192,117388,1,0,0:0:0:0:
220,192,117505,1,0,0:0:0:0:
244,192,117622,2,0,L|264:192,12,18.7500007152558,8|0|0|0|0|0|0|0|0|0|0|0|0,0:0|0:0|0:0|0:0|0:0|0:0|0:0|0:0|0:0|0:0|0:0|0:0|0:0,0:0:0:0:
104,304,118560,5,12,0:0:0:0:
28,212,118794,2,0,L|-36:228,2,50,0|0|8,0:0|0:0|0:0,0:0:0:0:
64,96,119263,1,0,0:0:0:0:
172,144,119497,2,0,L|224:132,1,50,8|0,0:0|0:0,0:0:0:0:
120,224,119966,1,8,0:0:0:0:
172,52,120200,2,0,P|248:64|308:36,1,100,0|8,0:0|0:0,0:0:0:0:
360,36,120669,5,0,0:0:0:0:
404,36,120786,1,0,0:0:0:0:
444,60,120903,1,8,0:0:0:0:
468,96,121020,1,0,0:0:0:0:
472,140,121138,1,0,0:0:0:0:
384,220,121372,2,0,P|368:168|384:120,1,100,8|0,0:0|0:0,0:0:0:0:
460,216,121841,1,8,0:0:0:0:
300,132,122075,6,0,P|256:120|192:132,1,100,0|8,0:0|0:0,0:0:0:0:
136,228,122544,2,0,L|192:204,2,50,0|0|8,0:0|0:0|0:0,0:0:0:0:
52,140,123013,2,0,L|4:160,1,50,0|0,0:0|0:0,0:0:0:0:
4,188,123247,1,8,0:0:0:0:
112,44,123481,1,0,0:0:0:0:
184,208,123716,2,0,P|176:284|168:296,1,75,8|0,0:0|0:0,0:0:0:0:
132,268,124185,6,0,P|104:200|136:148,1,112.500004291535,8|0,0:0|0:0,0:0:0:0:
136,144,124653,2,0,P|228:140|260:216,1,150,8|0,0:0|0:0,0:0:0:0:
256,224,125122,2,0,L|196:256,1,50,8|0,0:0|0:0,0:0:0:0:
292,88,125474,2,0,L|216:128,1,50,0|8,0:0|0:0,0:0:0:0:
247,111,125708,6,0,P|224:36|348:20,1,225.000008583069,0|4,0:0|0:0,0:0:0:0:
324,196,126294,5,2,0:0:0:0:
496,136,126528,1,8,0:0:0:0:
356,20,126763,1,2,0:0:0:0:
412,192,126997,2,0,P|396:256|368:280,1,100,8|2,0:0|0:0,0:0:0:0:
372,277,127349,1,0,0:0:0:0:
372,277,127466,1,8,0:0:0:0:
240,228,127700,6,0,P|272:196|328:200,1,100,2|8,0:0|0:0,0:0:0:0:
224,344,128169,2,0,P|152:316|116:280,1,100,2|8,0:0|0:0,0:0:0:0:
168,124,128638,2,0,P|172:192|128:248,1,100,2|8,0:0|0:0,0:0:0:0:
48,172,129106,1,2,0:0:0:0:
48,172,129224,1,0,0:0:0:0:
48,172,129341,1,8,0:0:0:0:
168,40,129575,2,0,P|228:56|248:100,1,100,2|8,0:0|0:0,0:0:0:0:
228,264,130044,5,2,0:0:0:0:
392,188,130278,1,8,0:0:0:0:
244,84,130513,1,2,0:0:0:0:
152,240,130747,2,0,P|152:300|196:344,1,100,8|2,0:0|0:0,0:0:0:0:
200,344,131099,1,0,0:0:0:0:
228,348,131216,1,8,0:0:0:0:
280,176,131450,1,2,0:0:0:0:
374,301,131685,6,0,L|328:284,1,50,8|0,0:0|0:0,0:0:0:0:
392,220,131919,2,0,L|439:236,1,50,2|0,0:0|0:0,0:0:0:0:
440,148,132153,2,0,L|393:130,1,50,8|0,0:0|0:0,0:0:0:0:
468,76,132388,2,0,P|520:156|456:224,1,200,2|2,0:0|0:0,0:0:0:0:
428,228,132974,1,0,0:0:0:0:
400,220,133091,1,8,0:0:0:0:
372,44,133325,2,0,L|404:28,4,25,2|0|0|0|8,0:0|0:0|0:0|0:0|0:0,0:0:0:0:
212,124,133794,5,2,0:0:0:0:
392,140,134028,1,8,0:0:0:0:
272,4,134263,1,2,0:0:0:0:
256,184,134497,2,0,L|288:308,1,100,8|2,0:0|0:0,0:0:0:0:
300,100,134966,2,0,L|272:0,1,100,8|2,0:0|0:0,0:0:0:0:
100,56,135435,6,0,L|146:73,1,50,8|0,0:0|0:0,0:0:0:0:
82,137,135669,2,0,L|35:121,1,50,2|0,0:0|0:0,0:0:0:0:
44,212,135903,2,0,L|91:230,1,50,8|0,0:0|0:0,0:0:0:0:
28,296,136138,2,0,L|-40:268,2,50,2|0|8,0:0|0:0|0:0,0:0:0:0:
208,276,136606,1,2,0:0:0:0:
208,276,136724,1,0,0:0:0:0:
208,276,136841,1,8,0:0:0:0:
256,104,137075,6,0,B|212:144|216:196|216:196|152:192|128:256,1,200,2|2,0:0|0:0,0:0:0:0:
272,360,137778,2,0,B|324:360|324:360|324:364|324:364|380:364,1,100,8|2,0:0|0:0,0:0:0:0:
388,184,138247,2,0,B|336:184|336:184|336:180|336:180|280:180,1,100,8|2,0:0|0:0,0:0:0:0:
288,188,138599,1,0,0:0:0:0:
284,196,138716,1,8,0:0:0:0:
208,280,138950,2,0,L|340:288,1,100,2|8,0:0|0:0,0:0:0:0:
424,252,139419,5,2,0:0:0:0:
460,228,139536,1,0,0:0:0:0:
472,184,139653,1,8,0:0:0:0:
464,140,139770,1,0,0:0:0:0:
428,112,139888,1,2,0:0:0:0:
384,104,140005,1,0,0:0:0:0:
384,60,140122,1,8,0:0:0:0:
356,24,140239,1,0,0:0:0:0:
312,12,140356,2,0,L|296:48,10,25,2|0|0|8|0|0|0|2|0|0|0,0:0|0:0|0:0|0:0|0:0|0:0|0:0|0:0|0:0|0:0|0:0,0:0:0:0:
272,92,141060,6,0,L|348:68,1,50,8|0,0:0|0:0,0:0:0:0:
304,164,141294,2,0,L|216:196,1,50,2|0,0:0|0:0,0:0:0:0:
328,236,141528,2,0,L|396:208,1,50,8|0,0:0|0:0,0:0:0:0:
452,264,141763,2,0,L|380:296,1,50,2|0,0:0|0:0,0:0:0:0:
332,336,141997,1,8,0:0:0:0:
180,152,142231,1,2,0:0:0:0:
180,152,142349,1,0,0:0:0:0:
180,152,142466,1,8,0:0:0:0:
252,316,142700,6,0,P|164:360|60:316,1,200,2|2,0:0|0:0,0:0:0:0:
64,316,143286,1,0,0:0:0:0:
60,300,143403,1,8,0:0:0:0:
172,76,143638,1,2,0:0:0:0:
200,76,143755,1,0,0:0:0:0:
228,88,143872,1,8,0:0:0:0:
244,112,143989,1,0,0:0:0:0:
260,136,144106,1,2,0:0:0:0:
280,156,144224,1,0,0:0:0:0:
308,168,144341,1,8,0:0:0:0:
436,44,144575,1,2,0:0:0:0:
408,40,144692,1,0,0:0:0:0:
380,44,144810,5,8,0:0:0:0:
132,340,145278,1,8,0:0:0:0:
416,120,145747,1,8,0:0:0:0:
248,60,145981,1,2,0:0:0:0:
248,60,146099,1,0,0:0:0:0:
248,60,146216,1,8,0:0:0:0:
124,192,146450,1,2,0:0:0:0:
124,192,146567,1,0,0:0:0:0:
124,192,146685,5,0,0:0:0:0:
216,348,146919,2,0,P|268:316|280:264,1,100,2|8,0:0|0:0,0:0:0:0:
176,136,147388,2,0,P|116:112|72:136,1,100,2|8,0:0|0:0,0:0:0:0:
192,268,147856,1,2,0:0:0:0:
192,268,147974,1,0,0:0:0:0:
192,268,148091,1,8,0:0:0:0:
296,120,148325,6,0,P|312:108|320:100,4,25,2|0|0|0|8,0:0|0:0|0:0|0:0|0:0,0:0:0:0:
108,272,149028,1,8,0:0:0:0:
440,128,149497,2,0,P|440:68|412:40,1,100,8|2,0:0|0:0,0:0:0:0:
414,41,149849,1,0,0:0:0:0:
414,41,149966,1,8,0:0:0:0:
312,192,150200,2,0,P|312:252|376:300,1,100,2|8,0:0|0:0,0:0:0:0:
364,104,150669,5,2,0:0:0:0:
192,52,150903,1,8,0:0:0:0:
232,228,151138,2,0,P|240:164|212:120,1,100,2|8,0:0|0:0,0:0:0:0:
72,44,151606,1,2,0:0:0:0:
72,44,151724,1,0,0:0:0:0:
72,44,151841,2,0,P|48:96|80:168,1,100,8|2,0:0|0:0,0:0:0:0:
156,288,152310,5,8,0:0:0:0:
104,180,152778,1,8,0:0:0:0:
308,48,153247,2,0,L|360:144,1,100,8|2,0:0|0:0,0:0:0:0:
364,164,153599,1,0,0:0:0:0:
372,192,153716,1,8,0:0:0:0:
328,368,153950,6,0,P|308:312|316:256,1,100,2|8,0:0|0:0,0:0:0:0:
456,168,154419,1,2,0:0:0:0:
468,196,154536,1,0,0:0:0:0:
468,224,154653,1,8,0:0:0:0:
288,200,154888,1,2,0:0:0:0:
280,172,155005,1,0,0:0:0:0:
280,144,155122,1,8,0:0:0:0:
104,116,155356,1,2,0:0:0:0:
116,144,155473,1,0,0:0:0:0:
116,172,155590,1,8,0:0:0:0:
64,344,155825,2,8,P|48:344|36:336,2,25,0|0|0,0:0|0:0|0:0,0:0:0:0:
92,352,156060,6,0,L|128:288,1,50,8|0,0:0|0:0,0:0:0:0:
188,252,156294,2,0,L|220:312,1,50,2|0,0:0|0:0,0:0:0:0:
300,296,156528,2,0,L|328:232,1,50,8|0,0:0|0:0,0:0:0:0:
395,308,156763,2,0,L|420:352,1,50,2|0,0:0|0:0,0:0:0:0:
492,296,156997,1,8,0:0:0:0:
352,180,157231,1,2,0:0:0:0:
336,360,157466,1,8,0:0:0:0:
444,216,157700,6,0,P|460:164|356:80,1,200,2|2,0:0|0:0,0:0:0:0:
264,228,158403,2,0,P|304:272|364:268,1,100,8|2,0:0|0:0,0:0:0:0:
212,72,158872,1,8,0:0:0:0:
184,108,158989,1,0,0:0:0:0:
168,152,159106,1,2,0:0:0:0:
164,196,159224,1,0,0:0:0:0:
176,240,159341,1,8,0:0:0:0:
476,40,159810,6,0,L|368:76|368:76,1,100,8|2,0:0|0:0,0:0:0:0:
356,248,160278,2,0,L|464:216,1,100,8|2,0:0|0:0,0:0:0:0:
272,220,160747,1,8,0:0:0:0:
424,316,160981,1,2,0:0:0:0:
424,316,161099,1,0,0:0:0:0:
424,316,161216,1,8,0:0:0:0:
420,136,161450,6,0,P|432:60|320:20,1,200,2|2,0:0|0:0,0:0:0:0:
216,148,162153,2,0,L|328:140,1,100,8|2,0:0|0:0,0:0:0:0:
148,204,162622,1,8,0:0:0:0:
260,64,162856,1,2,0:0:0:0:
260,64,162974,1,0,0:0:0:0:
260,64,163091,1,8,0:0:0:0:
300,240,163325,2,0,L|322:228,2,25,0|0|0,0:0|0:0|0:0,0:0:0:0:
256,252,163560,5,8,0:0:0:0:
80,88,164028,1,8,0:0:0:0:
440,88,164497,2,0,L|336:136,1,100,8|2,0:0|0:0,0:0:0:0:
349,129,164849,1,0,0:0:0:0:
349,129,164966,1,8,0:0:0:0:
168,132,165200,2,0,L|76:88,1,100,2|8,0:0|0:0,0:0:0:0:
216,204,165669,6,0,P|252:144|240:96,1,100,2|8,0:0|0:0,0:0:0:0:
136,256,166138,2,0,P|200:284|304:208,1,200,2|2,0:0|0:0,0:0:0:0:
316,192,166724,1,0,0:0:0:0:
320,164,166841,1,8,0:0:0:0:
188,40,167075,1,2,0:0:0:0:
184,68,167192,1,0,0:0:0:0:
188,96,167310,5,8,0:0:0:0:
324,288,167778,1,8,0:0:0:0:
452,84,168247,2,0,L|336:40,1,100,8|2,0:0|0:0,0:0:0:0:
358,48,168599,1,0,0:0:0:0:
358,48,168716,1,8,0:0:0:0:
180,28,168950,6,0,P|178:77|197:123,1,100,2|8,0:0|0:0,0:0:0:0:
344,228,169419,1,2,0:0:0:0:
348,200,169536,1,0,0:0:0:0:
340,172,169653,1,8,0:0:0:0:
172,240,169888,1,2,0:0:0:0:
164,268,170005,1,0,0:0:0:0:
164,296,170122,1,8,0:0:0:0:
272,152,170356,1,2,0:0:0:0:
276,124,170473,1,0,0:0:0:0:
268,96,170591,1,8,0:0:0:0:
440,44,170825,2,0,L|448:92,4,25,2|0|0|0|4,0:0|0:0|0:0|0:0|0:0,0:0:0:0:
440,44,171528,6,0,P|464:104|456:136,1,75.0000028610231,8|0,0:0|0:0,0:0:0:0:
312,88,171997,2,0,L|408:108,1,75.0000028610231,8|0,0:0|0:0,0:0:0:0:
412,188,172466,1,8,0:0:0:0:
412,188,172700,6,0,L|244:152,1,150.000005722046
148,228,173403,1,8,0:0:0:0:
148,228,173638,2,0,L|308:264,1,150.000005722046
428,264,174341,2,0,P|480:232|492:196,1,75.0000028610231,8|0,0:0|0:0,0:0:0:0:
424,100,174810,6,0,P|376:160|276:164,1,150.000005722046,8|8,0:0|0:0,0:0:0:0:
172,56,175747,2,0,P|280:56|332:92,1,150.000005722046,8|8,0:0|0:0,0:0:0:0:
240,128,176450,2,0,P|184:144|144:132,2,75.0000028610231,0|8|0,0:0|0:0|0:0,0:0:0:0:
212,308,177388,2,0,P|280:279|354:288,1,150.000005722046
440,308,178091,1,8,0:0:0:0:
440,308,178325,2,0,L|456:200,1,75.0000028610231,0|12,0:0|0:0,0:0:0:0:
380,68,179028,5,8,0:0:0:0:
368,248,179497,1,8,0:0:0:0:
472,104,179966,1,8,0:0:0:0:
312,184,180435,2,0,P|236:200|172:172,1,150.000005722046,8|8,0:0|0:0,0:0:0:0:
108,108,181138,1,0,0:0:0:0:
48,40,181372,2,0,P|124:24|184:64,1,150.000005722046,8|8,0:0|0:0,0:0:0:0:
80,208,182310,5,8,0:0:0:0:
136,276,182544,2,0,L|228:332,3,75.0000028610231,0|8|0|8,0:0|0:0|0:0|0:0,0:0:0:0:
256,244,183481,1,0,0:0:0:0:
132,112,183950,2,0,L|204:64,1,75.0000028610231,0|8,0:0|0:0,0:0:0:0:
256,140,184419,1,0,0:0:0:0:
312,72,184653,2,0,L|396:120,1,75.0000028610231,8|0,0:0|0:0,0:0:0:0:
344,192,185122,1,8,0:0:0:0:
344,192,185591,1,8,0:0:0:0:
156,192,186060,5,8,0:0:0:0:
156,192,186294,1,8,0:0:0:0:
256,280,186528,1,8,0:0:0:0:
256,280,186763,1,8,0:0:0:0:
256,100,186997,1,8,0:0:0:0:
256,100,187114,1,8,0:0:0:0:
256,100,187231,1,8,0:0:0:0:
256,100,187349,1,8,0:0:0:0:
256,100,187466,1,8,0:0:0:0:
256,100,187583,1,8,0:0:0:0:
256,100,187700,1,8,0:0:0:0:
256,100,187817,1,8,0:0:0:0:
256,100,187935,6,0,P|296:160|264:228,1,150.000005722046,8|0,0:0|0:0,0:0:0:0:
200,168,188872,2,0,P|168:108|208:32,1,150.000005722046
356,112,189810,6,0,P|392:188|348:256,1,150.000005722046
200,168,190278,2,0,P|172:104|216:32,1,150.000005722046
356,112,190981,6,0,P|392:156|388:192,1,75.0000028610231
200,168,191216,2,0,P|172:120|176:84,1,75.0000028610231
256,280,199185,5,8,0:0:0:0:
256,100,199653,1,8,0:0:0:0:
428,156,200122,2,0,P|440:192|428:228,2,75.0000028610231,8|0|8,0:0|0:0|0:0,0:0:0:0:
348,200,200825,2,0,P|352:264|432:308,1,150.000005722046
419,308,201528,1,8,0:0:0:0:
419,308,201763,2,0,P|332:320|284:368,1,150.000005722046
244,284,202466,2,0,L|164:248,1,75.0000028610231,8|0,0:0|0:0,0:0:0:0:
156,120,202935,5,8,0:0:0:0:
356,264,203403,1,8,0:0:0:0:
236,96,203872,1,8,0:0:0:0:
276,288,204341,1,8,0:0:0:0:
312,112,204810,5,8,0:0:0:0:
312,112,205044,1,0,0:0:0:0:
200,272,205278,1,8,0:0:0:0:
200,272,205513,2,0,L|216:248,4,25,0|0|0|0|8,0:0|0:0|0:0|0:0|0:0,0:0:0:0:
132,212,205981,1,0,0:0:0:0:
140,124,206216,1,8,0:0:0:0:
160,84,206333,1,0,0:0:0:0:
192,52,206450,1,0,0:0:0:0:
232,32,206567,1,0,0:0:0:0:
276,24,206685,6,0,B|300:-8|320:64|344:36,1,75
404,156,207153,6,0,L|240:148,1,150.000005722046,8|2,0:0|0:0,0:0:0:0:
76,164,207622,2,0,P|52:224|80:272,1,100,8|2,0:0|0:0,0:0:0:0:
72,268,207974,1,0,0:0:0:0:
84,276,208091,1,8,0:0:0:0:
120,88,208325,6,0,P|24:100|-24:192,1,200,2|2,0:0|0:0,0:0:0:0:
148,220,209028,1,8,0:0:0:0:
256,76,209263,1,2,0:0:0:0:
364,220,209497,1,8,0:0:0:0:
360,232,209614,1,0,0:0:0:0:
356,248,209731,1,2,0:0:0:0:
352,264,209849,1,0,0:0:0:0:
348,280,209966,2,0,L|232:352,1,100,8|2,0:0|0:0,0:0:0:0:
92,272,210435,5,8,0:0:0:0:
420,112,210903,1,8,0:0:0:0:
68,196,211372,2,0,P|20:232|12:276,1,100,8|2,0:0|0:0,0:0:0:0:
12,284,211724,1,0,0:0:0:0:
20,296,211841,1,8,0:0:0:0:
192,248,212075,6,0,B|148:216|148:216|152:128|68:112,1,200,2|2,0:0|0:0,0:0:0:0:
112,288,212778,2,0,P|156:324|224:320,1,100,8|2,0:0|0:0,0:0:0:0:
212,324,213130,1,0,0:0:0:0:
224,320,213247,1,8,0:0:0:0:
336,180,213481,1,2,0:0:0:0:
320,184,213599,1,0,0:0:0:0:
304,188,213716,2,0,P|244:180|216:152,1,100,8|2,0:0|0:0,0:0:0:0:
208,140,214067,1,0,0:0:0:0:
204,124,214185,5,12,0:0:0:0:
324,332,214653,1,8,0:0:0:0:
436,120,215122,2,0,P|388:84|328:84,1,100,8|2,0:0|0:0,0:0:0:0:
336,84,215474,1,0,0:0:0:0:
324,92,215591,1,8,0:0:0:0:
468,200,215825,2,0,P|516:152|468:36,1,200,2|2,0:0|0:0,0:0:0:0:
356,172,216528,5,8,0:0:0:0:
176,192,216763,2,0,P|216:264|352:272,1,200,2|2,0:0|0:0,0:0:0:0:
340,280,217349,1,0,0:0:0:0:
352,272,217466,1,8,0:0:0:0:
436,116,217700,1,2,0:0:0:0:
272,40,217935,6,0,L|160:64,1,100,8|2,0:0|0:0,0:0:0:0:
280,208,218403,2,0,L|392:180,1,100,8|2,0:0|0:0,0:0:0:0:
200,140,218872,1,8,0:0:0:0:
172,156,218989,1,0,0:0:0:0:
152,176,219106,1,2,0:0:0:0:
136,200,219224,1,0,0:0:0:0:
128,228,219341,1,8,0:0:0:0:
268,340,219575,6,0,L|204:236,1,100,2|8,0:0|0:0,0:0:0:0:
60,164,220044,1,2,0:0:0:0:
60,164,220161,1,0,0:0:0:0:
60,164,220278,1,8,0:0:0:0:
152,320,220513,1,2,0:0:0:0:
152,320,220630,1,0,0:0:0:0:
152,320,220747,1,8,0:0:0:0:
328,276,220981,1,2,0:0:0:0:
352,256,221099,1,0,0:0:0:0:
376,236,221216,1,8,0:0:0:0:
400,216,221333,1,0,0:0:0:0:
424,196,221450,1,2,0:0:0:0:
448,176,221567,2,0,L|460:104,1,50,0|8,0:0|0:0,0:0:0:0:
256,192,221802,12,2,223560,0:0:0:0:
