osu file format v13

[General]
AudioFilename: Amazing Break.mp3
AudioLeadIn: 0
PreviewTime: 59404
Countdown: 1
SampleSet: Normal
StackLeniency: 0.7
Mode: 0
LetterboxInBreaks: 1
WidescreenStoryboard: 0

[Editor]
DistanceSpacing: 1.5
BeatDivisor: 4
GridSize: 4
TimelineZoom: 2.799999

[Metadata]
Title:AMAZING BREAK
TitleUnicode:AMAZING BREAK
Artist:TERRASPEX
ArtistUnicode:TERRASPEX
Creator:sammy711
Version:Insane
Source:テラフォーマーズ
Tags:TerraFormars
BeatmapID:518610
BeatmapSetID:221720

[Difficulty]
HPDrainRate:4
CircleSize:4
OverallDifficulty:9
ApproachRate:10
SliderMultiplier:1.4
SliderTickRate:1

[Events]
//Background and Video events
0,0,"b3e98dfb43166d22a2ca0490452309f79052d20c.jpg",0,0
//Break Periods
//Storyboard Layer 0 (Background)
//Storyboard Layer 1 (Fail)
//Storyboard Layer 2 (Pass)
//Storyboard Layer 3 (Foreground)
//Storyboard Sound Samples
//Background Colour Transformations
3,100,163,162,255

[TimingPoints]
1043,413.793103448276,4,1,1,100,1,0
14284,196.174595389897,4,1,1,100,1,0
59796,-76.9230769230769,4,1,1,100,0,1
78629,-100,4,1,1,100,0,0

[Colours]
Combo1 : 255,255,66
Combo2 : 66,255,66
Combo3 : 170,170,255
Combo4 : 255,83,255

[HitObjects]
128,96,59796,6,0,P|123:188|78:282,1,181.999991668702,2|8,0:0|0:0,0:0:0:0:
180,312,60090,1,0,0:0:0:0:
260,172,60188,1,2,0:0:0:0:
352,247,60286,1,0,0:0:0:0:
279,361,60385,2,0,L|262:267,1,90.9999958343508,8|0,0:0|0:0,0:0:0:0:
352,72,60581,6,0,P|377:136|485:198,1,181.999991668702,2|8,0:0|0:0,0:0:0:0:
440,326,60875,1,0,0:0:0:0:
470,195,60973,1,2,0:0:0:0:
352,247,61071,1,0,0:0:0:0:
260,172,61169,1,8,0:0:0:0:
180,312,61267,1,0,0:0:0:0:
37,138,61365,6,0,P|108:138|229:63,1,181.999991668702,2|8,0:0|0:0,0:0:0:0:
260,172,61660,1,0,0:0:0:0:
77,240,61758,1,2,0:0:0:0:
180,312,61856,1,0,0:0:0:0:
23,377,61954,1,8,0:0:0:0:
38,138,62052,1,0,0:0:0:0:
181,315,62150,6,0,P|250:345|378:345,1,181.999991668702,2|8,0:0|0:0,0:0:0:0:
375,264,62444,1,0,0:0:0:0:
420,62,62542,1,2,0:0:0:0:
479,170,62641,1,0,0:0:0:0:
144,109,62739,1,8,0:0:0:0:
270,31,62837,1,0,0:0:0:0:
375,264,62935,6,0,P|471:260|562:293,1,181.999991668702,6|8,0:0|0:0,0:0:0:0:
420,62,63229,1,0,0:0:0:0:
319,123,63327,2,0,P|276:140|232:145,1,90.9999958343508,2|0,0:0|0:0,0:0:0:0:
230,239,63523,2,0,P|202:270|180:314,1,90.9999958343508,8|0,0:0|0:0,0:0:0:0:
26,29,63719,6,0,L|42:214,1,181.999991668702,6|8,0:0|0:0,0:0:0:0:
68,303,64014,1,0,0:0:0:0:
222,42,64112,1,2,0:0:0:0:
373,266,64210,1,0,0:0:0:0:
170,380,64308,1,8,0:0:0:0:
112,103,64406,1,0,0:0:0:0:
464,207,64504,6,0,P|474:292|450:387,1,181.999991668702,12|8,0:0|0:0,0:0:0:0:
112,103,64897,2,0,B|176:23|275:57|275:57|314:37|314:37|354:55|486:38,2,363.999983337403,12|12|8,0:0|0:0|0:0,0:0:0:0:
184,299,65779,5,8,0:0:0:0:
224,141,65877,1,8,0:0:0:0:
77,263,65976,1,8,0:0:0:0:
272,377,66074,6,0,P|342:383|459:349,1,181.999991668702,2|8,0:0|0:0,0:0:0:0:
432,195,66368,1,0,0:0:0:0:
413,79,66466,2,0,L|330:135,1,90.9999958343508,2|0,0:0|0:0,0:0:0:0:
312,273,66662,1,8,0:0:0:0:
266,27,66760,1,0,0:0:0:0:
43,127,66858,6,0,P|132:144|223:141,1,181.999991668702,2|8,0:0|0:0,0:0:0:0:
184,299,67153,1,0,0:0:0:0:
406,359,67251,1,2,0:0:0:0:
272,377,67349,1,0,0:0:0:0:
224,140,67447,1,8,0:0:0:0:
77,266,67545,1,0,0:0:0:0:
166,64,67643,6,0,L|79:41,1,90.9999958343508,2|0,0:0|0:0,0:0:0:0:
144,183,67839,2,0,L|224:139,1,90.9999958343508,8|0,0:0|0:0,0:0:0:0:
477,216,68035,1,2,0:0:0:0:
323,356,68133,1,0,0:0:0:0:
366,152,68232,1,8,0:0:0:0:
451,343,68330,1,0,0:0:0:0:
271,238,68428,6,0,B|222:244|191:288|185:298|185:298|92:314,1,181.999991668702,2|8,0:0|0:0,0:0:0:0:
112,310,68722,1,0,0:0:0:0:
79,40,68820,1,2,0:0:0:0:
270,240,68918,1,0,0:0:0:0:
57,164,69016,1,8,0:0:0:0:
199,23,69114,1,0,0:0:0:0:
476,216,69212,6,0,P|474:153|512:22,1,181.999991668702,6|8,0:0|0:0,0:0:0:0:
306,20,69507,2,0,L|407:63,1,90.9999958343508,0|2,0:0|0:0,0:0:0:0:
366,152,69703,1,0,0:0:0:0:
270,240,69801,1,8,0:0:0:0:
199,23,69899,1,0,0:0:0:0:
57,164,69997,6,0,P|43:242|-11:337,1,181.999991668702,2|8,0:0|0:0,0:0:0:0:
162,297,70291,1,0,0:0:0:0:
270,240,70389,2,0,P|297:289|316:358,1,90.9999958343508,2|0,0:0|0:0,0:0:0:0:
366,151,70586,2,0,P|327:144|279:126,1,90.9999958343508,8|0,0:0|0:0,0:0:0:0:
263,355,70782,6,0,P|365:344|467:367,1,181.999991668702,6|8,0:0|0:0,0:0:0:0:
460,6,71076,2,0,P|428:102|361:154,1,181.999991668702,12|0,0:0|0:0,0:0:0:0:
199,23,71370,1,8,0:0:0:0:
56,162,71468,1,0,0:0:0:0:
51,5,71566,1,8,0:0:0:0:
382,276,71665,1,8,0:0:0:0:
273,367,71763,1,8,0:0:0:0:
196,186,71861,1,8,0:0:0:0:
344,51,71959,6,0,P|409:76|501:147,1,181.999991668702,2|2,0:0|0:0,0:0:0:0:
382,276,72253,1,0,0:0:0:0:
190,329,72351,2,0,L|72:352,1,90.9999958343508,6|0,0:0|0:0,0:0:0:0:
195,186,72547,2,0,L|312:161,1,90.9999958343508,8|0,0:0|0:0,0:0:0:0:
474,362,72744,2,0,L|349:397,1,90.9999958343508,2|0,0:0|0:0,0:0:0:0:
111,46,72940,2,0,L|199:24,1,90.9999958343508,8|0,0:0|0:0,0:0:0:0:
382,276,73136,6,0,P|313:245|292:128,1,181.999991668702,2|8,0:0|0:0,0:0:0:0:
345,50,73430,1,0,0:0:0:0:
383,173,73528,1,2,0:0:0:0:
503,112,73626,1,0,0:0:0:0:
487,274,73724,2,0,L|474:364,1,90.9999958343508,8|0,0:0|0:0,0:0:0:0:
194,187,73921,6,0,P|89:179|14:201,1,181.999991668702,2|8,0:0|0:0,0:0:0:0:
382,274,74215,1,0,0:0:0:0:
196,312,74313,1,2,0:0:0:0:
280,146,74411,1,0,0:0:0:0:
297,346,74509,2,0,P|321:362|389:384,1,90.9999958343508,8|0,0:0|0:0,0:0:0:0:
345,49,74705,6,0,P|275:44|163:72,2,181.999991668702,2|8|2,0:0|0:0|0:0,0:0:0:0:
382,272,75196,1,0,0:0:0:0:
196,312,75294,1,8,0:0:0:0:
279,147,75392,1,0,0:0:0:0:
93,33,75490,6,0,P|106:105|104:224,1,181.999991668702,2|8,0:0|0:0,0:0:0:0:
14,276,75784,1,0,0:0:0:0:
106,325,75882,2,0,L|195:309,1,90.9999958343508,2|0,0:0|0:0,0:0:0:0:
382,271,76078,1,8,0:0:0:0:
343,49,76177,1,0,0:0:0:0:
185,125,76275,6,0,P|212:218|316:249,1,181.999991668702,6|8,0:0|0:0,0:0:0:0:
382,272,76569,1,0,0:0:0:0:
278,147,76667,1,2,0:0:0:0:
512,247,76765,1,0,0:0:0:0:
343,48,76863,1,8,0:0:0:0:
177,169,76961,1,0,0:0:0:0:
92,31,77059,6,0,P|71:103|3:187,1,181.999991668702,2|8,0:0|0:0,0:0:0:0:
81,257,77354,1,8,0:0:0:0:
115,356,77452,1,8,0:0:0:0:
259,346,77550,1,8,0:0:0:0:
276,147,77648,1,8,0:0:0:0:
382,271,77746,1,8,0:0:0:0:
489,190,77844,6,0,P|461:105|449:6,1,181.999991668702,4|0,0:0|0:0,0:0:0:0:
114,355,78236,2,0,P|197:319|288:310,1,181.999991668702,4|0,0:0|0:0,0:0:0:0:
156,44,78629,1,12,0:0:0:0:
256,192,78678,12,0,81768,0:0:0:0:
