osu file format v14

[General]
AudioFilename: AMAZING BREAK.mp3
AudioLeadIn: 1500
PreviewTime: 58753
Countdown: 0
SampleSet: Soft
StackLeniency: 0.7
Mode: 0
LetterboxInBreaks: 0
WidescreenStoryboard: 0

[Editor]
DistanceSpacing: 1.4
BeatDivisor: 4
GridSize: 4
TimelineZoom: 3.299999

[Metadata]
Title:AMAZING BREAK (TV-size)
TitleUnicode:AMAZING BREAK(TVサイズ)
Artist:TERRASPEX
ArtistUnicode:TERRASPEX
Creator:kunka
Version:Normal
Source:TERRA FORMARS
Tags:opening -maruk- kunkakunkakunkakunka テラフォーマーズ bugs anex mars
BeatmapID:526968
BeatmapSetID:225905

[Difficulty]
HPDrainRate:4
CircleSize:3.5
OverallDifficulty:4
ApproachRate:5.5
SliderMultiplier:1.1
SliderTickRate:1

[Events]
//Background and Video events
Video,54,"AMAZING BREAK.avi"
0,0,"BG.jpg",0,0
//Break Periods
//Storyboard Layer 0 (Background)
//Storyboard Layer 1 (Fail)
//Storyboard Layer 2 (Pass)
//Storyboard Layer 3 (Foreground)
//Storyboard Sound Samples

[TimingPoints]
414,413.793103448276,4,2,1,50,1,0
6620,-100,4,2,1,55,0,0
7034,-100,4,2,1,50,0,0
10551,-100,4,2,1,5,0,0
13655,392.156862745098,4,2,1,40,1,0
16792,-100,4,2,1,50,0,0
18360,-100,4,2,1,60,0,0
18655,-100,4,2,1,65,0,0
19145,-100,4,2,1,67,0,0
19537,-100,4,2,1,70,0,0
19929,-100,4,2,1,75,0,0
32478,-100,4,2,2,45,0,0
34047,-100,4,2,1,50,0,0
46596,-100,4,2,2,40,0,0
51105,-100,4,2,1,55,0,0
52870,-100,4,2,1,50,0,0
56007,-100,4,2,1,55,0,0
57576,-100,4,2,1,60,0,0
59145,-100,4,2,1,65,0,1
63851,-100,4,2,1,70,0,1
65419,-100,4,2,1,65,0,1
70125,-100,4,2,1,70,0,1
71694,-100,4,2,1,65,0,1
77184,-100,4,2,1,70,0,1
77968,-100,4,2,1,55,0,0
80713,-100,4,2,1,60,0,0
81105,-100,4,2,1,55,0,0
83851,-100,4,2,1,60,0,0
84243,-100,4,2,1,55,0,0
86988,-100,4,2,1,60,0,0
87380,-100,4,2,1,55,0,0

[Colours]
Combo1 : 255,128,255
Combo2 : 128,255,128
Combo3 : 128,255,255
Combo4 : 255,128,128
Combo5 : 255,255,128

[HitObjects]
49,275,414,6,0,P|96:251|152:266,1,110,4|0,1:0|0:0,0:0:0:0:
282,343,1241,2,0,P|329:367|385:352,1,110,2|2,0:0|0:0,0:0:0:0:
441,211,2069,2,0,L|464:101,1,110,6|0,0:0|0:0,0:0:0:0:
332,23,2896,1,2,0:0:0:0:
199,101,3310,1,2,0:0:0:0:
234,250,3724,6,0,L|257:360,1,110,6|0,0:0|0:0,0:0:0:0:
102,360,4551,2,0,L|125:250,1,110,2|2,0:0|0:0,0:0:0:0:
176,106,5379,2,0,P|229:92|282:103,1,110,6|0,0:0|0:0,0:0:0:0:
420,171,6207,1,0,0:0:0:0:
353,309,6620,2,0,L|310:342,1,55,12|0,0:0|0:0,0:0:0:0:
232,346,7034,5,14,0:0:0:0:
78,355,7448,1,10,0:0:0:0:
147,217,7862,1,10,0:0:0:0:
78,79,8276,1,10,0:0:0:0:
232,88,8689,2,0,L|343:106,1,110,10|14,0:0|0:0,0:0:0:0:
343,260,9517,2,0,L|232:278,1,110,14|14,0:0|0:0,0:0:0:0:
111,184,10345,5,6,0:0:0:0:
256,192,10551,12,0,12827,0:0:0:0:
252,234,13655,6,0,L|139:259,1,110,6|0,0:0|3:0,0:0:0:0:
74,227,14243,2,0,B|55:173|55:173|74:122,1,110
109,55,14831,1,0,3:0:0:0:
250,115,15223,6,0,L|363:90,1,110,0|0,3:0|3:0,0:0:0:0:
428,122,15811,2,0,B|447:176|447:176|428:227,1,110
393,294,16399,1,0,3:0:0:0:
242,327,16792,6,0,P|214:323|190:310,1,55,8|2,0:0|0:0,0:0:0:0:
200,234,17184,2,0,L|218:180,1,55,8|2,0:0|0:0,0:0:0:0:
226,105,17576,2,0,P|199:91|172:89,2,55,2|2|10,0:0|0:0|0:0,0:0:0:0:
287,151,18164,1,2,0:0:0:0:
349,105,18360,6,0,P|387:88|427:93,2,82.5,6|8|8,0:0|0:0|0:0,0:0:0:0:
399,163,19145,2,0,L|423:274,1,110,2|2,0:0|0:0,0:0:0:0:
294,357,19929,6,0,P|247:381|191:367,1,110,6|8,0:0|0:0,0:0:0:0:
148,306,20517,2,0,P|129:256|79:228,1,110,2|0,0:0|0:0,0:0:0:0:
34,168,21105,2,0,L|43:114,1,55,8|2,0:0|0:0,0:0:0:0:
94,56,21498,5,2,0:0:0:0:
218,146,21890,2,0,L|327:135,1,110,8|0,0:0|0:0,0:0:0:0:
387,182,22478,1,0,0:0:0:0:
387,182,22674,2,0,L|441:176,1,55,8|2,0:0|0:0,0:0:0:0:
456,251,23066,6,0,L|347:262,1,110,2|8,0:0|0:0,0:0:0:0:
289,314,23655,2,0,P|270:261|289:211,1,110,2|0,0:0|0:0,0:0:0:0:
316,141,24243,1,8,0:0:0:0:
181,66,24635,6,0,L|171:11,2,55,2|2|10,0:0|0:0|0:0,0:0:0:0:
134,126,25223,2,0,L|144:181,2,55,2|2|2,0:0|0:0|0:0,0:0:0:0:
72,79,25811,1,10,0:0:0:0:
34,229,26204,6,0,P|29:285|60:329,1,110,6|8,0:0|0:0,0:0:0:0:
135,329,26792,2,0,P|188:310|239:329,1,110,2|0,0:0|0:0,0:0:0:0:
313,329,27380,2,0,L|370:329,1,55,8|2,0:0|0:0,0:0:0:0:
419,272,27772,5,2,0:0:0:0:
471,127,28164,2,0,P|418:108|367:127,1,110,8|0,0:0|0:0,0:0:0:0:
312,177,28753,1,0,0:0:0:0:
312,177,28949,2,0,L|312:232,1,55,8|2,0:0|0:0,0:0:0:0:
254,283,29341,6,0,P|201:302|150:283,1,110,2|8,0:0|0:0,0:0:0:0:
98,229,29929,2,0,P|79:176|98:125,1,110,2|0,0:0|0:0,0:0:0:0:
134,60,30517,1,8,0:0:0:0:
282,101,30909,6,0,L|341:101,2,55,2|10|2,0:0|0:0|0:0,0:0:0:0:
259,175,31498,2,0,L|204:175,2,55,2|2|2,0:0|0:0|0:0,0:0:0:0:
282,248,32086,1,10,0:0:0:0:
396,350,32478,5,6,0:0:0:0:
511,248,32870,1,2,0:0:0:0:
396,145,33262,2,0,L|396:90,2,55,2|2|2,0:0|0:0|0:0,0:0:0:0:
282,248,34047,6,0,B|231:271|231:271|176:261,1,110,14|8,0:0|0:0,0:0:0:0:
101,250,34635,1,2,0:0:0:0:
151,104,35027,1,0,0:0:0:0:
151,104,35223,2,0,L|206:114,1,55,8|2,0:0|0:0,0:0:0:0:
277,86,35615,6,0,B|328:63|328:63|383:73,1,110,2|8,0:0|0:0,0:0:0:0:
457,87,36204,1,2,0:0:0:0:
474,239,36596,1,0,0:0:0:0:
474,239,36792,2,0,L|464:298,1,55,8|2,0:0|0:0,0:0:0:0:
411,348,37184,6,0,P|366:373|309:367,1,110,2|8,0:0|0:0,0:0:0:0:
241,331,37772,2,0,P|196:306|139:312,1,110,2|0,0:0|0:0,0:0:0:0:
69,343,38360,1,8,0:0:0:0:
63,188,38753,6,0,P|108:163|165:169,1,110,2|8,0:0|0:0,0:0:0:0:
233,205,39341,2,0,P|278:230|335:224,1,110,2|0,0:0|0:0,0:0:0:0:
405,193,39929,1,8,0:0:0:0:
324,61,40321,6,0,L|215:76,1,110,6|8,0:0|0:0,0:0:0:0:
139,63,40909,1,2,0:0:0:0:
99,213,41302,1,0,0:0:0:0:
99,213,41498,2,0,L|94:269,1,55,8|2,0:0|0:0,0:0:0:0:
127,337,41890,6,0,P|179:355|231:337,1,110,2|8,0:0|0:0,0:0:0:0:
297,303,42478,2,0,P|349:285|401:303,1,110,2|0,0:0|0:0,0:0:0:0:
467,337,43066,1,8,0:0:0:0:
467,183,43458,6,0,P|485:131|467:79,1,110,2|8,0:0|0:0,0:0:0:0:
396,51,44047,2,0,B|368:43|340:51|340:51|312:59|284:51,1,110,2|0,0:0|0:0,0:0:0:0:
212,32,44635,1,8,0:0:0:0:
103,140,45027,5,12,0:0:0:0:
143,288,45419,1,8,0:0:0:0:
252,180,45811,2,0,L|305:193,2,55,2|8|2,0:0|0:0|0:0,0:0:0:0:
103,140,46596,6,0,P|92:99|103:59,2,82.5,2|2|0,0:0|0:0|0:0,0:0:0:0:
168,99,47380,2,0,B|192:106|220:98|220:98|248:90|276:98,1,110,2|0,0:0|0:0,0:0:0:0:
427,66,48164,6,0,L|507:86,2,82.5,2|2|0,0:0|0:0|0:0,0:0:0:0:
382,2,48949,2,0,P|353:46|359:102,1,110,2|2,0:0|0:0,0:0:0:0:
386,252,49733,6,0,P|418:295|411:351,1,110,2|0,0:0|0:0,0:0:0:0:
337,368,50321,1,2,0:0:0:0:
261,351,50517,2,0,B|229:352|207:367|207:367|178:367|156:352,1,110,2|0,0:0|0:0,0:0:0:0:
98,302,51105,1,8,0:0:0:0:
98,302,51302,6,0,P|77:264|49:236,1,82.5,6|2,0:0|0:0,0:0:0:0:
112,140,51890,2,0,P|133:102|161:74,1,82.5,6|2,0:0|0:0,0:0:0:0:
268,34,52478,1,8,0:0:0:0:
378,141,52870,6,0,P|388:198|391:250,1,110,6|0,0:0|0:0,0:0:0:0:
363,321,53458,1,8,0:0:0:0:
363,321,53655,2,0,P|406:326|442:307,2,82.5,2|2|8,0:0|0:0|0:0,0:0:0:0:
297,280,54439,6,0,P|245:264|192:280,1,110,2|0,0:0|0:0,0:0:0:0:
128,321,55027,1,8,0:0:0:0:
70,270,55223,2,0,P|60:213|57:161,1,110,2|0,0:0|0:0,0:0:0:0:
96,95,55811,1,8,0:0:0:0:
96,95,56007,6,0,B|56:74|15:97,2,82.5,6|6|8,0:0|0:0|0:0,0:0:0:0:
160,138,56792,2,0,L|216:130,1,55,12|8,0:0|0:0,0:0:0:0:
264,188,57184,2,0,L|318:195,1,55,2|2,0:0|0:0,0:0:0:0:
364,257,57576,6,0,B|385:297|362:338,2,82.5,6|6|2,0:0|0:0|0:0,0:0:0:0:
298,296,58360,1,6,0:0:0:0:
450,28,59145,6,0,L|451:84,1,55,4|8,1:0|0:0,0:0:0:0:
452,159,59537,2,0,P|403:180|354:159,1,110,2|2,0:0|0:0,0:0:0:0:
205,119,60321,2,0,P|178:112|147:119,1,55,2|8,0:0|0:0,0:0:0:0:
174,190,60713,6,0,L|174:247,1,55,2|8,0:0|0:0,0:0:0:0:
139,313,61105,2,0,P|91:332|38:313,1,110,2|2,0:0|0:0,0:0:0:0:
12,160,61890,2,0,L|14:106,1,55,0|12,0:0|0:0,0:0:0:0:
63,46,62282,6,0,P|111:27|164:46,1,110,6|2,0:0|0:0,0:0:0:0:
220,97,62870,1,12,0:0:0:0:
287,134,63066,2,0,L|397:139,1,110,6|8,0:0|0:0,0:0:0:0:
437,204,63654,1,2,0:0:0:0:
437,204,63851,5,6,0:0:0:0:
307,287,64243,1,6,0:0:0:0:
287,134,64635,1,6,0:0:0:0:
157,217,65027,1,8,0:0:0:0:
137,64,65419,6,0,L|82:71,1,55,6|8,0:0|0:0,0:0:0:0:
30,127,65811,2,0,P|11:173|30:231,1,110,2|2,0:0|0:0,0:0:0:0:
139,335,66596,2,0,L|195:343,1,55.0000016784668,2|8,0:0|0:0,0:0:0:0:
270,343,66988,6,0,L|326:335,1,55.0000016784668,2|8,0:0|0:0,0:0:0:0:
392,371,67380,2,0,P|399:316|369:271,1,110,2|2,0:0|0:0,0:0:0:0:
226,217,68164,2,0,L|170:225,1,55.0000016784668,2|8,0:0|0:0,0:0:0:0:
101,193,68556,6,0,P|82:139|101:90,1,110,6|0,0:0|0:0,0:0:0:0:
158,40,69145,1,8,0:0:0:0:
230,66,69341,2,0,L|284:58,1,55.0000016784668,2|8,0:0|0:0,0:0:0:0:
351,95,69733,2,0,L|407:103,1,55.0000016784668,0|12,0:0|0:0,0:0:0:0:
476,132,70125,6,0,P|482:91|465:53,2,82.5,6|6|2,0:0|0:0|0:0,0:0:0:0:
454,206,70909,1,8,0:0:0:0:
382,343,71302,2,0,L|326:351,1,55.0000016784668,8|2,0:0|0:0,0:0:0:0:
250,351,71694,6,0,B|225:343|197:351|197:351|169:359|141:351,1,110,6|2,0:0|0:0,0:0:0:0:
29,245,72478,2,0,L|29:190,1,55,2|8,0:0|0:0,0:0:0:0:
87,139,72870,2,0,L|87:84,1,55,2|8,0:0|0:0,0:0:0:0:
146,34,73262,6,0,P|199:20|253:34,1,110,6|2,0:0|0:0,0:0:0:0:
394,91,74047,2,0,L|451:91,1,55,2|8,0:0|0:0,0:0:0:0:
451,167,74439,2,0,L|394:167,1,55,2|8,0:0|0:0,0:0:0:0:
341,221,74831,6,0,P|290:239|234:221,1,110,6|2,0:0|0:0,0:0:0:0:
223,148,75419,2,0,L|223:91,1,55,8|2,0:0|0:0,0:0:0:0:
168,38,75811,2,0,P|116:19|64:38,1,110,8|8,0:0|0:0,0:0:0:0:
115,95,76400,6,0,L|115:152,1,55,6|8,0:0|0:0,0:0:0:0:
170,203,76792,2,0,L|170:258,1,55,8|2,0:0|0:0,0:0:0:0:
115,312,77184,1,8,0:0:0:0:
6,203,77576,1,0,0:0:0:0:
115,95,77968,6,0,B|148:74|153:56|153:56|170:68|212:59,1,110,6|10,0:0|0:0,0:0:0:0:
360,59,78753,2,0,B|396:66|413:54|413:54|418:72|451:93,1,110,2|10,0:0|0:0,0:0:0:0:
451,246,79537,2,0,B|418:267|413:285|413:285|396:273|354:282,1,110,2|10,0:0|0:0,0:0:0:0:
206,282,80321,2,0,B|170:275|153:287|153:287|148:269|115:248,1,110,2|14,0:0|0:0,0:0:0:0:
65,102,81105,6,0,L|92:51,2,55,2|0|10,0:0|0:0|0:0,0:0:0:0:
115,248,81890,2,0,L|88:299,2,55,2|0|10,0:0|0:0|0:0,0:0:0:0:
236,153,82674,2,0,L|263:102,2,55,2|0|10,0:0|0:0|0:0,0:0:0:0:
286,299,83458,2,0,B|319:320|324:338|324:338|341:326|383:334,1,110,2|12,0:0|0:0,0:0:0:0:
466,207,84243,6,0,P|482:152|466:101,1,110,2|10,0:0|0:0,0:0:0:0:
424,39,84831,1,0,0:0:0:0:
347,40,85027,2,0,L|235:68,1,110,2|0,0:0|0:0,0:0:0:0:
168,39,85615,1,0,0:0:0:0:
96,68,85811,6,0,P|80:123|96:174,1,110,2|10,0:0|0:0,0:0:0:0:
122,244,86400,1,0,0:0:0:0:
96,316,86596,2,0,L|55:354,2,55,2|0|14,0:0|0:0|0:0,0:0:0:0:
226,234,87380,6,0,B|250:226|250:226|310:242|310:242|338:234,1,110,2|0,0:0|0:0,0:0:0:0:
406,217,87968,1,0,0:0:0:0:
406,217,88164,2,0,P|431:210|461:217,1,55,2|2,0:0|0:0,0:0:0:0:
495,283,88556,2,0,B|494:324|494:324|464:356,1,82.5,2|2,0:0|0:0,0:0:0:0:
