osu file format v14

[General]
AudioFilename: AMAZING BREAK.mp3
AudioLeadIn: 1500
PreviewTime: 58753
Countdown: 0
SampleSet: Soft
StackLeniency: 0.7
Mode: 0
LetterboxInBreaks: 0
WidescreenStoryboard: 0

[Editor]
DistanceSpacing: 2
BeatDivisor: 4
GridSize: 4
TimelineZoom: 3.299999

[Metadata]
Title:AMAZING BREAK (TV-size)
TitleUnicode:AMAZING BREAK(TVサイズ)
Artist:TERRASPEX
ArtistUnicode:TERRASPEX
Creator:kunka
Version:JOHJ
Source:TERRA FORMARS
Tags:opening -maruk- kunkakunkakunkakunka テラフォーマーズ bugs anex mars
BeatmapID:526964
BeatmapSetID:225905

[Difficulty]
HPDrainRate:6
CircleSize:4.2
OverallDifficulty:8
ApproachRate:9.1
SliderMultiplier:1.6
SliderTickRate:1

[Events]
//Background and Video events
Video,54,"AMAZING BREAK.avi"
0,0,"BG.jpg",0,0
//Break Periods
//Storyboard Layer 0 (Background)
//Storyboard Layer 1 (Fail)
//Storyboard Layer 2 (Pass)
//Storyboard Layer 3 (Foreground)
//Storyboard Sound Samples

[TimingPoints]
414,413.793103448276,4,2,1,50,1,0
6620,-83.3333333333333,4,2,1,55,0,0
7034,-100,4,2,1,50,0,0
11276,-100,4,2,1,5,0,0
13655,392.156862745098,4,2,1,40,1,0
13655,-71.4285714285714,4,2,1,40,0,0
16792,-62.5,4,2,1,50,0,0
18360,-62.5,4,2,1,60,0,0
18655,-62.5,4,2,1,65,0,0
19145,-62.5,4,2,1,67,0,0
19537,-62.5,4,2,1,70,0,0
19929,-62.5,4,2,1,75,0,0
32478,-71.4285714285714,4,2,2,45,0,0
34047,-62.5,4,2,1,50,0,0
46596,-66.6666666666667,4,2,2,40,0,0
51105,-58.8235294117647,4,2,1,55,0,0
52870,-62.5,4,2,1,50,0,0
56007,-62.5,4,2,1,55,0,0
57576,-60.6060606060606,4,2,1,60,0,0
59145,-58.8235294117647,4,2,1,65,0,1
63851,-55.5555555555556,4,2,1,70,0,1
65419,-58.8235294117647,4,2,1,65,0,1
70125,-55.5555555555556,4,2,1,70,0,1
71694,-58.8235294117647,4,2,1,65,0,1
77184,-55.5555555555556,4,2,1,70,0,1
77968,-62.5,4,2,1,55,0,0
80713,-58.8235294117647,4,2,1,60,0,0
81105,-62.5,4,2,1,55,0,0
83851,-58.8235294117647,4,2,1,60,0,0
84243,-62.5,4,2,1,55,0,0
86988,-58.8235294117647,4,2,1,60,0,0
87380,-62.5,4,2,1,55,0,0

[Colours]
Combo1 : 255,128,255
Combo2 : 128,255,128
Combo3 : 128,255,255
Combo4 : 255,128,128
Combo5 : 255,255,128

[HitObjects]
403,83,414,6,0,P|341:38|265:61,1,160,4|0,1:0|0:0,0:0:0:0:
148,357,1241,1,2,0:0:0:0:
137,358,1379,1,2,0:0:0:0:
126,359,1517,1,2,0:0:0:0:
186,271,1655,1,2,0:0:0:0:
197,270,1793,1,2,0:0:0:0:
208,269,1931,1,2,0:0:0:0:
299,326,2069,6,0,P|370:355|445:326,1,160,6|0,0:0|0:0,0:0:0:0:
282,50,2896,2,0,P|230:32|182:50,1,106.666666666667,2|2,0:0|0:0,0:0:0:0:
110,128,3310,1,2,0:0:0:0:
110,138,3448,1,2,0:0:0:0:
110,148,3586,1,2,0:0:0:0:
226,216,3724,6,0,P|298:185|368:216,1,160,6|0,0:0|0:0,0:0:0:0:
85,366,4551,1,2,0:0:0:0:
96,364,4689,1,2,0:0:0:0:
107,362,4827,1,2,0:0:0:0:
69,262,4965,1,2,0:0:0:0:
60,255,5103,1,2,0:0:0:0:
52,248,5241,1,2,0:0:0:0:
89,148,5379,6,0,P|163:120|236:148,1,160,6|0,0:0|0:0,0:0:0:0:
355,254,6000,1,0,0:0:0:0:
475,359,6207,1,0,0:0:0:0:
477,198,6414,2,0,P|469:186|459:177,2,26.6666666666667,2|2|2,0:0|0:0|0:0,0:0:0:0:
484,134,6620,2,0,L|386:148,1,95.9999970703126,12|0,0:0|0:0,0:0:0:0:
213,217,7034,6,0,P|192:206|168:186,1,53.3333333333333,10|0,0:0|0:0,0:0:0:0:
63,162,7310,1,8,0:0:0:0:
64,151,7448,2,0,P|75:130|95:106,1,53.3333333333333,10|0,0:0|0:0,0:0:0:0:
197,77,7724,1,8,0:0:0:0:
208,76,7862,6,0,P|229:87|253:107,1,53.3333333333333,10|0,0:0|0:0,0:0:0:0:
289,206,8138,1,8,0:0:0:0:
299,211,8276,2,0,P|320:200|344:180,1,53.3333333333333,10|0,0:0|0:0,0:0:0:0:
392,108,8551,1,8,0:0:0:0:
382,103,8689,6,0,L|371:49,2,53.3333333333333,10|8|8,0:0|0:0|0:0,0:0:0:0:
472,237,9103,2,0,L|494:344,1,106.666666666667,14|0,0:0|0:0,0:0:0:0:
332,343,9517,5,14,0:0:0:0:
322,340,9654,1,8,0:0:0:0:
311,337,9792,1,8,0:0:0:0:
169,261,9931,1,14,0:0:0:0:
179,258,10068,1,8,0:0:0:0:
190,255,10206,1,8,0:0:0:0:
335,184,10345,6,0,P|234:98|96:125,1,280,6|0,0:0|0:0,0:0:0:0:
32,168,11172,1,0,0:0:0:0:
256,192,11276,12,0,13551,0:0:0:0:
256,192,13655,5,6,0:0:0:0:
413,299,13851,2,0,L|389:349,2,55.9999982910157,0|0|0,0:0|0:0|3:0,0:0:0:0:
427,109,14243,1,0,0:0:0:0:
256,192,14439,6,0,L|279:242,2,55.9999982910157,0|0|0,3:0|0:0|0:0,0:0:0:0:
85,109,14831,1,0,3:0:0:0:
99,299,15027,1,0,0:0:0:0:
256,192,15223,5,0,3:0:0:0:
427,109,15419,1,0,0:0:0:0:
427,109,15517,1,0,0:0:0:0:
427,109,15615,1,0,3:0:0:0:
413,299,15811,1,0,0:0:0:0:
256,192,16007,5,0,3:0:0:0:
256,192,16105,1,0,0:0:0:0:
256,192,16204,1,0,0:0:0:0:
427,109,16400,2,0,P|441:57|405:18,1,111.999996582031,0|0,3:0|0:0,0:0:0:0:
214,26,16792,6,0,L|150:34,1,64,8|2,0:0|0:0,0:0:0:0:
84,143,16988,1,2,0:0:0:0:
84,143,17086,1,2,0:0:0:0:
84,143,17184,2,0,L|148:135,1,64,8|2,0:0|0:0,0:0:0:0:
238,225,17380,5,2,0:0:0:0:
238,225,17478,2,0,L|174:233,1,64,8|2,0:0|0:0,0:0:0:0:
108,342,17674,1,2,0:0:0:0:
108,342,17772,2,0,L|172:334,1,64,2|2,0:0|0:0,0:0:0:0:
297,314,17968,1,10,0:0:0:0:
47,256,18164,1,2,0:0:0:0:
200,63,18360,6,0,P|256:36|320:42,1,128,6|2,0:0|0:0,0:0:0:0:
407,96,18655,2,0,L|398:226,1,128,8|2,0:0|0:0,0:0:0:0:
432,320,18949,1,8,0:0:0:0:
234,265,19145,6,0,P|171:251|110:269,1,128,2|0,0:0|0:0,0:0:0:0:
36,337,19439,1,2,0:0:0:0:
36,337,19537,2,0,P|94:316|45:226,1,192,2|0,0:0|0:0,0:0:0:0:
48,77,19929,5,6,0:0:0:0:
99,42,20027,1,2,0:0:0:0:
159,57,20125,2,0,P|188:63|222:56,1,64
344,24,20321,1,8,0:0:0:0:
493,231,20517,1,2,0:0:0:0:
493,231,20615,2,0,P|500:264|493:298,1,64,8|0,0:0|0:0,0:0:0:0:
368,311,20811,1,2,0:0:0:0:
318,272,20909,1,0,0:0:0:0:
255,271,21007,1,2,0:0:0:0:
205,309,21105,1,8,0:0:0:0:
159,57,21302,2,0,L|97:69,1,64,2|0,0:0|0:0,0:0:0:0:
68,194,21498,5,2,0:0:0:0:
68,194,21596,2,0,L|130:182,1,64,2|0,0:0|0:0,0:0:0:0:
254,148,21792,1,2,0:0:0:0:
254,148,21890,1,8,0:0:0:0:
401,358,22086,1,2,0:0:0:0:
401,358,22184,2,0,B|405:326|405:326|393:270|393:270|401:230,1,128,8|2,0:0|0:0,0:0:0:0:
367,108,22478,2,0,L|304:92,1,64,0|2,0:0|0:0,0:0:0:0:
338,216,22674,2,0,L|400:232,1,64,8|0,0:0|0:0,0:0:0:0:
311,324,22870,1,2,0:0:0:0:
481,133,23066,5,2,0:0:0:0:
445,83,23164,1,2,0:0:0:0:
384,67,23262,2,0,P|351:62|319:67,1,64
193,53,23458,1,8,0:0:0:0:
32,253,23655,1,2,0:0:0:0:
32,253,23753,2,0,P|63:247|94:253,1,64,8|0,0:0|0:0,0:0:0:0:
173,353,23949,1,2,0:0:0:0:
210,301,24047,1,0,0:0:0:0:
219,239,24145,1,2,0:0:0:0:
198,179,24243,1,8,0:0:0:0:
419,50,24439,1,2,0:0:0:0:
411,364,24635,6,0,B|348:357,1,64,2|2,0:0|0:0,0:0:0:0:
201,251,24831,2,0,B|264:258,1,64,2|2,0:0|0:0,0:0:0:0:
377,117,25027,6,0,B|384:54,1,64,10|2,0:0|0:0,0:0:0:0:
502,190,25223,2,0,B|495:253,1,64,2|2,0:0|0:0,0:0:0:0:
347,356,25419,5,2,0:0:0:0:
283,348,25517,1,2,0:0:0:0:
219,341,25615,1,2,0:0:0:0:
156,333,25713,1,2,0:0:0:0:
129,277,25811,5,10,0:0:0:0:
192,284,25909,1,2,0:0:0:0:
255,291,26007,1,2,0:0:0:0:
319,300,26105,1,2,0:0:0:0:
381,302,26204,5,6,0:0:0:0:
419,253,26302,1,2,0:0:0:0:
412,190,26400,2,0,P|396:163|365:146,1,64
246,109,26596,1,8,0:0:0:0:
77,301,26792,1,2,0:0:0:0:
77,301,26890,2,0,L|-2:322,1,64,8|0,0:0|0:0,0:0:0:0:
0,190,27086,1,2,0:0:0:0:
58,165,27184,1,0,0:0:0:0:
121,171,27282,1,2,0:0:0:0:
173,207,27380,1,8,0:0:0:0:
400,324,27576,2,0,L|479:303,1,64,2|0,0:0|0:0,0:0:0:0:
493,184,27772,5,2,0:0:0:0:
493,184,27870,2,0,L|444:144,1,64,2|0,0:0|0:0,0:0:0:0:
367,40,28066,1,2,0:0:0:0:
367,40,28164,1,8,0:0:0:0:
173,207,28360,1,2,0:0:0:0:
173,207,28458,2,0,B|181:237|181:237|192:247|192:247|213:328,1,128,8|2,0:0|0:0,0:0:0:0:
341,342,28753,2,0,P|367:324|399:323,1,64,0|2,0:0|0:0,0:0:0:0:
495,244,28949,2,0,P|503:213|492:183,1,64,8|0,0:0|0:0,0:0:0:0:
383,117,29145,1,2,0:0:0:0:
269,346,29341,5,2,0:0:0:0:
212,317,29439,1,2,0:0:0:0:
148,330,29537,2,0,P|114:323|88:304,1,64
84,178,29733,1,8,0:0:0:0:
295,30,29929,1,2,0:0:0:0:
295,30,30027,2,0,P|322:45|358:43,1,64,8|0,0:0|0:0,0:0:0:0:
471,96,30223,1,2,0:0:0:0:
499,152,30321,1,0,0:0:0:0:
500,215,30419,1,2,0:0:0:0:
473,273,30517,1,8,0:0:0:0:
237,375,30713,1,2,0:0:0:0:
44,82,30909,6,0,L|54:146,1,64,2|2,0:0|0:0,0:0:0:0:
185,269,31105,2,0,L|175:205,1,64,10|2,0:0|0:0,0:0:0:0:
311,84,31302,6,0,L|375:74,1,64,2|2,0:0|0:0,0:0:0:0:
398,253,31498,2,0,L|408:317,1,64,2|2,0:0|0:0,0:0:0:0:
237,375,31694,5,2,0:0:0:0:
191,331,31792,1,2,0:0:0:0:
185,269,31890,1,2,0:0:0:0:
220,218,31988,1,2,0:0:0:0:
275,184,32086,5,10,0:0:0:0:
320,140,32184,1,2,0:0:0:0:
327,78,32282,1,2,0:0:0:0:
291,27,32380,1,2,0:0:0:0:
228,15,32478,5,6,0:0:0:0:
51,112,32674,1,2,0:0:0:0:
221,220,32870,1,2,0:0:0:0:
399,125,33066,1,2,0:0:0:0:
229,17,33262,5,2,0:0:0:0:
221,220,33458,1,2,0:0:0:0:
402,310,33655,1,2,0:0:0:0:
399,125,33851,2,0,L|390:68,1,55.9999982910157,2|0,0:0|0:0,0:0:0:0:
211,156,34047,6,0,L|221:226,1,64,14|2,0:0|0:0,0:0:0:0:
7,361,34341,1,2,0:0:0:0:
7,361,34439,1,8,0:0:0:0:
45,108,34635,1,2,0:0:0:0:
45,108,34733,2,0,L|115:98,1,64,8|0,0:0|0:0,0:0:0:0:
216,29,34929,1,2,0:0:0:0:
239,282,35125,1,2,0:0:0:0:
239,282,35223,2,0,P|261:305|292:321,1,64,8|0,0:0|0:0,0:0:0:0:
411,358,35419,1,2,0:0:0:0:
487,115,35615,5,2,0:0:0:0:
487,115,35713,1,2,0:0:0:0:
246,28,35909,1,2,0:0:0:0:
246,28,36007,2,0,L|178:36,1,64,8|0,0:0|0:0,0:0:0:0:
108,141,36204,1,2,0:0:0:0:
108,141,36302,2,0,L|104:209,1,64,8|0,0:0|0:0,0:0:0:0:
206,282,36498,1,2,0:0:0:0:
246,28,36694,1,2,0:0:0:0:
246,28,36792,2,0,P|277:14|309:16,1,64,8|0,0:0|0:0,0:0:0:0:
431,43,36988,1,2,0:0:0:0:
477,294,37184,5,2,0:0:0:0:
477,294,37282,1,2,0:0:0:0:
228,353,37478,1,2,0:0:0:0:
228,353,37576,2,0,L|164:354,1,64,8|0,0:0|0:0,0:0:0:0:
93,247,37772,1,2,0:0:0:0:
93,247,37870,2,0,L|157:246,1,64,8|0,0:0|0:0,0:0:0:0:
243,151,38066,1,2,0:0:0:0:
487,230,38262,1,2,0:0:0:0:
487,230,38360,2,0,L|476:295,1,64,8|0,0:0|0:0,0:0:0:0:
350,272,38556,2,0,L|361:207,1,64,2|0,0:0|0:0,0:0:0:0:
291,100,38753,6,0,L|226:89,1,64,2|2,0:0|0:0,0:0:0:0:
164,342,39047,1,2,0:0:0:0:
164,342,39145,2,0,L|229:353,1,64,8|0,0:0|0:0,0:0:0:0:
361,349,39341,1,2,0:0:0:0:
361,349,39439,2,0,P|401:299|395:237,1,128,8|2,0:0|0:0,0:0:0:0:
261,21,39831,1,2,0:0:0:0:
261,21,39929,2,0,L|199:36,1,64,8|0,0:0|0:0,0:0:0:0:
103,121,40125,2,0,L|41:106,1,64,0|2,0:0|0:0,0:0:0:0:
41,287,40321,6,0,L|103:272,1,64,6|0,0:0|0:0,0:0:0:0:
347,200,40615,1,2,0:0:0:0:
347,200,40713,2,0,L|280:194,1,64,8|0,0:0|0:0,0:0:0:0:
307,320,40909,1,2,0:0:0:0:
307,320,41007,2,0,L|374:326,1,64,8|0,0:0|0:0,0:0:0:0:
466,240,41203,1,2,0:0:0:0:
269,74,41400,1,2,0:0:0:0:
269,74,41498,2,0,L|202:80,1,64,8|0,0:0|0:0,0:0:0:0:
310,152,41694,2,0,L|377:146,1,64,2|0,0:0|0:0,0:0:0:0:
466,240,41890,5,2,0:0:0:0:
466,240,41988,2,0,L|472:307,1,64,2|0,0:0|0:0,0:0:0:0:
349,342,42184,1,2,0:0:0:0:
349,342,42282,2,0,L|343:275,1,64,8|0,0:0|0:0,0:0:0:0:
216,262,42478,1,2,0:0:0:0:
216,262,42576,2,0,L|222:329,1,64,8|0,0:0|0:0,0:0:0:0:
102,371,42772,1,2,0:0:0:0:
53,121,42968,1,2,0:0:0:0:
53,121,43066,2,0,L|101:76,1,64,8|0,0:0|0:0,0:0:0:0:
106,205,43262,2,0,L|58:250,1,64,2|0,0:0|0:0,0:0:0:0:
161,325,43458,6,0,L|222:341,1,64,2|2,0:0|0:0,0:0:0:0:
467,263,43753,1,2,0:0:0:0:
467,263,43851,2,0,L|406:247,1,64,8|0,0:0|0:0,0:0:0:0:
331,142,44047,1,2,0:0:0:0:
331,142,44145,2,0,L|330:79,1,64,8|0,0:0|0:0,0:0:0:0:
215,20,44341,1,2,0:0:0:0:
190,274,44537,1,2,0:0:0:0:
190,274,44635,2,0,L|187:340,1,64,8|0,0:0|0:0,0:0:0:0:
66,293,44831,1,2,0:0:0:0:
66,293,44929,1,2,0:0:0:0:
66,293,45027,6,0,B|57:256|57:256|62:166,1,128,12|0,0:0|0:0,0:0:0:0:
118,51,45321,1,0,0:0:0:0:
118,51,45419,2,0,L|185:59,1,64,8|0,0:0|0:0,0:0:0:0:
320,59,45615,2,0,L|387:51,1,64,2|8,0:0|0:0,0:0:0:0:
474,142,45811,5,2,0:0:0:0:
498,200,45909,1,2,0:0:0:0:
491,263,46007,1,8,0:0:0:0:
456,316,46105,1,8,0:0:0:0:
392,312,46204,1,2,0:0:0:0:
328,304,46302,1,2,0:0:0:0:
266,319,46400,1,2,0:0:0:0:
203,313,46498,1,2,0:0:0:0:
161,270,46596,6,0,P|120:235|55:247,1,120.000004577637,2|0,0:0|0:0,0:0:0:0:
80,362,46890,2,0,L|101:296,1,60.0000022888184,2|0,0:0|0:0,0:0:0:0:
56,68,47184,1,0,0:0:0:0:
283,145,47380,2,0,P|372:145|405:65,1,180.000006866455,2|2,0:0|0:0,0:0:0:0:
375,20,47772,2,0,P|285:19|252:99,1,180.000006866455
233,150,48164,6,0,P|172:160|112:162,1,120.000004577637,2|0,0:0|0:0,0:0:0:0:
54,166,48458,2,0,P|19:246|54:330,1,180.000006866455,2|0,0:0|0:0,0:0:0:0:
288,368,48948,1,2,0:0:0:0:
288,368,49047,2,0,P|348:357|409:356,1,120.000004577637,2|0,0:0|0:0,0:0:0:0:
497,277,49341,1,2,0:0:0:0:
460,39,49537,1,0,0:0:0:0:
460,39,49635,1,0,0:0:0:0:
460,39,49733,6,0,B|399:22|399:22|343:33,1,120.000004577637,2|0,0:0|0:0,0:0:0:0:
293,66,50027,2,0,P|238:91|178:87,1,120.000004577637,2|0,0:0|0:0,0:0:0:0:
63,58,50321,1,2,0:0:0:0:
169,273,50517,1,2,0:0:0:0:
293,66,50713,1,0,0:0:0:0:
399,281,50909,1,0,0:0:0:0:
137,356,51105,1,8,0:0:0:0:
137,356,51204,1,8,0:0:0:0:
137,356,51302,6,0,L|70:341,1,68.0000012969971,6|0,0:0|0:0,0:0:0:0:
214,264,51498,1,8,0:0:0:0:
214,264,51596,2,0,L|279:277,1,68.0000012969971,2|0,0:0|0:0,0:0:0:0:
159,130,51792,1,8,0:0:0:0:
159,130,51890,2,0,L|92:115,1,68.0000012969971,6|0,0:0|0:0,0:0:0:0:
299,47,52086,1,8,0:0:0:0:
299,47,52184,2,0,L|364:60,1,68.0000012969971,2|0,0:0|0:0,0:0:0:0:
500,298,52478,5,8,0:0:0:0:
444,334,52576,1,8,0:0:0:0:
377,341,52674,1,8,0:0:0:0:
314,318,52772,1,8,0:0:0:0:
269,267,52870,5,6,0:0:0:0:
110,65,53066,1,8,0:0:0:0:
110,65,53164,1,0,0:0:0:0:
110,65,53262,2,0,L|46:74,1,64,0|2,0:0|0:0,0:0:0:0:
46,202,53458,2,0,L|111:212,1,64,8|0,0:0|0:0,0:0:0:0:
215,137,53655,2,0,L|280:127,1,64,2|0,0:0|0:0,0:0:0:0:
390,65,53851,1,8,0:0:0:0:
390,65,53949,1,2,0:0:0:0:
500,298,54145,1,2,0:0:0:0:
500,298,54243,2,0,L|436:307,1,64,8|0,0:0|0:0,0:0:0:0:
350,212,54439,6,0,P|292:193|229:212,1,128,2|8,0:0|0:0,0:0:0:0:
179,249,54733,2,0,P|121:268|58:249,1,128,2|2,0:0|0:0,0:0:0:0:
6,212,55027,1,8,0:0:0:0:
182,26,55223,1,2,0:0:0:0:
236,275,55419,2,0,L|302:291,1,64,8|2,0:0|0:0,0:0:0:0:
380,192,55713,1,2,0:0:0:0:
380,192,55811,2,0,P|385:161|380:128,1,64,8|0,0:0|0:0,0:0:0:0:
236,46,56007,6,0,L|170:62,1,64,6|0,0:0|0:0,0:0:0:0:
63,128,56204,1,8,0:0:0:0:
63,128,56302,2,0,P|58:159|63:192,1,64,6|0,0:0|0:0,0:0:0:0:
175,255,56498,1,2,0:0:0:0:
175,255,56596,2,0,P|206:260|235:274,1,64,8|0,0:0|0:0,0:0:0:0:
380,192,56792,6,0,P|444:213|504:192,1,128,12|8,0:0|0:0,0:0:0:0:
441,81,57086,2,0,P|377:60|317:81,1,128,8|2,0:0|0:0,0:0:0:0:
197,112,57380,2,0,L|133:102,1,64,2|2,0:0|0:0,0:0:0:0:
91,286,57576,6,0,P|133:334|200:339,1,132.00000125885,6|0,0:0|0:0,0:0:0:0:
321,194,57870,2,0,P|385:173|445:194,1,132.00000125885,6|0,0:0|0:0,0:0:0:0:
504,339,58164,1,2,0:0:0:0:
197,112,58360,5,6,0:0:0:0:
117,333,58753,1,0,0:0:0:0:
103,310,58949,1,0,0:0:0:0:
91,286,59145,6,0,L|109:221,1,68.0000012969971,4|0,1:0|0:0,0:0:0:0:
197,112,59341,1,8,0:0:0:0:
362,327,59537,1,2,0:0:0:0:
467,76,59733,1,8,0:0:0:0:
497,346,59929,5,2,0:0:0:0:
328,132,60125,1,8,0:0:0:0:
76,235,60321,2,0,B|59:300,1,68.0000012969971,2|2,0:0|0:0,0:0:0:0:
194,308,60517,2,0,B|210:242,1,68.0000012969971,8|0,0:0|0:0,0:0:0:0:
181,109,60713,5,2,0:0:0:0:
364,309,60909,1,8,0:0:0:0:
317,41,61105,1,2,0:0:0:0:
383,27,61204,1,2,0:0:0:0:
446,49,61302,1,8,0:0:0:0:
505,314,61498,5,2,0:0:0:0:
237,359,61694,2,0,L|168:372,1,68.0000012969971,12|2,0:0|0:0,0:0:0:0:
34,370,61890,1,0,0:0:0:0:
10,308,61988,1,2,0:0:0:0:
32,245,62086,1,12,0:0:0:0:
250,26,62282,6,0,B|278:18|278:18|318:26|318:26|350:34|350:34|386:26,1,136.000002593994,6|8,0:0|0:0,0:0:0:0:
493,105,62576,1,0,0:0:0:0:
507,171,62674,2,0,L|488:240,1,68.0000012969971,2|2,0:0|0:0,0:0:0:0:
450,367,62870,1,12,0:0:0:0:
167,198,63066,6,0,P|96:185|39:208,1,136.000002593994,6|2,0:0|0:0,0:0:0:0:
114,325,63360,1,8,0:0:0:0:
180,338,63458,1,8,0:0:0:0:
244,319,63556,1,10,0:0:0:0:
293,273,63654,1,2,0:0:0:0:
316,210,63752,1,2,0:0:0:0:
306,143,63851,6,0,L|235:17,1,143.999995605469,6|0,0:0|0:0,0:0:0:0:
505,256,64243,2,0,L|434:382,1,143.999995605469,6|0,0:0|0:0,0:0:0:0:
25,221,64635,6,0,L|240:187,1,215.999993408203,6|2,0:0|0:0,0:0:0:0:
452,155,65027,1,8,0:0:0:0:
437,222,65125,1,8,0:0:0:0:
373,248,65223,1,8,0:0:0:0:
316,210,65321,1,8,0:0:0:0:
315,142,65419,6,0,P|327:79|304:13,1,136.000002593994,6|8,0:0|0:0,0:0:0:0:
190,88,65713,1,0,0:0:0:0:
190,88,65811,2,0,L|118:95,1,68.0000012969971,2|2,0:0|0:0,0:0:0:0:
76,222,66007,2,0,L|148:215,1,68.0000012969971,8|0,0:0|0:0,0:0:0:0:
246,306,66204,5,2,0:0:0:0:
359,58,66400,2,0,P|393:61|422:77,1,68.0000012969971,8|0,0:0|0:0,0:0:0:0:
496,191,66596,1,2,0:0:0:0:
489,258,66694,1,2,0:0:0:0:
486,326,66792,1,8,0:0:0:0:
219,374,66988,5,2,0:0:0:0:
79,140,67184,1,8,0:0:0:0:
350,136,67380,1,2,0:0:0:0:
350,136,67478,1,2,0:0:0:0:
350,136,67576,1,8,0:0:0:0:
57,311,67772,5,2,0:0:0:0:
222,13,67968,1,12,0:0:0:0:
386,311,68164,1,2,0:0:0:0:
433,354,68262,1,0,0:0:0:0:
493,321,68360,1,8,0:0:0:0:
480,254,68458,1,8,0:0:0:0:
413,247,68556,5,6,0:0:0:0:
153,333,68753,1,8,0:0:0:0:
153,333,68851,2,0,P|122:316|107:288,1,68.0000012969971
60,160,69047,1,2,0:0:0:0:
60,160,69145,2,0,P|92:147|124:153,1,68.0000012969971,8|0,0:0|0:0,0:0:0:0:
238,227,69341,5,2,0:0:0:0:
493,321,69537,1,8,0:0:0:0:
480,254,69635,1,2,0:0:0:0:
468,187,69733,2,0,B|454:121,1,68.0000012969971,0|2,0:0|0:0,0:0:0:0:
283,9,69929,1,12,0:0:0:0:
110,351,70125,6,0,B|77:362|77:362|35:351,1,71.9999978027344,6|0,0:0|0:0,0:0:0:0:
20,210,70321,1,8,0:0:0:0:
86,179,70419,2,0,L|228:206,1,143.999995605469,6|8,0:0|0:0,0:0:0:0:
413,247,70713,1,2,0:0:0:0:
201,65,70909,5,8,0:0:0:0:
215,135,71007,1,8,0:0:0:0:
228,206,71105,1,2,0:0:0:0:
242,277,71204,1,0,0:0:0:0:
312,294,71302,2,0,L|384:273,1,71.9999978027344,8|0,0:0|0:0,0:0:0:0:
376,129,71498,2,0,L|306:149,1,71.9999978027344,2|0,0:0|0:0,0:0:0:0:
428,31,71694,5,6,0:0:0:0:
490,56,71792,1,2,0:0:0:0:
501,123,71890,1,8,0:0:0:0:
478,187,71988,1,2,0:0:0:0:
410,197,72086,1,2,0:0:0:0:
345,175,72184,1,2,0:0:0:0:
277,170,72282,1,8,0:0:0:0:
220,207,72380,1,2,0:0:0:0:
202,272,72478,5,2,0:0:0:0:
230,333,72576,1,2,0:0:0:0:
292,360,72674,1,8,0:0:0:0:
358,348,72772,1,2,0:0:0:0:
399,293,72870,1,2,0:0:0:0:
391,225,72968,1,2,0:0:0:0:
403,158,73066,1,8,0:0:0:0:
373,96,73164,1,2,0:0:0:0:
310,70,73262,5,6,0:0:0:0:
243,84,73360,1,2,0:0:0:0:
174,79,73458,1,8,0:0:0:0:
114,46,73556,1,2,0:0:0:0:
45,50,73655,1,2,0:0:0:0:
7,106,73753,1,2,0:0:0:0:
32,168,73851,1,8,0:0:0:0:
37,235,73949,1,2,0:0:0:0:
78,288,74047,6,0,L|147:294,1,68.0000012969971,2|2,0:0|0:0,0:0:0:0:
237,358,74243,2,0,L|306:351,1,68.0000012969971,8|2,0:0|0:0,0:0:0:0:
424,263,74439,2,0,L|355:256,1,68.0000012969971,2|2,0:0|0:0,0:0:0:0:
257,205,74635,2,0,L|188:211,1,68.0000012969971,8|2,0:0|0:0,0:0:0:0:
100,144,74831,5,6,0:0:0:0:
41,110,74929,1,2,0:0:0:0:
32,42,75027,1,8,0:0:0:0:
90,7,75125,1,2,0:0:0:0:
155,25,75223,1,2,0:0:0:0:
169,91,75321,1,2,0:0:0:0:
155,157,75419,1,8,0:0:0:0:
185,217,75517,1,2,0:0:0:0:
251,231,75615,5,2,0:0:0:0:
309,196,75713,1,2,0:0:0:0:
319,128,75811,1,8,0:0:0:0:
367,79,75909,1,2,0:0:0:0:
434,80,76007,1,2,0:0:0:0:
491,116,76105,1,2,0:0:0:0:
496,184,76204,1,8,0:0:0:0:
476,249,76302,1,2,0:0:0:0:
486,316,76400,5,6,0:0:0:0:
215,293,76596,1,8,0:0:0:0:
235,158,76694,2,0,L|228:117,2,34.0000006484985,8|8|8,0:0|0:0|0:0,0:0:0:0:
478,271,76988,2,0,L|485:316,2,45.3333341979981,2|2|2,0:0|0:0|0:0,0:0:0:0:
491,116,77184,6,0,P|427:43|312:45,1,215.999993408203,8|0,0:0|0:0,0:0:0:0:
238,230,77576,2,0,P|302:303|417:301,1,215.999993408203
491,116,77968,5,6,0:0:0:0:
261,3,78164,1,0,0:0:0:0:
140,225,78360,2,0,L|76:241,1,64,10|0,0:0|0:0,0:0:0:0:
22,355,78556,1,0,0:0:0:0:
279,358,78753,5,2,0:0:0:0:
169,127,78949,1,0,0:0:0:0:
427,100,79145,2,0,L|423:164,1,64,10|0,0:0|0:0,0:0:0:0:
478,279,79341,1,0,0:0:0:0:
231,362,79537,6,0,L|167:350,1,64,2|0,0:0|0:0,0:0:0:0:
215,250,79733,2,0,L|279:238,1,64
231,138,79929,2,0,L|167:126,1,64,10|0,0:0|0:0,0:0:0:0:
255,32,80125,1,0,0:0:0:0:
425,222,80321,5,2,0:0:0:0:
373,259,80419,1,0,0:0:0:0:
312,273,80517,1,0,0:0:0:0:
249,261,80615,1,0,0:0:0:0:
197,225,80713,2,0,L|130:239,1,68.0000012969971,14|0,0:0|0:0,0:0:0:0:
29,148,80909,1,0,0:0:0:0:
255,32,81105,5,2,0:0:0:0:
308,65,81203,1,0,0:0:0:0:
335,122,81302,1,0,0:0:0:0:
326,185,81399,1,0,0:0:0:0:
284,232,81498,2,0,L|258:293,1,64,10|0,0:0|0:0,0:0:0:0:
384,312,81694,2,0,L|410:251,1,64
461,136,81890,5,2,0:0:0:0:
428,83,81988,1,0,0:0:0:0:
371,56,82087,1,0,0:0:0:0:
308,65,82184,1,0,0:0:0:0:
261,107,82282,2,0,L|200:133,1,64,10|0,0:0|0:0,0:0:0:0:
76,113,82478,2,0,L|50:52,1,64
67,181,82674,5,2,0:0:0:0:
100,234,82772,1,0,0:0:0:0:
157,261,82871,1,0,0:0:0:0:
220,252,82968,1,0,0:0:0:0:
267,210,83066,2,0,L|328:184,1,64,10|0,0:0|0:0,0:0:0:0:
319,311,83262,2,0,L|258:337,1,64
157,261,83458,6,0,P|129:251|95:250,1,64,2|0,0:0|0:0,0:0:0:0:
31,235,83655,2,0,L|19:192,2,42.6666666666667,2|2|2,0:0|0:0|0:0,0:0:0:0:
76,113,83851,2,0,P|142:113|207:135,1,136.000002593994,12|2,0:0|0:0,0:0:0:0:
510,114,84243,5,2,0:0:0:0:
505,72,84308,1,0,0:0:0:0:
482,36,84373,1,0,0:0:0:0:
447,13,84439,1,0,0:0:0:0:
405,7,84504,1,0,0:0:0:0:
364,20,84569,1,0,0:0:0:0:
327,40,84635,2,0,L|241:40,1,85.3333333333333,10|0,0:0|0:0,0:0:0:0:
241,126,84831,2,0,L|329:126,1,85.3333333333333
367,138,85027,5,2,0:0:0:0:
394,170,85092,1,0,0:0:0:0:
409,210,85157,1,0,0:0:0:0:
410,253,85223,1,0,0:0:0:0:
396,293,85288,1,0,0:0:0:0:
370,326,85353,1,0,0:0:0:0:
329,341,85419,2,0,L|244:320,1,85.3333333333333,10|0,0:0|0:0,0:0:0:0:
192,253,85615,2,0,L|109:273,1,85.3333333333333
67,263,85811,5,2,0:0:0:0:
40,231,85876,1,0,0:0:0:0:
25,191,85941,1,0,0:0:0:0:
24,148,86007,1,0,0:0:0:0:
38,108,86072,1,0,0:0:0:0:
64,75,86137,1,0,0:0:0:0:
107,68,86204,2,0,P|154:76|189:88,1,85.3333333333333,10|0,0:0|0:0,0:0:0:0:
275,88,86400,2,0,P|315:75|357:67,1,85.3333333333333
438,96,86596,6,0,P|462:131|481:169,1,85.3333333333333,2|0,0:0|0:0,0:0:0:0:
415,224,86792,2,0,P|394:184|369:149,1,85.3333333333333
275,88,86988,2,0,P|205:76|139:76,1,136.000002593994,14|0,0:0|0:0,0:0:0:0:
39,311,87380,5,2,0:0:0:0:
101,300,87478,1,0,0:0:0:0:
158,328,87576,1,0,0:0:0:0:
223,317,87674,1,0,0:0:0:0:
280,346,87772,2,0,L|349:335,1,64
440,247,87968,1,0,0:0:0:0:
479,197,88066,1,0,0:0:0:0:
477,134,88164,2,0,P|466:102|440:82,1,64,2|2,0:0|0:0,0:0:0:0:
315,82,88360,2,0,P|284:88|250:83,1,64,2|2,0:0|0:0,0:0:0:0:
105,19,88556,5,2,0:0:0:0:
94,84,88655,1,2,0:0:0:0:
82,146,88753,1,2,0:0:0:0:
71,208,88851,1,2,0:0:0:0:
