osu file format v9

[General]
AudioFilename: Parasite World.mp3
AudioLeadIn: 3000
PreviewTime: 53738
Countdown: 1
SampleSet: Soft
StackLeniency: 0.7
Mode: 0
LetterboxInBreaks: 1

[Editor]
Bookmarks: 88414,88859
DistanceSpacing: 1.3
BeatDivisor: 4
GridSize: 8

[Metadata]
Title:Parasite World
Artist:TERRA underground
Creator:Crimmi
Version:Extra Stage
Source:beatmania IIDX 13 DistorteD
Tags:tebt jun naoki bemani konami hyper j-core

[Difficulty]
HPDrainRate:9
CircleSize:4
OverallDifficulty:7
ApproachRate:8
SliderMultiplier:1.8
SliderTickRate:2

[Events]
//Background and Video events
Video,0,"beatmaniaIIDX 13 DistorteD - Parasite World.avi"
0,0,"605011-bigthumbnail.jpg"
//Break Periods
2,69948,71664
//Storyboard Layer 0 (Background)
//Storyboard Layer 1 (Fail)
//Storyboard Layer 2 (Pass)
//Storyboard Layer 3 (Foreground)
//Storyboard Sound Samples
//Background Colour Transformations
3,100,128,128,0

[TimingPoints]
415,444.444444444444,4,2,0,90,1,0
53738,-100,4,2,0,100,0,1
69738,-100,4,2,0,100,0,0
88414,-133.333333333333,4,2,0,100,0,0
89293,-100,4,2,0,100,0,1
108405,-100,4,2,0,0,0,0

[Colours]
Combo1 : 192,192,192
Combo2 : 255,255,255
Combo3 : 128,128,0

[HitObjects]
112,192,415,1,4
216,128,637,1,0
104,144,859,1,2
208,88,1081,1,0
328,88,1303,1,0
432,144,1526,1,0
312,128,1748,1,2
408,192,1970,1,0
208,88,2192,6,0,B|112:152,1,90,4|0
232,208,2637,1,2
296,312,2859,2,0,B|384:240,1,90
208,88,3303,2,0,B|120:160,1,90,0|2
232,208,3748,1,0
352,208,3970,5,4
240,248,4192,1,0
352,208,4414,1,2
264,288,4637,1,0
352,208,4859,1,0
296,312,5081,1,0
352,208,5303,1,2
336,328,5526,1,0
352,208,5748,6,0,B|408:184,3,45,2|2|2|2
448,160,6192,2,2,B|416:112,3,45,2|2|2|2
384,80,6637,2,0,B|320:112,3,45,2|2|2|2
296,128,7081,2,0,B|232:168,3,45,2|2|2|2
200,176,7526,5,4
208,192,7637,1,0
216,208,7748,1,2
224,224,7859,1,0
232,240,7970,1,4
240,256,8081,1,0
248,272,8192,1,2
256,288,8303,1,0
264,304,8415,1,4
256,320,8526,1,0
248,336,8637,1,0
232,344,8748,1,0
216,352,8859,1,2
144,264,9081,1,2
80,352,9303,6,0,B|24:272,1,90,4|0
28,278,9748,2,0,B|29:175,1,90
28,188,10081,1,2
152,64,10415,5,0
208,40,10526,1,2
264,32,10637,1,0
320,40,10748,1,0
376,64,10859,1,2
416,176,11081,5,4
296,176,11303,1,0
352,280,11526,1,2
296,176,11748,1,0
296,176,11859,1,2
120,176,12192,1,0
296,176,12415,1,2
119,209,12637,1,0
296,207,12859,5,4
120,243,13081,1,0
294,244,13303,1,2
200,320,13526,1,0
200,320,13637,1,2
200,144,13970,1,0
200,144,14081,1,2
200,144,14192,1,0
200,144,14303,1,2
200,144,14415,1,2
256,40,14637,5,4
410,120,14859,1,0
256,194,15081,1,0
408,256,15303,1,4
256,195,15526,1,0
96,256,15748,1,0
256,352,15970,1,4
256,40,16192,1,0
136,40,16415,6,0,B|96:80|136:136,1,90,4|0
136,240,16859,2,0,B|176:264|240:240,1,90,8|0
280,224,17192,1,0
328,192,17303,1,0
448,192,17526,1,0
384,288,17748,2,0,B|384:168,1,90,8|0
384,80,18192,5,0
328,192,18414,1,0
280,80,18637,1,8
240,192,18859,1,0
176,80,19081,1,0
384,80,19303,1,0
280,280,19526,1,8
280,80,19748,1,0
176,80,19970,6,0,B|112:152,1,90,4|0
280,80,20414,2,0,B|360:168,1,90,8|0
176,192,20859,2,0,B|120:264,1,90
280,192,21303,2,0,B|344:264,1,90,8|0
224,336,21748,1,2
352,256,21970,1,0
176,192,22192,1,2
352,112,22414,1,0
240,32,22637,2,0,B|248:32|248:32|240:40|240:40|248:40|248:40|240:48|240:48|248:48|248:48|240:56|240:56|248:56|248:56|240:64|240:64|248:64|248:64|240:72|240:72|248:72|248:72|240:80|240:80|248:80|248:80|240:88|240:88|248:88|248:88|240:96|240:96|248:96|248:96|240:104|240:104|248:104|248:104|240:112|240:112|248:112|248:112|240:120|240:120|248:120|248:120,1,180,2|2
176,192,23303,1,0
96,144,23526,6,0,B|56:192|112:256,1,90,4|0
176,112,23970,2,0,B|224:88|272:120,1,90,8|0
176,256,24414,2,0,B|224:272|280:248,1,90
408,184,24859,2,0,B|304:184,1,90,8|0
200,184,25303,1,8
168,184,25414,1,0
136,184,25526,1,0
96,184,25637,1,0
72,216,25748,1,8
64,248,25859,1,0
88,280,25970,1,0
120,280,26081,1,0
152,280,26192,2,8,B|152:272|152:272|160:280|160:280|160:272|160:272|168:280|168:280|168:272|168:272|176:280|176:280|176:272|176:272|184:280|184:280|184:272|184:272|192:280|192:280|192:272|192:272|200:280|200:280|200:272|200:272|208:280|208:280|208:272|208:272|216:280|216:280|216:272|216:272|224:280|224:280|224:272|224:272,1,180
280,280,26859,1,2
392,248,27081,6,0,B|384:248|384:248|392:240|392:240|384:240|384:240|392:232|392:232|384:232|384:232|392:224|392:224|384:224|384:224|392:216|392:216|384:216|384:216|392:208|392:208|384:208|384:208|392:200|392:200|384:200|384:200|392:192|392:192|384:192|384:192|392:184|392:184|384:184|384:184|392:176|392:176|384:176|384:176,1,180,4|4
384,112,27748,1,0
328,8,27970,1,4
280,112,28192,1,0
384,112,28414,2,0,B|288:112,1,90,4|0
328,8,28859,2,0,B|224:8,1,90
208,56,29192,1,2
184,112,29303,2,0,B|272:112,1,90
328,112,29637,1,0
392,112,29748,5,0
440,144,29859,1,2
440,200,29970,1,0
392,232,30081,1,0
336,232,30192,1,2
280,232,30303,1,0
232,256,30414,1,0
192,280,30526,1,0
136,272,30637,5,4
48,200,30859,1,0
160,232,31081,1,2
64,160,31303,1,0
64,160,31414,1,2
232,96,31748,1,0
160,232,31970,1,0
256,304,32192,1,2
352,232,32414,5,4
256,168,32637,1,0
352,104,32859,1,2
352,232,33081,1,0
352,232,33192,1,2
256,304,33526,1,2
208,344,33637,1,0
152,352,33748,1,2
96,344,33859,1,0
48,304,33970,1,2
152,248,34192,5,4
352,232,34414,1,0
152,192,34637,1,2
352,184,34859,1,0
352,184,34970,1,2
256,40,35303,5,0
256,72,35414,1,2
256,104,35526,1,0
256,136,35637,1,2
256,168,35748,1,0
256,200,35859,1,2
256,192,35970,12,2,37303
96,192,37748,5,4
96,192,37859,1,0
96,192,37970,1,0
256,80,38192,1,2
256,80,38414,1,0
424,192,38637,1,4
424,192,38748,1,0
424,192,38859,1,0
256,304,39081,1,2
256,304,39303,1,0
360,248,39526,5,4
176,208,39748,1,0
360,96,39970,1,2
176,32,40192,1,0
360,248,40414,1,4
360,96,40637,1,0
176,208,40859,1,4
176,32,41081,1,0
248,120,41303,6,0,B|160:120,2,90,4|0|2
336,192,41970,1,0
296,232,42081,1,0
248,272,42192,1,4
288,312,42303,1,0
336,352,42414,1,0
384,312,42526,1,0
424,272,42637,1,2
336,192,42859,1,0
336,72,43081,5,4
288,40,43192,1,0
232,40,43303,1,0
176,64,43414,1,0
136,112,43526,1,2
144,168,43637,1,0
192,192,43748,1,0
248,184,43859,1,0
304,168,43970,1,4
360,184,44081,1,0
408,224,44192,1,0
392,280,44303,1,0
336,288,44414,1,4
248,360,44637,1,0
136,320,44859,5,4
56,240,45081,2,0,B|112:208|176:240,1,90,0|8
48,104,45526,2,0,B|96:128|152:88,1,90
184,72,45859,1,2
232,40,45970,2,0,B|264:88|240:128,1,90,0|8
240,240,46414,1,0
288,272,46526,1,0
336,240,46637,6,0,B|368:192|336:144,1,90,0|2
296,48,47081,1,8
400,96,47303,1,0
280,88,47526,1,2
384,144,47748,1,0
280,192,47970,1,2
280,192,48081,1,0
280,192,48192,1,0
280,192,48414,6,0,B|224:216|184:184,1,90,4|0
136,168,48748,1,0
80,184,48859,2,0,B|64:224|80:272,1,90,4|0
184,320,49303,2,0,B|240:336|272:320,1,90,4|0
328,296,49637,1,0
376,264,49748,2,0,B|400:208|368:168,1,90,4|0
312,80,50192,5,4
264,48,50303,1,0
208,48,50414,1,0
152,72,50526,1,0
128,128,50637,1,4
128,184,50748,1,0
152,240,50859,1,0
208,256,50970,1,0
264,256,51081,1,4
320,240,51192,1,0
344,184,51303,1,0
344,128,51414,1,4
232,152,51748,1,2
128,128,51970,6,0,B|32:88,1,90,4|0
56,208,52414,2,0,B|152:248,1,90,0|2
256,272,52859,1,0
368,248,53081,1,0
256,272,53303,1,2
312,168,53526,1,0
256,272,53748,5,4
208,168,53970,1,0
136,248,54192,1,8
48,168,54414,1,0
136,88,54637,2,0,B|136:32,2,45,0|2|0
136,144,54970,1,0
136,200,55081,2,0,B|184:240|256:184,1,90,8|0
320,144,55526,6,0,B|360:184|352:232,1,90,4|0
256,296,55970,1,8
360,352,56192,1,4
464,296,56414,1,0
256,296,56637,1,0
360,248,56859,1,8
464,192,57081,1,0
256,192,57303,5,4
360,128,57526,1,0
464,192,57748,1,8
360,248,57970,1,0
256,192,58192,1,0
464,192,58414,1,0
256,296,58637,1,8
464,296,58859,1,0
360,248,59081,5,8
360,216,59192,1,0
360,184,59303,1,0
360,144,59414,1,0
344,120,59526,1,8
304,120,59637,5,0
272,144,59748,1,0
272,176,59859,1,0
272,208,59970,1,8
272,232,60081,1,0
272,264,60192,1,0
232,280,60303,1,8
192,264,60414,1,0
192,232,60526,1,0
192,200,60637,1,8
192,168,60748,1,0
192,136,60859,5,4
72,64,61081,1,2
48,200,61303,1,8
192,136,61526,1,0
192,264,61748,1,0
304,208,61970,1,0
472,208,62192,1,8
384,104,62414,1,0
384,208,62637,5,8
384,240,62748,1,0
384,272,62859,1,0
352,288,62970,1,0
312,288,63081,1,8
280,272,63192,1,0
280,240,63303,1,0
280,208,63414,1,0
280,176,63526,5,8
248,160,63637,1,0
208,176,63748,1,0
208,208,63859,1,0
208,240,63970,1,8
208,272,64081,1,0
168,288,64192,1,0
136,272,64303,1,0
136,240,64414,5,4
32,192,64637,1,2
136,80,64859,1,8
256,192,65081,1,0
368,80,65303,1,0
480,192,65526,1,2
368,240,65748,1,8
136,240,65970,1,0
256,352,66192,6,0,B|256:168,1,180,4|0
328,144,66859,1,4
312,104,66970,1,0
280,80,67081,1,0
240,80,67192,1,0
208,104,67303,1,0
184,144,67414,1,0
256,224,67526,1,4
328,336,67748,1,0
392,224,67970,1,2
256,192,68081,12,4,69748
256,32,72414,5,4
256,192,72637,1,0
96,192,72859,1,8
256,192,73081,1,0
256,344,73303,1,0
256,192,73526,1,0
432,192,73748,1,8
256,192,73970,1,0
296,64,74192,6,0,B|248:40|208:64,1,90,0|0
216,280,74637,2,0,B|264:304|320:272,1,90,8|0
392,128,75081,2,0,B|408:184|384:216,1,90
112,216,75526,2,0,B|80:176|112:120,1,90,8|0
256,40,75970,1,4
360,176,76192,1,0
192,256,76414,1,4
360,352,76637,1,0
192,256,76859,6,0,B|160:208|208:152,1,90,4|0
352,104,77303,2,0,B|384:160|344:208,1,90,8|0
296,312,77748,2,0,B|336:328|392:312,1,90
440,208,78192,2,0,B|400:176|336:200,1,90,8|0
264,192,78637,1,0
184,128,78859,1,0
344,128,79081,1,8
264,48,79303,1,0
264,192,79526,1,0
344,128,79748,1,0
184,128,79970,1,8
264,192,80192,1,0
264,288,80414,5,4
288,312,80526,1,0
320,320,80637,1,0
344,320,80748,1,0
368,320,80859,1,4
392,312,80970,1,0
408,296,81081,1,0
424,272,81192,1,0
432,240,81303,5,4
264,192,81526,1,0
432,136,81748,1,8
264,96,81970,1,0
352,48,82192,1,0
352,80,82303,1,0
352,112,82414,1,0
352,144,82526,1,0
352,176,82637,1,8
352,272,82859,5,0
120,272,83081,1,0
352,232,83303,1,0
120,232,83526,1,8
352,192,83748,1,0
120,192,83970,1,0
352,144,84192,1,0
120,144,84414,1,8
352,96,84637,1,0
120,96,84859,1,4
352,48,85081,1,0
120,48,85303,1,4
232,48,85526,1,0
232,80,85637,5,0
232,112,85748,1,4
232,144,85859,1,0
264,152,85970,1,2
296,144,86081,1,0
304,112,86192,1,0
304,80,86303,1,2
304,48,86414,1,0
344,40,86526,5,0
376,48,86637,1,2
384,80,86748,1,0
384,112,86859,1,0
384,144,86970,1,2
384,176,87081,1,0
384,208,87192,1,0
352,224,87303,1,0
312,208,87414,5,0
272,224,87526,1,2
232,208,87637,1,0
200,224,87748,1,2
168,208,87859,1,0
128,224,87970,1,0
96,208,88081,1,2
64,224,88192,1,0
24,200,88414,2,0,B|16:200|16:200|24:192|24:192|16:192|16:192|24:184|24:184|16:184|16:184|24:176|24:176|16:176|16:176|24:168|24:168|16:168|16:168|24:160|24:160|16:160|16:160|24:152|24:152|16:152|16:152|24:144|24:144|16:144|16:144|24:136|24:136|16:136|16:136|24:128|24:128|16:128|16:128|24:120|24:120|16:120|16:120|24:112|24:112|16:112|16:112,1,202.49999396503,2|2
136,120,89303,5,4
224,64,89526,1,0
136,120,89748,1,8
224,144,89970,1,0
136,120,90192,1,0
184,216,90414,1,2
80,216,90637,1,8
136,120,90859,1,0
224,144,91081,6,0,B|288:168|320:128,1,90,4|0
264,64,91526,1,0
360,64,91748,2,0,B|376:112|360:160,1,90,4|0
304,224,92192,2,0,B|352:248|392:224,1,90,0|4
440,168,92637,1,0
456,200,92748,1,0
464,232,92859,5,4
456,264,92970,1,0
432,288,93081,1,0
400,304,93192,1,0
360,312,93303,1,8
240,312,93526,1,0
360,248,93748,1,0
240,312,93970,1,0
352,184,94192,1,8
240,312,94414,1,0
120,248,94637,5,8
136,240,94748,1,0
152,232,94859,1,0
168,224,94970,1,0
184,216,95081,1,8
200,208,95192,1,0
217,201,95303,1,0
352,184,95526,5,8
224,128,95748,1,0
352,72,95970,1,8
224,24,96192,1,0
112,72,96414,1,4
112,104,96526,1,0
112,136,96637,1,0
112,168,96748,1,0
112,200,96859,5,8
256,336,97081,1,0
152,184,97303,1,2
256,336,97526,1,0
192,176,97748,1,8
256,336,97970,1,0
232,168,98192,5,4
256,336,98414,2,0,B|304:360|352:328,1,90
296,248,98859,2,0,B|320:208|288:160,1,90,4|0
176,48,99303,2,0,B|152:88|168:136,1,90,0|4
168,256,99748,1,0
288,256,99970,5,4
320,256,100081,1,0
360,248,100192,1,0
376,216,100303,1,0
376,184,100414,1,8
328,128,100637,5,0
120,128,100859,1,8
328,224,101081,1,0
120,224,101303,1,8
328,128,101526,1,0
120,224,101748,1,4
328,224,101970,1,0
120,128,102192,1,0
224,16,102414,2,0,B|232:16|232:16|224:24|224:24|232:24|232:24|224:32|224:32|232:32|232:32|224:40|224:40|232:40|232:40|224:48|224:48|232:48|232:48|224:56|224:56|232:56|232:56|224:64|224:64|232:64|232:64|224:72|224:72|232:72|232:72|224:80|224:80|232:80|232:80|224:88|224:88|232:88,1,180,4|0
232,176,103081,1,4
232,312,103303,1,0
128,248,103526,5,4
160,248,103637,1,0
192,248,103748,1,0
224,248,103859,1,0
256,248,103970,1,2
288,248,104081,1,0
320,248,104192,1,0
352,240,104303,1,0
376,216,104414,1,2
376,184,104526,1,0
352,152,104637,1,0
320,152,104748,1,0
288,152,104859,1,2
256,152,104970,1,0
224,152,105081,1,0
256,192,105303,12,0,108414
