osu file format v9

[General]
AudioFilename: Parasite World.mp3
AudioLeadIn: 0
PreviewTime: 53738
Countdown: 1
SampleSet: Soft
StackLeniency: 0.7
Mode: 0
LetterboxInBreaks: 1

[Editor]
DistanceSpacing: 1.1
BeatDivisor: 4
GridSize: 8

[Metadata]
Title:Parasite World
Artist:TERRA underground
Creator:Crimmi
Version:Beginner
Source:beatmania IIDX 13 DistorteD
Tags:tebt jun naoki bemani konami hyper j-core

[Difficulty]
HPDrainRate:1
CircleSize:3
OverallDifficulty:1
ApproachRate:1
SliderMultiplier:1
SliderTickRate:2

[Events]
//Background and Video events
Video,0,"beatmaniaIIDX 13 DistorteD - Parasite World.avi"
0,0,"605011-bigthumbnail.jpg"
//Break Periods
2,30837,33391
2,69948,75169
//Storyboard Layer 0 (Background)
//Storyboard Layer 1 (Fail)
//Storyboard Layer 2 (Pass)
//Storyboard Layer 3 (Foreground)
//Storyboard Sound Samples
//Background Colour Transformations
3,100,128,128,64

[TimingPoints]
415,444.444444444444,4,2,0,50,1,0
53738,-100,4,2,0,100,0,1
69738,-100,4,2,0,100,0,0
89293,-100,4,2,0,100,0,1
108405,-100,4,2,0,0,0,0

[Colours]
Combo1 : 192,192,192
Combo2 : 255,255,255
Combo3 : 128,128,0

[HitObjects]
256,192,12859,12,0,15526
96,192,16415,5,4
168,112,16859,1,8
256,48,17303,1,0
344,112,17748,1,8
416,192,18192,1,0
344,280,18637,1,8
256,344,19081,1,0
168,280,19526,1,8
256,216,19970,6,0,B|256:104,2,100,0|2|0
368,216,21303,1,8
368,328,21748,2,0,B|312:328|312:368|256:368,2,100,0|8|0
480,328,23081,1,2
480,216,23526,6,0,B|480:128|392:128|392:128|392:200,1,200,4|0
392,296,24859,1,8
280,296,25303,2,0,B|208:296|208:208|208:208|288:208,1,200,0|2
392,208,26637,5,8
392,96,27081,2,0,B|272:96,1,100,4|2
184,96,27970,2,0,B|184:208,1,100,4|8
256,192,28859,12,4,30637
256,192,35081,12,2,36859
440,192,37748,6,0,B|328:192|328:264|240:264,1,200,4|4
144,264,39081,1,2
144,152,39526,1,4
368,152,40414,1,4
256,344,41303,6,0,B|256:240,2,100,4|0|4
480,344,43081,1,4
480,120,43970,2,0,B|368:120,1,100,4|2
272,128,44859,6,0,B|208:160|208:224,1,100,4|8
120,272,45748,2,0,B|144:320|224:320,1,100,0|8
312,320,46637,1,0
312,208,47081,1,2
400,272,47526,1,0
400,48,48414,6,0,B|280:48,1,100,4|8
192,48,49303,2,0,B|192:160,1,100,4|2
192,256,50192,2,0,B|240:288|296:248,1,100,0|2
256,192,51081,12,2,52859
256,80,53748,5,4
192,168,54192,1,8
192,280,54637,1,0
96,224,55081,1,8
96,112,55526,2,0,B|264:112,2,150,0|2|0
96,224,57303,6,0,B|144:256|192:232,1,100,4|8
288,176,58192,2,0,B|336:216|336:272,1,100,0|8
448,264,59081,2,0,B|448:104,2,150,0|2|8
336,264,60859,6,0,B|128:264,1,200,4|2
48,192,62192,1,8
136,128,62637,2,0,B|296:128,2,150,0|2|8
48,64,64414,5,4
48,176,64859,1,2
120,264,65303,1,8
184,176,65748,1,2
256,264,66192,2,0,B|296:288|360:288|408:248,2,150,0|2|0
256,192,67970,12,4,69748
136,288,76859,6,0,B|256:288,2,100,4|2|0
136,176,78192,1,8
248,176,78637,2,0,B|408:176,2,150,0|2|0
248,64,80414,1,4
152,104,80859,1,4
152,216,81303,5,4
256,256,81748,1,8
360,216,82192,1,0
464,256,82637,1,8
464,368,83081,2,0,B|352:368,1,100,0|8
256,368,83970,6,0,B|256:256,1,100,0|8
256,160,84859,1,2
256,192,85303,12,2,88414
432,192,89303,5,4
320,192,89748,1,8
376,96,90192,2,0,B|336:72|312:72|272:96,1,100,0|2
176,96,91081,2,0,B|96:56|24:104,2,150,4|2|4
104,184,92859,5,4
176,264,93303,1,8
256,184,93748,2,0,B|368:184,1,100,0|8
464,184,94637,2,0,B|464:32,2,150,4|2|4
464,296,96414,1,4
352,296,96859,6,0,B|232:296,1,100,8|0
144,296,97748,1,0
143,192,98192,2,0,B|79:192|43:231|39:292,2,150,4|2|4
256,184,99970,1,4
256,296,100414,1,8
352,240,100859,5,0
352,352,101303,1,8
448,296,101748,2,0,B|448:176|360:112,1,200,0|8
256,120,103081,5,2
176,192,103526,2,0,B|144:224|144:288,1,100,4|2
256,272,104414,1,0
336,192,104859,1,2
256,192,105303,12,0,108414
