osu file format v9

[General]
AudioFilename: Parasite World.mp3
AudioLeadIn: 3000
PreviewTime: 53738
Countdown: 1
SampleSet: Soft
StackLeniency: 0.7
Mode: 0
LetterboxInBreaks: 1

[Editor]
Bookmarks: 14627,15293,15960
DistanceSpacing: 1.1
BeatDivisor: 4
GridSize: 8

[Metadata]
Title:Parasite World
Artist:TERRA underground
Creator:Crimmi
Version:Another
Source:beatmania IIDX 13 DistorteD
Tags:tebt jun naoki bemani konami hyper j-core

[Difficulty]
HPDrainRate:8
CircleSize:4
OverallDifficulty:8
ApproachRate:8
SliderMultiplier:1.5
SliderTickRate:2

[Events]
//Background and Video events
Video,0,"beatmaniaIIDX 13 DistorteD - Parasite World.avi"
0,0,"605011-bigthumbnail.jpg"
//Break Periods
2,30837,33442
2,69948,71664
//Storyboard Layer 0 (Background)
//Storyboard Layer 1 (Fail)
//Storyboard Layer 2 (Pass)
//Storyboard Layer 3 (Foreground)
//Storyboard Sound Samples
//Background Colour Transformations
3,100,128,128,0

[TimingPoints]
415,444.444444444444,4,2,0,90,1,0
14627,-200,4,2,0,35,0,0
15293,-200,4,2,0,50,0,0
15960,-100,4,2,0,60,0,0
53738,-100,4,2,0,100,0,1
69738,-100,4,2,0,100,0,0
89293,-100,4,2,0,100,0,1
108405,-100,4,2,0,0,0,0

[Colours]
Combo1 : 192,192,192
Combo2 : 255,255,255
Combo3 : 128,128,0

[HitObjects]
256,40,415,1,4
188,88,637,1,0
256,136,859,1,2
328,88,1081,1,0
256,136,1303,1,0
192,184,1526,1,0
216,216,1637,1,0
256,232,1748,1,2
296,216,1859,1,0
320,184,1970,1,0
392,136,2192,6,0,B|424:168|424:224,1,75,4|0
424,288,2637,2,0,B|384:328|344:328,1,75,2|0
280,328,3081,1,0
200,328,3303,1,0
168,304,3414,1,0
144,272,3526,1,2
168,240,3637,1,0
200,208,3748,1,0
256,192,3970,12,2,5303
256,320,5748,5,0
346,191,5970,1,0
256,56,6192,1,2
167,194,6414,1,0
256,320,6637,1,0
304,256,6859,5,0
328,224,6970,1,0
346,191,7081,1,2
328,152,7192,1,0
304,120,7303,1,0
256,192,7526,12,2,8859
96,192,9303,5,4
152,128,9526,1,0
208,192,9748,1,2
152,256,9970,1,0
152,256,10081,1,0
152,256,10415,2,0,B|192:280|232:272,1,75
304,272,10859,1,2
304,192,11081,6,0,B|384:192,2,75,4|0|0
224,192,11748,1,0
224,192,11859,1,2
224,72,12192,1,0
184,88,12303,1,0
152,112,12415,1,2
128,144,12526,1,0
112,184,12637,1,0
104,264,12859,6,0,B|144:296|176:288,1,75,4|0
256,288,13303,1,0
336,288,13526,1,0
336,288,13637,1,2
296,216,13970,1,0
320,184,14081,1,0
336,144,14192,1,2
320,104,14303,1,0
296,72,14415,1,0
216,64,14637,2,0,B|96:64,2,112.499996647239,4|4|4
216,144,16415,5,4
216,224,16637,2,0,B|176:248|136:248,1,75,0|8
64,248,17081,2,0,B|80:304|128:328,1,75
184,312,17526,1,0
224,312,17637,1,0
264,312,17748,1,8
344,312,17970,1,0
344,232,18192,2,0,B|264:232,2,75,0|2|8
424,232,18859,1,0
384,160,19081,2,0,B|384:72,3,75,0|2|8|10
304,88,19970,6,0,B|208:88,1,75,4|0
232,168,20414,2,0,B|152:168,1,75,8|0
144,88,20859,2,0,B|56:88,1,75
64,168,21303,2,0,B|64:264,2,75,8|0|8
69,89,21970,1,0
64,168,22192,1,8
136,120,22414,1,2
64,168,22637,2,0,B|64:208|112:208|112:272,1,112.5,4|4
208,344,23303,1,0
208,344,23526,6,0,B|248:360|304:336,2,75,4|0|8
152,280,24192,1,0
152,280,24414,2,0,B|112:296|72:272,2,75,0|0|8
200,216,25081,1,0
256,152,25303,1,0
256,152,25414,1,0
256,152,25526,1,2
312,216,25748,1,0
360,152,25970,1,2
416,216,26192,2,0,B|416:312,3,75,4|0|4|0
360,352,27081,6,0,B|320:368|264:344,1,75,4|0
216,304,27526,1,8
216,304,27748,1,0
136,304,27970,2,0,B|136:224,1,75,4|0
136,144,28414,1,8
136,144,28637,1,0
136,144,28859,6,0,B|192:168|256:128,1,112.5,4|0
244,134,29526,2,0,B|280:224|216:288,1,150,4|0
144,256,30192,1,0
128,296,30303,1,0
88,312,30414,1,2
48,296,30526,1,0
32,256,30637,1,4
256,192,34192,12,4,35970
256,200,36414,5,2
328,152,36637,1,0
256,104,36859,1,2
256,160,36970,1,0
256,200,37081,1,0
296,224,37192,1,0
328,248,37303,1,2
288,280,37414,1,0
256,296,37526,1,0
184,248,37748,6,0,B|104:288|32:232,1,150,4|0
40,160,38414,1,0
40,160,38526,1,0
40,160,38637,2,0,B|96:112|200:112,1,150,4|0
256,144,39303,1,0
256,144,39414,1,0
256,144,39526,2,0,B|296:208|272:288,2,150,4|0|4
320,96,40637,2,0,B|288:64|248:64,2,75,0|4|0
368,160,41303,6,0,B|400:192|392:240,1,75,4|0
400,312,41748,1,2
400,312,41970,1,0
320,320,42192,2,0,B|248:360|144:312,1,150,4|2
112,272,42859,1,0
112,272,42970,1,0
112,272,43081,2,0,B|80:208|120:128,1,150,4|2
200,88,43748,1,0
256,192,43970,12,4,44859
256,192,45303,5,8
256,192,45526,1,0
312,136,45748,1,0
376,80,45970,1,0
440,136,46192,1,8
376,192,46414,1,0
312,248,46637,2,0,B|272:272|272:272|224:272,2,75,0|2|8
376,192,47303,1,0
312,248,47526,2,0,B|352:272|352:272|400:272,2,75,0|2|8
248,192,48192,1,0
184,248,48414,6,0,B|144:280|104:280,1,75,4|0
32,280,48859,2,0,B|32:200,1,75,2|0
32,120,49303,1,4
64,96,49414,1,0
96,120,49526,1,0
64,200,49748,1,0
128,248,49970,1,2
192,200,50192,6,0,B|256:160|344:208,1,150,4|0
334,203,50859,2,0,B|392:168|360:64,1,150,4|0
280,56,51526,1,2
240,48,51637,1,0
200,40,51748,1,2
160,48,51859,1,0
120,56,51970,1,2
256,192,52081,12,2,53303
256,80,53748,6,0,B|216:88|192:128,1,75,4|0
112,128,54192,2,0,B|96:176|152:208,1,75,8|0
200,248,54637,1,0
168,272,54748,1,0
136,296,54859,1,2
200,344,55081,1,8
240,360,55192,1,0
280,344,55303,1,0
320,360,55414,1,0
360,344,55526,6,0,B|416:328|440:240|416:200,1,150,4|0
423,220,56192,2,0,B|424:144|352:112|312:128,1,150,4|0
256,160,56859,1,4
216,176,56970,1,0
176,184,57081,1,0
136,176,57192,1,0
96,160,57303,5,4
32,208,57526,1,8
96,264,57748,1,0
32,320,57970,1,8
64,288,58081,1,0
96,264,58192,2,0,B|168:304|272:256,1,150,0|8
320,248,58859,1,0
360,240,58970,1,0
392,216,59081,6,0,B|424:184|416:96|344:80,1,150,4|0
365,88,59748,2,0,B|280:64|240:96|224:128,1,150,4|0
160,160,60414,1,4
136,192,60526,1,0
112,224,60637,1,0
136,256,60748,1,0
160,288,60859,5,4
232,328,61081,1,0
304,288,61303,1,8
232,240,61526,1,0
304,200,61748,1,8
376,240,61970,1,0
376,160,62192,1,8
448,200,62414,1,0
448,120,62637,6,0,B|416:64|336:64|296:96,1,150,4|0
315,84,63303,2,0,B|248:136|160:80,1,150,4|0
96,88,63970,1,4
64,120,64081,1,0
56,160,64192,1,2
64,200,64303,1,0
88,232,64414,5,4
160,192,64637,1,0
232,232,64859,1,8
160,280,65081,1,0
200,304,65192,1,0
232,328,65303,1,0
304,280,65526,1,0
304,360,65748,1,0
384,328,65970,1,8
456,280,66192,6,0,B|472:240|456:168|384:160,1,150,4|0
395,162,66859,2,0,B|352:192|296:200|240:160,1,150,4|0
192,112,67526,1,2
128,168,67748,1,2
128,168,67859,1,0
256,192,67970,12,4,69748
112,192,72414,6,0,B|176:256,1,75,4|0
232,200,72859,2,0,B|176:144,1,75,8|0
120,88,73303,2,0,B|64:144,2,75,0|2|0
184,32,73970,1,2
248,88,74192,2,0,B|288:128|288:192|240:240,1,150,2|2
184,272,74859,2,0,B|224:312|288:312|336:264,1,150,0|2
256,224,75526,2,0,B|256:144,2,75,0|2|0
184,184,76192,1,0
112,224,76414,1,2
40,184,76637,6,0,B|96:128,1,75,0|4
152,72,77081,2,0,B|240:72,1,75
312,72,77526,1,0
312,72,77748,1,2
312,152,77970,1,0
312,152,78192,1,2
368,216,78414,1,0
312,280,78637,2,0,B|256:312|192:296|160:272,1,150,0|2
168,277,79303,2,0,B|120:208|152:128,1,150
149,135,79970,2,0,B|176:104|240:104,1,75,2|0
304,104,80414,2,0,B|336:176|304:256,1,150,4|4
232,280,81081,1,0
152,304,81303,6,0,B|152:256|104:256|104:152,1,150,4|8
176,120,81970,1,0
208,104,82081,1,0
248,80,82192,2,0,B|312:120|304:224,1,150,0|8
304,296,82859,1,0
384,296,83081,2,0,B|424:280|424:184|368:168,1,150,0|2
374,170,83748,2,0,B|304:208|224:168,1,150,0|2
160,128,84414,2,0,B|112:176,2,37.5,2|2|2
224,80,84859,2,0,B|296:48|384:88,1,150,4|4
256,192,85748,12,0,87526
256,192,87970,5,2
304,120,88192,1,0
256,56,88414,1,2
208,120,88637,1,0
256,192,88859,1,2
256,272,89081,1,0
288,256,89192,1,0
328,232,89303,6,0,B|384:176,2,75,4|0|8
256,272,89970,1,0
216,256,90081,1,2
184,232,90192,1,0
152,256,90303,1,2
112,272,90414,1,0
32,272,90637,1,8
72,200,90859,1,0
72,120,91081,6,0,B|144:88|232:128,1,150,4|0
217,122,91748,2,0,B|296:160|376:120,1,150,4|0
432,80,92414,1,4
456,112,92526,1,0
464,152,92637,1,2
456,192,92748,1,0
432,224,92859,5,4
352,192,93081,1,0
280,152,93303,1,8
352,104,93526,1,0
352,192,93748,1,2
280,152,93970,1,0
280,232,94192,1,8
352,280,94414,1,2
280,320,94637,6,0,B|208:368|112:304,1,150,4|0
137,319,95303,2,0,B|89:242|145:170,1,150,4|0
208,128,95970,1,4
248,112,96081,1,0
288,104,96192,1,0
328,112,96303,1,0
368,128,96414,5,4
416,192,96637,1,0
368,256,96859,1,8
312,192,97081,1,0
256,256,97303,1,0
312,320,97526,1,2
256,376,97748,1,8
224,344,97859,1,0
200,320,97970,1,0
144,256,98192,6,0,B|104:192|152:104,1,150,4|0
147,113,98859,2,0,B|224:160|312:104,1,150,4|0
368,80,99526,1,4
384,120,99637,1,0
400,160,99748,1,2
384,200,99859,1,0
368,240,99970,5,4
336,312,100192,1,2
288,240,100414,1,8
256,312,100637,1,0
216,240,100859,1,0
176,312,101081,1,2
136,240,101303,1,8
120,280,101414,1,0
96,312,101526,1,0
48,240,101748,6,0,B|16:200|24:128|96:104,1,150,4|0
152,152,102414,1,4
192,168,102526,1,0
232,184,102637,1,2
272,168,102748,1,0
312,152,102859,1,2
376,104,103081,1,8
440,152,103303,1,2
376,208,103526,6,0,B|376:304,2,75,4|0|2
440,152,104192,1,0
408,128,104303,1,0
368,112,104414,1,2
328,128,104526,1,0
288,144,104637,1,0
248,152,104748,1,2
208,144,104859,1,2
168,128,104970,1,2
128,112,105081,1,0
256,192,105303,12,0,108414
