osu file format v4

[General]
AudioFilename: TERRA - We Are.mp3
AudioLeadIn: 2000
AudioHash: dd9b110c9d9563e7bec73bcfe756e939
PreviewTime: -1
Countdown: 1
SampleSet: Normal

[Metadata]
Title:We Are
Artist:TERRA
Creator:James
Version:Hard

[Difficulty]
HPDrainRate:4
CircleSize:5
OverallDifficulty:6
SliderMultiplier: 1.6
SliderTickRate: 1

[Events]
//Background and Video events
1,-1400,"weare.avi"
//Break Periods
2,57541,68505
//Storyboard Layer 0 (Background)
4,0,0,"info.png",525,410 F,0,0,1000,0,1 M,1,0,1000,-525,410,525,410 F,0,6000,7000,1,0 M,1,6000,7000,525,410,640,410
//Storyboard Layer 1 (Failing)
//Storyboard Layer 2 (Passing)
//Storyboard Layer 3 (Foreground)
//Storyboard Sound Samples
//Background Colour Transformations
3,100,255,213,255

[TimingPoints]
770,428.571428571429,4,2,0,100
12984,428.571428571429,4,1,0,100
73197,428.571428571429,4,2,0,100
78982,428.571428571429,4,1,0,100

[Colours]
Combo1 : 255,255,255
Combo2 : 255,72,164
Combo3 : 163,154,158
Combo4 : 244,162,232

[HitObjects]
64,80,770,2,0,B|64:80|122:51|192:80,1,120
248,56,1412,1,0
288,88,1627,1,0
184,184,2270,1,0
232,168,2484,2,0,B|232:168|298:128|368:184,1,120
416,144,3127,1,0
448,176,3341,1,0
312,312,4198,5,0
216,200,4841,1,0
256,176,5055,1,0
312,96,5484,2,0,B|312:96|270:75|191:128|136:80,1,160
56,96,7627,6,0,B|56:96|87:75|140:112|192:88,1,120
240,112,8270,2,0,B|240:112|276:125|291:159|224:176,1,80
80,256,9341,2,0,B|80:256|31:288|52:340|112:336,1,120
168,352,9984,2,0,B|168:352|199:372|225:336|264:368,1,80
400,272,11055,6,0,B|400:272|472:268|492:183|480:123|392:112,1,240
344,104,11912,2,0,B|344:104|284:77|236:149|160:80,1,160
104,56,12770,1,0
80,96,12984,5,0
104,136,13198,1,0
72,200,13520,1,0
120,200,13734,1,0
120,200,13841,1,0
120,200,13948,1,0
120,200,14055,1,0
184,200,14269,6,0,B|184:200|172:185|192:183|191:185,2,40
240,240,14805,1,0
296,200,15127,1,0
328,232,15341,1,0
392,200,15662,1,0
392,128,15984,6,0,B|392:128|407:116|409:136|407:135,2,40
328,96,16520,1,0
272,136,16841,1,0
232,112,17055,1,0
160,112,17376,2,0,B|160:112|96:128|77:191|96:224,1,120
104,288,17912,6,0,B|104:288|144:317|184:271|232:304,1,120
288,320,18555,1,0
336,304,18770,1,0
384,248,19091,1,0
392,176,19412,1,0
376,128,19627,1,0
344,64,19948,2,0,B|344:64|326:34|286:22|232:32,1,120
56,40,21126,6,0,B|56:40|44:25|64:23|63:25,2,40
56,112,21662,1,0
56,184,21984,1,0
56,232,22198,1,0
64,304,22519,2,0,B|64:304|66:361|124:345|192:344,1,120
208,344,23055,1,0
280,344,23376,1,0
352,344,23698,1,0
400,344,23912,2,0,B|400:344|476:344|455:299|456:232,1,120
456,192,24555,5,0
416,160,24769,1,0
352,192,25091,1,0
288,160,25412,1,0
256,192,25626,1,0
256,48,26269,6,0,B|256:48|271:36|273:56|271:55,2,40
184,48,26805,1,0
112,48,27126,1,0
64,48,27341,1,0
64,304,28198,6,0,B|64:304|95:280|141:325|192:288,1,120
248,272,28841,1,0
296,264,29055,2,0,B|296:264|268:320|326:324|375:271|256:256,2,120
288,192,29912,5,0
288,192,30019,1,0
248,160,30234,1,0
280,96,30555,1,0
264,48,30769,2,0,B|264:48|322:26|328:96,2,80
216,64,31412,1,0
184,96,31626,2,0,B|184:96|142:125|119:164|128:208,1,120
152,264,32269,5,0
200,264,32484,1,0
248,264,32698,1,0
296,264,32912,2,0,B|296:264|392:264,2,80
296,192,33662,1,0
296,120,33984,1,0
248,120,34198,1,0
128,32,34841,5,0
104,72,35055,1,0
128,152,35376,1,0
136,232,35698,1,0
112,272,35912,1,0
232,192,36555,1,0
272,168,36769,1,0
352,192,37091,1,0
424,192,37412,1,0
464,168,37626,1,0
344,176,38055,5,0
288,128,38484,2,0,B|288:128|218:54|124:60|40:136,1,240
40,152,39341,1,0
80,208,39662,2,0,B|80:208|113:241|160:200|200:224,1,120
240,240,40198,1,0
440,192,41912,5,0
440,192,42019,1,0
320,192,42234,1,0
320,192,42341,1,0
200,192,42555,1,0
200,192,42662,1,0
80,192,42876,1,0
80,192,42984,1,0
40,256,43198,1,0
80,320,43410,5,0
80,320,43517,1,0
80,320,43624,2,0,B|80:320|144:320|192:320|224:320|256:320,1,160
288,320,44267,1,0
288,320,44374,1,0
336,320,44588,1,0
336,320,44695,1,0
368,288,44910,1,0
392,248,45124,1,0
408,200,45341,2,0,B|408:200|432:155|416:100|384:72,1,120
336,48,45981,1,0
288,48,46195,1,0
152,88,46838,5,0
192,64,47055,2,0,B|192:64|227:36|274:87|320:48,2,120
192,112,47910,1,0
256,144,48231,1,0
328,160,48552,1,0
304,200,48769,2,0,B|304:200|336:229|375:187|432:216,2,120
264,232,49624,1,0
168,248,50055,2,0,B|168:248|112:267|106:311|135:348|208:344,1,160
424,328,51767,5,0
424,280,51981,1,0
424,232,52198,2,0,B|424:232|450:186|392:144|424:104,1,120
432,48,52838,1,0
384,48,53052,1,0
144,72,53912,6,0,B|144:72|190:95|233:28|272:104,1,120
312,128,54552,1,0
272,160,54769,2,0,B|272:160|234:189|184:131|144:184,1,120
104,216,55412,1,0
152,232,55626,2,0,B|152:232|189:263|234:211|280:256,1,120
336,272,56267,1,0
384,288,56484,2,0,B|384:288|312:371|245:324|146:260|64:360,1,320
56,72,69555,5,0
112,72,69769,1,0
168,72,69984,1,0
168,72,70091,1,0
168,128,70305,5,0
168,128,70412,1,0
168,128,70519,1,0
168,128,70626,1,0
224,128,70841,1,0
224,128,70948,1,0
224,128,71055,1,0
224,184,71269,5,4
224,240,71484,5,0
224,240,71591,1,0
224,240,71698,1,0
224,240,71805,1,0
280,240,72019,1,0
280,240,72126,1,0
280,240,72234,1,0
280,240,72341,1,0
336,240,72555,1,0
336,240,72662,1,0
336,240,72769,1,0
336,240,72876,5,0
448,224,73197,5,0
384,224,73411,1,0
320,224,73626,1,0
256,224,73841,1,0
224,224,73948,1,0
192,224,74055,1,0
128,224,74268,1,0
64,224,74482,1,0
32,160,74697,1,0
96,160,74911,1,0
160,160,75125,1,0
224,160,75339,1,0
288,160,75554,1,0
320,160,75661,1,0
352,160,75768,1,0
416,160,75982,1,0
480,160,76197,1,0
384,56,76625,5,0
424,104,76839,1,0
280,216,77482,1,0
240,168,77696,1,0
80,272,78339,1,0
120,320,78553,1,0
32,32,78982,5,0
32,96,79197,1,0
96,96,79411,1,0
96,160,79625,1,0
160,160,79839,1,0
160,160,79946,1,0
160,160,80053,1,0
160,224,80267,1,0
224,224,80482,1,0
224,288,80696,1,0
224,288,80803,1,0
288,288,81017,1,0
288,288,81124,1,0
288,352,81339,1,0
400,296,81767,5,0
448,248,81982,1,0
400,200,82196,1,0
448,160,82410,1,0
448,160,82517,1,0
400,112,82732,1,0
400,112,82839,1,0
448,72,83053,1,0
320,48,83482,5,0
272,96,83697,1,0
224,48,83911,1,0
176,96,84125,1,0
176,96,84232,1,0
128,48,84447,1,0
128,48,84554,1,0
80,96,84768,1,0
80,184,85196,5,0
104,184,85303,1,0
128,184,85410,1,0
152,184,85517,1,0
176,184,85624,1,0
200,184,85732,1,0
224,184,85839,1,0
248,184,85946,1,0
272,184,86053,1,0
296,184,86160,1,0
320,184,86267,1,0
344,184,86374,1,0
368,184,86482,1,0
392,184,86589,1,0
416,184,86696,1,0
448,224,86910,6,0,B|448:224|392:296,1,80
360,248,87339,1,0
328,288,87553,1,0
328,288,87660,1,0
288,248,87874,1,0
288,248,87982,1,0
232,248,88196,2,0,B|232:248|176:320,4,80
176,248,89267,1,0
176,248,89374,1,0
144,296,89589,1,0
144,296,89696,1,0
112,248,89910,1,0
56,248,90124,5,0
56,184,90339,2,0,B|56:184|59:134|71:102|99:69|155:62|193:60|222:67|264:72,1,240
288,72,91196,1,0
344,88,91410,2,0,B|344:88|407:106|420:169|400:240,1,160
392,272,92053,1,0
344,304,92267,1,0
344,304,92374,1,0
256,304,92696,2,0,B|256:304|198:315|176:256,1,80
136,176,93339,2,0,B|136:176|167:145|211:168|258:200|304:160,1,160
368,72,95053,6,0,B|368:72|387:53|428:101|464:64,2,80
280,80,95803,2,0,B|280:80|226:119|184:43|144:112,1,120
112,72,96339,1,0
64,288,97196,2,0,B|64:288|106:313|144:258|200:304,1,120
264,280,97839,1,0
312,304,98053,2,0,B|312:304|348:326|376:304|405:289|448:328,2,120
264,280,98910,1,0
264,192,99232,2,0,B|264:192|288:163|230:116|280:64,1,120
296,24,99767,1,0
256,192,99982,12,0,102339
