osu file format v5

[General]
AudioFilename: seinaru kane ga.mp3
AudioLeadIn: 3000
PreviewTime: -1
Countdown: 1
SampleSet: Normal
StackLeniency: 0.8
Mode: 0
LetterboxInBreaks: 1
EditorDistanceSpacing: 0.800000011920929

[Metadata]
Title:Seinaru kane ga
Artist:TERRA
Creator:ironspawn
Version:Normal
Source:jpop
Tags:terra

[Difficulty]
HPDrainRate:6
CircleSize:5
OverallDifficulty:6
SliderMultiplier:2.3
SliderTickRate:4

[Events]
//Background and Video events
0,0,"BG.jpg"
//Break Periods
2,36449,39366
2,46567,50390
2,97491,101640
2,154139,158583
//Storyboard Layer 0 (Background)
//Storyboard Layer 1 (Fail)
//Storyboard Layer 2 (Pass)
//Storyboard Layer 3 (Foreground)
//Storyboard Sound Samples
//Background Colour Transformations
3,100,164,164,253

[TimingPoints]
13958,416.666666666667,4,1,0,100,1,0

[Colours]
Combo1 : 255,255,255
Combo2 : 0,0,0

[HitObjects]
251,195,13958,1,12
27,52,15208,1,12
208,64,15624,1,12
480,16,16249,1,12
178,221,17083,1,12
56,11,18958,1,12
136,272,19582,1,12
158,315,19583,1,12
488,160,20416,1,12
128,64,21249,1,12
304,120,21666,1,12
368,288,22082,1,12
264,80,23124,5,12
88,136,23541,1,12
226,234,23957,1,12
360,80,24791,2,0,L|360:200,6,115
201,138,27291,1,12
54,109,28957,1,12
330,351,29791,1,12
327,212,30207,1,12
192,80,30624,1,12
318,174,31666,5,12
318,174,32082,1,12
118,93,33749,1,12
296,120,34166,1,12
151,173,34582,1,12
152,168,34583,1,12
296,280,34999,1,12
112,304,35416,1,12
376,48,36249,1,12
99,60,40416,5,12
464,120,41249,1,12
96,128,42083,1,12
248,224,42499,1,12
88,320,42916,1,12
448,32,43958,1,12
224,200,44583,2,12,L|48:352,2,230
464,328,46041,1,12
384,160,46458,1,12
127,190,51458,5,12
232,40,51874,1,12
208,224,52291,1,12
303,161,53958,1,12
191,229,55833,1,12
239,230,56249,1,12
106,119,57083,1,12
304,205,57916,1,12
211,246,58958,1,12
169,249,59374,1,12
121,250,59791,1,12
182,136,60624,5,12
192,209,61041,1,12
225,209,61458,1,12
352,56,62291,2,12,L|176:80|360:312|352:312,4,460
262,211,67083,1,12
132,101,68749,1,12
160,104,69166,1,12
160,104,69583,1,12
204,109,69999,1,12
245,111,70416,1,12
261,211,71458,1,12
141,291,72291,1,12
180,291,72708,1,12
212,293,73124,1,12
249,294,73541,1,12
293,298,73958,1,12
256,192,74791,12,12,75208
166,90,75833,5,12
166,90,76249,1,12
209,94,76666,1,12
244,101,77083,1,12
262,191,78124,1,12
142,265,78958,1,12
174,267,79374,1,12
174,267,79791,1,12
221,271,80207,1,12
247,270,80624,1,12
256,192,81666,12,0,82291
262,191,82707,5,12
262,191,83124,1,12
262,191,83541,1,12
126,114,84582,1,12
278,97,85416,1,12
176,248,85832,1,12
280,96,86249,1,12
368,286,87082,1,12
234,286,87916,1,12
157,214,88749,1,12
132,181,89166,1,12
90,116,89582,1,12
296,32,90624,5,0
383,34,91041,1,12
445,34,91457,1,12
70,52,92291,1,12
20,48,92707,1,12
47,104,93124,1,12
348,102,93749,1,12
378,160,94166,1,12
316,157,94582,1,12
192,72,95416,2,12,L|248:184,9,115
267,209,103749,5,12
176,271,105624,1,12
137,181,107082,1,12
207,184,107499,1,12
273,180,107916,1,12
225,79,108957,1,12
162,199,109999,1,12
211,200,110416,1,12
265,201,110832,1,12
221,272,111249,1,12
344,88,112291,5,0
89,70,113124,1,12
249,183,113957,1,12
40,40,114582,6,0,L|192:216|400:96,3,460
260,189,118332,1,12
205,197,118749,1,12
236,306,119582,1,12
424,181,120416,1,12
51,62,121666,1,12
129,65,122082,1,12
295,169,123957,1,12
239,171,124374,1,12
189,171,124791,1,12
142,177,125207,1,12
99,176,125624,1,12
256,199,126458,5,0
424,131,127291,1,12
356,129,127707,1,12
299,131,128124,1,12
245,126,128541,1,12
192,125,128957,1,12
238,196,129791,1,12
192,106,130207,1,12
75,81,130624,1,12
162,236,131458,5,0
342,216,132707,1,12
334,189,133124,1,12
8,48,133749,2,12,L|472:48,2,460
122,220,137082,1,12
216,256,137916,1,12
334,276,138749,1,12
406,237,139582,1,12
410,111,140416,1,12
319,117,140832,1,12
251,114,141249,1,12
190,116,141666,1,12
131,117,142082,1,12
249,174,143124,5,0
50,147,143749,1,12
112,217,144166,1,12
211,264,144582,1,12
427,293,144999,1,12
460,182,145416,1,12
365,96,145832,1,12
172,70,146249,1,12
249,192,147291,1,12
109,226,148124,1,12
231,294,148957,1,12
304,291,149374,1,12
366,243,149791,1,12
260,196,150624,1,12
125,122,151249,1,12
372,114,152291,1,12
384,203,152707,1,12
160,216,153124,1,12
117,267,153541,1,12
314,337,153957,1,12
262,201,159583,5,12
94,78,160624,1,12
177,68,161249,1,12
317,68,162083,1,12
348,127,162499,1,12
368,194,162916,1,12
341,271,163333,1,12
206,309,163749,1,12
244,189,164791,1,12
76,36,165624,1,12
124,37,166041,1,12
124,37,166458,1,12
165,37,166874,1,12
209,37,167291,1,12
256,192,167708,12,0,168124
496,376,168749,6,12,L|344:272|400:120|224:72|160:248,2,805
376,340,172083,1,12
261,331,172499,1,12
207,335,172916,1,12
146,335,173333,1,12
105,332,173749,1,12
197,209,174791,1,12
472,296,175416,2,12,L|264:176,4,230
112,56,178124,1,12
208,152,178541,1,12
312,208,178958,1,12
237,267,179583,5,0
137,258,180624,1,12
98,191,181458,1,12
198,192,182291,1,12
280,189,182708,1,12
339,193,183124,1,12
361,90,183958,1,12
317,92,184374,1,12
251,92,184791,1,12
77,81,185416,1,12
97,117,185833,1,12
120,163,186249,1,12
431,326,187291,1,12
381,309,187708,1,12
336,293,188124,1,12
144,306,188958,1,12
169,290,189374,1,12
214,264,189791,1,12
248,180,190416,1,12
