osu file format v9

[General]
AudioFilename: TERRA Raspberry Heart.mp3
AudioLeadIn: 0
PreviewTime: 61533
Countdown: 0
SampleSet: Soft
StackLeniency: 0.4
Mode: 0
LetterboxInBreaks: 1

[Editor]
DistanceSpacing: 0.8
BeatDivisor: 2
GridSize: 4

[Metadata]
Title:Raspberry Heart
Artist:TERRA
Creator:ztrot
Version:Easy
Source:
Tags:DDR ouranhshc

[Difficulty]
HPDrainRate:1
CircleSize:3
OverallDifficulty:3
ApproachRate:3
SliderMultiplier:1.2
SliderTickRate:2

[Events]
//Background and Video events
0,0,"purple-heart-wallpapers_4908_1024x768.jpg"
//Break Periods
2,37747,48093
2,97747,108843
//Storyboard Layer 0 (Background)
//Storyboard Layer 1 (Fail)
//Storyboard Layer 2 (Pass)
//Storyboard Layer 3 (Foreground)
//Storyboard Sound Samples
//Background Colour Transformations
3,100,163,162,255

[TimingPoints]
1547,375,4,2,0,100,1,0
110297,375,4,2,0,100,1,0

[Colours]
Combo1 : 251,0,125
Combo2 : 214,5,243
Combo3 : 179,123,253
Combo4 : 114,3,114

[HitObjects]
160,80,13547,5,2
352,80,14297,1,8
192,192,15047,5,2
256,272,15422,1,0
320,192,15797,1,8
144,288,16547,6,0,B|16:224|80:80,2,240,4|8|4
256,128,18797,5,2
256,224,19172,1,0
256,320,19547,1,4
400,192,20297,5,8
256,64,21047,1,0
112,192,21797,1,8
256,320,22547,5,6
256,128,23297,1,8
352,288,24047,5,2
256,288,24422,1,0
160,288,24797,2,0,B|32:288,1,120,2|0
96,208,25547,5,4
256,96,26297,1,8
416,208,27047,5,2
352,288,27422,1,0
256,320,27797,1,8
136,169,28547,6,0,B|392:169,1,240,2|8
256,320,30047,5,2
160,320,30422,1,0
64,320,30797,2,0,B|64:192,1,120,2|0
160,224,31547,5,4
256,48,32297,5,0
256,48,32672,1,8
155,94,33047,2,0,B|258:210|358:90,2,240,2|0|2
256,256,35297,1,4
256,192,36047,12,4,37547
256,48,49547,5,4
256,336,50297,5,0
256,336,50672,1,2
256,336,51047,1,0
256,144,51797,5,2
112,272,52547,5,2
112,272,52922,1,0
112,272,53297,1,2
256,144,54047,5,8
400,272,54797,5,2
400,272,55172,1,0
400,272,55547,1,6
400,80,56297,5,8
256,208,57047,5,2
256,304,57422,1,0
176,256,57797,2,0,B|32:240|48:80,2,240,2|0|2
336,256,60047,6,0,B|480:240|464:80,1,240,2|0
384,48,61172,1,2
288,48,61547,5,4
256,240,62297,1,8
224,48,63047,5,2
128,48,63422,1,0
32,48,63797,1,8
112,224,64547,5,6
256,96,65297,1,8
256,288,66047,5,2
336,224,66422,1,0
416,160,66797,1,8
256,48,67547,6,0,B|128:48|64:176,1,240,4|2
256,224,69047,2,0,B|384:224|448:96,1,240,2|2
384,288,70547,6,0,B|304:336|208:320,2,180
376,192,72047,6,0,B|136:192,1,240,2|0
256,48,73547,5,4
448,48,74297,1,8
448,240,75047,5,2
368,192,75422,1,0
288,144,75797,1,8
64,48,76547,5,4
256,48,77297,1,8
256,240,78047,5,2
192,304,78422,1,0
112,352,78797,1,8
48,176,79547,5,4
176,32,80297,5,8
256,80,80672,1,0
336,32,81047,5,2
256,208,81797,1,8
176,32,82547,1,2
256,208,83297,1,4
96,320,84047,5,2
96,224,84422,1,0
96,128,84797,1,8
256,240,85547,5,4
256,48,86297,1,8
432,144,87047,6,0,B|432:288,2,120,4|2|4
256,240,88547,5,2
256,48,89297,1,8
80,144,90047,6,0,B|80:288,2,120,2|0|2
256,48,91547,5,4
304,240,92297,5,2
208,240,92672,1,0
256,320,93047,6,0,B|400:352|464:224,2,240,2|2|2
256,128,95297,5,0
256,320,96047,6,0,B|112:320,1,120,0|8
256,320,96797,2,0,B|400:320,1,120,0|8
464,320,97547,1,4
256,48,110297,5,4
304,336,111422,1,8
208,336,111797,2,0,B|64:320|48:176,2,240
256,256,113672,5,8
304,176,114047,1,0
208,176,114422,1,8
160,96,114797,5,2
352,96,115547,1,0
464,240,116297,5,4
192,352,117422,5,8
256,288,117797,1,0
320,352,118172,1,8
352,256,118547,5,2
160,256,119297,1,2
172,91,120047,2,0,B|183:-5|346:-6|344:117,1,240
256,144,121172,5,2
256,144,121547,1,0
384,288,122297,5,4
304,352,122672,1,8
208,352,123047,1,0
144,288,123422,1,8
201,211,123797,2,0,B|260:176|317:213,2,120,0|8|0
384,96,125297,5,4
304,32,125672,1,8
208,32,126047,1,0
144,96,126422,1,8
201,173,126797,2,0,B|260:208|317:171,2,120,0|8|0
352,288,128297,5,4
160,288,129047,1,8
160,96,129797,1,4
352,96,130547,1,8
194,206,131297,6,0,B|107:158|22:202,2,180,2|2|2
144,288,132797,2,0,B|256:368|379:286,1,240
256,192,134297,12,0,135797
48,192,136547,5,0
160,32,137297,5,0
256,32,137672,1,0
352,32,138047,1,0
464,192,138797,5,0
352,352,139547,1,0
256,192,140297,5,0
304,272,140672,1,0
208,272,141047,1,0
160,192,141422,1,0
208,112,141797,2,0,B|256:32|390:77|368:176,2,240,4|0|4
112,80,143672,5,8
48,144,144047,1,0
48,240,144422,1,8
112,304,144797,2,0,B|159:377|240:339|260:235|134:231,3,240,4|0|4|0
256,64,147797,5,4
400,192,148547,1,10
336,368,149297,5,2
256,320,149672,1,0
176,368,150047,1,8
96,192,150797,5,2
256,96,151547,1,8
176,272,152297,5,2
256,320,152672,1,0
336,272,153047,1,8
349,80,153797,6,4,B|319:9|255:4|189:11|162:81,2,240,4|0|4
256,112,155672,1,0
304,204,156047,2,0,B|320:256|280:312|256:280|256:280|232:312|192:256|208:204,2,240
256,192,158297,12,0,159797
