osu file format v9

[General]
AudioFilename: 19 LETHEBOLG.mp3
AudioLeadIn: 1000
PreviewTime: 71227
Countdown: 1
SampleSet: Normal
StackLeniency: 0.7
Mode: 0
LetterboxInBreaks: 1

[Editor]
DistanceSpacing: 1
BeatDivisor: 4
GridSize: 8

[Metadata]
Title:LETHEBOLG ~Futatsukamui ni Kiri Sakeri~
Artist:TERRA
Creator:happy30
Version:Another
Source:
Tags:

[Difficulty]
HPDrainRate:8
CircleSize:4
OverallDifficulty:8
ApproachRate:8
SliderMultiplier:2.1
SliderTickRate:1

[Events]
//Background and Video events
0,0,"floating girl sakura.jpg"
//Break Periods
//Storyboard Layer 0 (Background)
//Storyboard Layer 1 (Fail)
//Storyboard Layer 2 (Pass)
//Storyboard Layer 3 (Foreground)
//Storyboard Sound Samples
//Background Colour Transformations
3,100,163,162,255

[TimingPoints]
682,363.636363636364,4,1,1,80,1,0
682,-200,4,1,1,80,0,0
1772,-200,4,2,1,80,0,0
1954,-200,4,1,1,80,0,0
2318,-200,4,2,1,80,0,0
3409,-200,4,1,1,80,0,0
4682,-200,4,2,1,80,0,0
5227,-200,4,1,1,80,0,0
5591,-200,4,2,1,80,0,0
6318,-200,4,1,1,80,0,0
7227,-200,4,2,1,80,0,0
7772,-200,4,1,1,80,0,0
8136,-200,4,2,1,80,0,0
9227,-200,4,1,1,80,0,0
9954,-200,4,2,1,80,0,0
11045,-200,4,1,1,80,0,0
11409,-200,4,2,1,80,0,0
12136,-200,4,1,1,80,0,0
12863,-200,4,2,1,80,0,0
13591,-200,4,1,1,80,0,0
13954,-200,4,2,1,80,0,0
15045,-200,4,1,1,80,0,0
15772,-200,4,2,1,80,0,0
16863,-200,4,1,1,80,0,0
17227,-200,4,2,1,80,0,0
17954,-200,4,1,1,80,0,0
18682,-200,4,2,1,80,0,0
19409,-200,4,1,1,80,0,0
19772,-200,4,2,1,80,0,0
20863,-200,4,1,1,80,0,0
21591,-200,4,2,1,80,0,0
22682,-200,4,1,1,80,0,0
23045,-200,4,2,1,80,0,0
23954,-100,4,1,1,70,0,0
35591,-200,4,2,1,60,0,0
47227,-200,4,1,1,60,0,0
47409,-133.333333333333,4,2,1,60,0,0
49954,-200,4,1,1,60,0,0
50318,-200,4,2,1,60,0,0
52954,-133.333333333333,4,1,1,60,0,0
53136,-133.333333333333,4,2,1,60,0,0
55772,-200,4,1,1,60,0,0
56136,-200,4,2,1,60,0,0
58863,-100,4,1,0,80,0,0
71954,-100,4,1,1,80,0,1
95227,-100,4,1,1,80,0,0
106954,-142.857142857143,4,2,1,80,0,0
108227,-142.857142857143,4,1,1,80,0,0
108409,-142.857142857143,4,2,1,80,0,0
109682,-142.857142857143,4,1,1,80,0,0
109863,-142.857142857143,4,2,1,80,0,0
111136,-142.857142857143,4,1,1,80,0,0
111318,-142.857142857143,4,2,1,80,0,0
112409,-142.857142857143,4,1,1,80,0,0
112772,-142.857142857143,4,2,1,80,0,0
114045,-142.857142857143,4,1,1,80,0,0
114227,-142.857142857143,4,2,1,80,0,0
115500,-142.857142857143,4,1,1,80,0,0
115682,-142.857142857143,4,2,1,80,0,0
116954,-142.857142857143,4,1,1,80,0,0
117136,-142.857142857143,4,2,1,80,0,0
117682,-142.857142857143,4,1,1,80,0,0
117863,-142.857142857143,4,2,1,80,0,0
118045,-142.857142857143,4,1,1,80,0,0
118227,-142.857142857143,4,2,1,80,0,0
118409,-142.857142857143,4,1,1,80,0,0
131591,-100,4,1,1,80,0,1
154863,-100,4,1,1,80,0,0
166500,-200,4,1,1,80,0,0
167045,-200,4,2,1,80,0,0
178136,-133.333333333333,4,1,1,80,0,0
191227,-100,4,1,1,80,0,1
214500,-100,4,1,1,80,0,0

[Colours]
Combo1 : 158,155,164
Combo2 : 165,95,152
Combo3 : 255,255,255
Combo4 : 199,116,220

[HitObjects]
32,120,682,1,0
72,208,1045,2,0,B|168:288|264:208,1,210
192,144,2136,1,0
224,328,2499,2,0,B|320:408|416:328,1,210
480,264,3591,5,0
424,192,3954,2,0,B|200:192,1,210
120,192,5045,1,0
160,280,5409,1,0
256,304,5772,1,0
352,280,6136,1,0
392,192,6500,2,0,B|168:192,1,210
88,192,7591,1,0
32,112,7954,6,0,B|8:24|120:-24|168:56,1,210
184,136,9045,2,0,B|168:264,1,105
256,192,9772,2,0,B|480:192,1,210
416,272,10863,1,0
360,344,11227,6,0,B|317:415|205:367|229:279,1,210
496,128,12318,1,0
440,208,12681,2,0,B|344:288|248:208,1,210
320,144,13772,1,0
288,328,14135,2,0,B|192:408|96:328,1,210
32,264,15227,5,0
88,192,15590,2,0,B|312:192,1,210
392,192,16681,1,0
352,280,17045,1,0
256,304,17408,1,0
160,280,17772,1,0
120,192,18136,2,0,B|344:192,1,210
424,192,19227,1,0
480,112,19590,6,0,B|504:24|392:-24|344:56,1,210
328,136,20681,2,0,B|344:264,1,105
256,192,21408,2,0,B|32:192,1,210
88,104,22499,1,0
168,32,22863,1,0
272,48,23227,1,0
312,144,23591,1,0
248,240,23954,6,0,B|224:296|224:352,1,105,4|0
328,376,24318,1,0
144,264,24500,2,0,B|32:248,1,105
40,249,24863,1,0
120,176,25045,5,0
120,176,25227,2,0,B|232:192,1,105,0|4
304,120,25591,2,0,B|328:176|328:232,1,105
248,288,25954,1,0
144,160,26136,2,0,B|143:114|167:58,1,105
368,160,26500,2,0,B|368:114|344:58,1,105,0|0
224,184,26863,6,0,B|248:240|248:296,1,105,4|0
144,320,27227,1,0
328,208,27409,2,0,B|440:192,1,105
431,193,27772,1,0
504,272,27954,5,0
504,272,28136,2,0,B|392:288,1,105,0|4
312,352,28500,1,0
160,280,28682,2,0,B|216:304|264:280,1,105
192,160,29045,2,0,B|136:136|88:160,1,105
32,248,29409,2,0,B|48:360,1,105
144,384,29772,5,4
208,296,29954,2,0,B|232:240|272:216,1,105
368,264,30318,2,0,B|480:248,1,105
471,249,30682,1,0
392,176,30863,1,0
392,176,31045,2,0,B|280:192,1,105,0|4
208,120,31409,6,0,B|184:176|184:232,1,105
264,288,31772,1,0
368,160,31954,2,0,B|369:114|345:58,1,105
144,160,32318,2,0,B|144:114|168:58,1,105,0|0
464,160,32682,5,4
400,248,32864,2,0,B|376:304|336:328,1,105
240,280,33228,2,0,B|128:296,1,105
136,294,33591,1,0
0,232,33772,1,0
0,232,33954,2,0,B|112:216,1,105,0|4
216,360,34318,1,0
341,279,34500,2,0,B|285:303|237:279,1,105
136,128,34863,2,0,B|192:104|240:128,1,105
464,192,35227,2,0,B|408:216|360:192,1,105
296,16,35591,6,0,B|384:8|440:104,1,157.5
352,120,36318,2,0,B|312:160|288:224,1,105
224,160,36863,1,0
392,208,37045,2,0,B|424:376,1,157.5
488,248,37772,2,0,B|464:128,1,105
272,360,38500,6,0,B|192:408|112:360,1,157.5
64,304,39227,1,0
128,240,39409,2,0,B|184:184|120:152|184:96,1,157.5
181,98,40682,5,0
232,32,40863,1,0
224,176,41045,5,0
305,157,41226,1,0
200,264,41409,5,0
272,304,41591,2,0,B|304:368,1,52.5
376,336,41954,2,0,B|440:352|480:296,1,105
408,248,42500,1,0
328,264,42682,2,0,B|312:200|368:160,1,105
256,136,43227,6,0,B|232:168|232:192,1,52.5
144,200,43591,2,0,B|80:216|40:160,1,105
112,112,44137,1,0
163,33,44319,2,0,B|208:64|192:128,1,105
40,272,44863,1,0
16,352,45045,1,0
96,344,45227,2,0,B|152:288|184:352|240:288,1,157.5
237,290,46136,1,0
176,152,46500,5,0
256,184,46682,1,0
320,128,46863,1,0
304,48,47045,1,0
240,104,47227,5,0
344,264,47409,2,0,B|328:360,1,78.7499976530672
424,224,47772,2,0,B|456:32,1,157.499995306134
328,160,48318,1,0
440,328,48500,2,0,B|360:384|288:328,1,157.499995306134
168,264,49045,2,0,B|184:360,1,78.7499976530672
88,224,49409,2,0,B|56:32,1,157.499995306134
72,328,50136,2,0,B|152:384|224:328,1,157.499995306134
288,280,50863,1,0
448,176,51045,2,0,B|368:232|296:176,1,157.499995306134
32,88,51954,1,0
40,168,52136,5,0
96,232,52318,1,0
176,248,52500,1,0
248,208,52682,1,0
296,136,52863,1,0
128,56,53045,5,0
144,152,53227,2,0,B|160:248,1,78.7499976530672
104,376,53590,2,0,B|72:184,1,157.499995306134
232,112,54136,1,0
176,320,54318,2,0,B|256:376|328:320,1,157.499995306134
368,152,54863,2,0,B|352:248,1,78.7499976530672
408,376,55227,2,0,B|440:184,1,157.499995306134
208,200,55954,2,0,B|128:256|56:200,1,157.499995306134
176,120,56681,1,0
304,304,56863,2,0,B|384:360|456:304,1,157.499995306134
376,160,57772,1,0
296,176,57954,5,0
240,240,58136,1,0
208,320,58318,1,0
136,360,58500,1,0
56,344,58681,1,0
24,264,58863,6,0,B|24:192|88:160,1,105,4|0
200,272,59227,2,0,B|272:312|352:272,1,157.5
440,264,59591,2,0,B|416:384,1,105
296,184,59954,2,0,B|344:144|408:184,1,105
248,328,60318,6,0,B|168:368|96:328,1,157.5
16,296,60682,2,0,B|40:176,1,105
36,193,60954,1,0
36,193,61045,1,0
120,128,61227,1,0
296,240,61591,1,0
336,336,61772,5,0
456,168,62136,1,0
240,368,62500,1,0
80,160,62772,1,0
200,272,63045,1,0
384,112,63227,6,0,B|344:72|280:96,1,105
160,176,63591,2,0,B|200:216|264:192,1,105
257,194,63863,1,0
257,194,63954,1,0
144,64,64136,1,0
48,104,64318,2,0,B|-8:168|16:264,1,157.5
48,328,64682,6,0,B|168:352,1,105
272,248,65045,1,0
144,160,65227,2,0,B|264:136,1,105
336,312,65591,2,0,B|288:352|232:328,1,105
368,136,65954,1,0
456,176,66136,6,0,B|528:296|424:376,1,210
256,256,66682,2,0,B|216:176|304:128|264:48,1,210
120,120,67227,1,0
160,272,67409,1,0
304,200,67591,6,0,B|416:144|512:240,1,210
384,336,68136,1,0
232,368,68318,2,0,B|0:320,1,210
8,168,68863,1,0
160,200,69045,1,0
256,192,69136,12,6,70500
96,320,71227,5,6
408,320,71591,1,6
296,216,71954,6,0,B|216:264|144:216,1,157.5,4|0
80,160,72318,2,0,B|32:200|40:256,1,105
208,368,72682,1,0
224,344,72772,1,0
232,320,72863,1,0
176,232,73045,2,0,B|160:120,1,105
224,48,73409,6,0,B|264:8|328:24,1,105
440,192,73772,1,0
288,368,73954,2,0,B|248:288|336:240|296:160,1,210
192,168,74500,2,0,B|144:208|152:264,1,105
456,360,74863,6,0,B|504:280|456:208,1,157.5
416,144,75227,2,0,B|392:80|424:32,1,105
392,304,75591,2,0,B|328:328|280:296,1,105
120,344,75954,2,0,B|184:320|232:352,1,105
288,208,76318,6,0,B|168:272|88:168,1,210
40,96,76863,1,0
136,48,77045,2,0,B|176:128|88:176|128:256,1,210
192,328,77591,5,0
192,328,77682,1,0
192,328,77772,2,0,B|312:384|400:272,1,210,4|0
472,344,78318,2,0,B|528:224|464:128,1,210
368,128,78863,1,0
280,192,79045,5,0
280,192,79136,1,0
280,192,79227,2,0,B|256:240|264:304,1,105,4|0
152,376,79591,2,0,B|176:328|168:264,1,105
80,216,79954,1,0
368,328,80318,1,0
304,24,80682,6,0,B|248:144|128:80,1,210,4|0
32,48,81227,1,0
344,144,81591,1,0
440,104,81772,1,0
464,208,81954,1,0
368,248,82136,2,0,B|328:360,1,105,4|0
144,248,82500,2,0,B|184:360,1,105
312,184,82863,2,0,B|272:232|208:208,1,105,4|0
16,64,83227,2,0,B|56:16|120:40,1,105
216,216,83591,6,0,B|296:264|368:216,1,157.5,4|0
432,160,83955,2,0,B|480:200|472:256,1,105
304,368,84319,1,0
288,344,84409,1,0
280,320,84500,1,0
336,232,84682,2,0,B|352:120,1,105
288,48,85046,6,0,B|248:8|184:24,1,105
72,192,85409,1,0
224,368,85591,2,0,B|264:288|176:240|216:160,1,210
320,168,86137,2,0,B|368:208|360:264,1,105
56,360,86500,6,0,B|8:280|56:208,1,157.5
96,144,86864,2,0,B|120:80|88:32,1,105
120,304,87228,2,0,B|184:328|232:296,1,105
392,344,87591,2,0,B|328:320|280:352,1,105
224,208,87955,6,0,B|344:272|424:168,1,210
472,96,88500,1,0
376,48,88682,2,0,B|336:128|424:176|384:256,1,210
320,328,89228,5,0
320,328,89319,1,0
320,328,89409,2,0,B|200:384|112:272,1,210
40,344,89955,2,0,B|-16:224|48:128,1,210
144,128,90500,1,0
232,192,90682,5,0
232,192,90773,1,0
232,192,90864,2,0,B|256:240|248:304,1,105
360,376,91228,2,0,B|336:328|344:264,1,105
432,216,91591,1,0
144,328,91955,1,0
208,24,92319,6,0,B|264:144|384:80,1,210
480,48,92864,1,0
168,144,93228,1,0
72,104,93409,1,0
48,208,93591,1,0
144,248,93773,2,0,B|184:360,1,105
368,248,94137,2,0,B|328:360,1,105
200,184,94500,2,0,B|240:232|304:208,1,105
496,64,94864,2,0,B|456:16|392:40,1,105
401,36,95136,1,0
401,36,95227,1,0
