osu file format v12

[General]
AudioFilename: Hana Ranman ~Flowers~.mp3
AudioLeadIn: 1500
PreviewTime: 35864
Countdown: 0
SampleSet: Soft
StackLeniency: 0.7
Mode: 0
LetterboxInBreaks: 1
WidescreenStoryboard: 0

[Editor]
DistanceSpacing: 0.6
BeatDivisor: 4
GridSize: 512

[Metadata]
Title:Hana Ranman ~Flowers~
TitleUnicode:華爛漫 ~Flowers~
Artist:TERRA
ArtistUnicode:TЁЯRA
Creator:buhei
Version:Ranman
Source:Beatmania IIDX
Tags:DDR SuperNOVA Flask Nyquill nold_1702 raririn
BeatmapID:266108
BeatmapSetID:100252

[Difficulty]
HPDrainRate:6
CircleSize:4
OverallDifficulty:7
ApproachRate:9
SliderMultiplier:1.8
SliderTickRate:1

[Events]
//Background and Video events
0,0,"bg.jpg",0,0
//Break Periods
2,62314,66764
//Storyboard Layer 0 (Background)
//Storyboard Layer 1 (Fail)
//Storyboard Layer 2 (Pass)
//Storyboard Layer 3 (Foreground)
//Storyboard Sound Samples
//Background Colour Transformations
3,100,0,0,0

[TimingPoints]
-886,375,4,2,3,50,1,0
239,-142.857142857143,4,2,3,50,0,0
614,-111.111111111111,4,2,3,50,0,0
6239,-50,4,2,4,90,0,1
6614,-90.9090909090909,4,2,0,70,0,0
12239,-90.9090909090909,4,2,3,70,0,0
12614,-100,4,2,3,55,0,0
15239,-100,4,2,4,45,0,0
15614,-100,4,2,3,55,0,0
17864,-100,4,2,4,45,0,0
18614,-100,4,2,3,55,0,0
21239,-100,4,2,4,45,0,0
21614,-100,4,2,3,55,0,0
23864,-100,4,2,4,45,0,0
24239,-100,4,2,4,50,0,0
24614,-100,4,2,4,60,0,0
30426,-100,4,2,4,35,0,0
30614,-100,4,2,4,60,0,0
34176,-100,4,2,4,45,0,0
34364,-100,4,2,4,60,0,0
35114,-111.111111111111,4,2,3,45,0,0
35864,-142.857142857143,4,2,3,55,0,0
36614,-90.9090909090909,4,2,4,70,0,1
48614,-142.857142857143,4,2,3,90,0,0
48801,-142.857142857143,4,2,3,50,0,0
53489,-117.647058823529,4,2,3,55,0,0
53864,-100,4,2,3,60,0,0
54239,-100,4,2,4,70,0,0
54426,-100,4,2,4,35,0,0
54614,-90.9090909090909,4,2,0,60,0,0
57614,-90.9090909090909,4,2,0,50,0,0
57707,-90.9090909090909,4,2,0,60,0,0
58364,-90.9090909090909,4,2,0,50,0,0
58457,-90.9090909090909,4,2,0,60,0,0
59864,-90.9090909090909,4,2,0,70,0,0
60614,-90.9090909090909,4,2,3,50,0,0
67364,-166.666666666667,4,2,3,50,0,0
67739,-100,4,2,4,80,0,0
67926,-100,4,2,4,45,0,0
68114,-100,4,2,4,70,0,0
72051,-100,4,2,4,40,0,0
72239,-100,4,2,4,70,0,0
72614,-200,4,2,3,90,0,0
73364,-125,4,2,4,60,0,0
73739,-100,4,2,4,60,0,0
74114,-90.9090909090909,4,2,4,70,0,1
86114,-90.9090909090909,4,2,4,70,0,0
92020,-90.9090909090909,4,2,4,50,0,0
92114,-90.9090909090909,4,2,4,70,0,0
96614,-90.9090909090909,4,2,4,60,0,0
97364,-166.666666666667,4,2,3,50,0,0
98114,-166.666666666667,4,2,4,50,0,0
98207,-166.666666666667,4,2,4,5,0,0

[Colours]
Combo1 : 70,247,146
Combo2 : 253,100,176
Combo3 : 255,174,136
Combo4 : 232,148,241

[HitObjects]
92,203,239,6,0,L|88:140,1,62.9999980773926
92,203,614,6,0,P|130:244|195:251,1,121.499996292114,4|0,0:0|0:0,0:0:0:0:
329,198,989,2,0,P|290:192|250:201,1,80.9999975280763,8|0,0:0|0:0,0:0:0:0:
409,265,1364,2,0,P|439:210|425:154,1,121.499996292114
313,46,1739,2,0,P|335:80|370:100,1,80.9999975280763,8|0,0:0|0:0,0:0:0:0:
284,185,2114,2,0,P|213:223|177:215,1,121.499996292114
93,90,2489,2,0,P|129:110|150:143,1,80.9999975280763,8|0,0:0|0:0,0:0:0:0:
128,275,2864,5,0,0:0:0:0:
269,321,3051,1,0,0:0:0:0:
137,317,3239,1,8,0:0:0:0:
282,283,3426,1,2,0:0:0:0:
388,254,3614,6,0,P|423:211|414:148,1,121.499996292114,8|0,0:0|0:0,0:0:0:0:
368,87,3989,1,8,0:0:0:0:
464,220,4176,1,0,0:0:0:0:
303,148,4364,2,0,P|264:133|222:135,1,80.9999975280763,8|0,0:0|0:0,0:0:0:0:
99,198,4739,2,0,P|138:213|180:211,1,80.9999975280763,8|0,0:0|0:0,0:0:0:0:
81,107,5114,5,8,0:0:0:0:
51,119,5207,1,0,0:0:0:0:
28,142,5301,1,2,0:0:0:0:
14,171,5395,1,0,0:0:0:0:
12,203,5489,1,8,0:0:0:0:
16,234,5582,1,0,0:0:0:0:
32,261,5676,1,2,0:0:0:0:
56,282,5770,1,0,0:0:0:0:
72,286,5864,5,0,0:0:0:0:
88,290,5957,1,0,0:0:0:0:
104,294,6051,1,0,0:0:0:0:
120,298,6145,1,0,0:0:0:0:
136,302,6239,6,0,B|207:271|252:335|252:335|330:355|369:287,1,270,4|2,0:1|0:0,0:0:0:0:
447,177,6614,6,0,P|455:128|442:81,1,99.0000030212403,4|0,0:0|0:0,0:0:0:0:
259,16,6989,2,0,P|251:65|264:112,1,99.0000030212403,8|2,0:0|0:0,0:0:0:0:
320,189,7270,1,0,0:0:0:0:
320,189,7364,2,0,L|219:189,1,99.0000030212403,2|2,0:0|0:0,0:0:0:0:
111,93,7739,1,8,0:0:0:0:
80,287,7926,1,2,0:0:0:0:
80,287,8020,1,0,0:0:0:0:
80,287,8114,6,0,B|102:318|102:318|130:336|161:324,1,99.0000030212403,2|0,0:0|0:0,0:0:0:0:
408,339,8489,2,0,B|386:308|386:308|358:290|327:302,1,99.0000030212403,8|2,0:0|0:0,0:0:0:0:
247,334,8770,1,0,0:0:0:0:
247,334,8864,2,0,L|236:235,1,99.0000030212403,2|2,0:0|0:0,0:0:0:0:
265,50,9239,2,0,L|276:149,1,99.0000030212403,8|0,0:0|0:0,0:0:0:0:
378,218,9614,6,0,P|428:228|474:218,1,99.0000030212403,4|0,0:0|0:0,0:0:0:0:
493,51,9989,2,0,P|443:41|397:51,1,99.0000030212403,8|2,0:0|0:0,0:0:0:0:
318,88,10270,1,0,0:0:0:0:
318,88,10364,2,0,L|219:73,1,99.0000030212403,4|2,0:0|0:0,0:0:0:0:
56,180,10739,2,0,L|155:195,1,99.0000030212403,8|2,0:0|0:0,0:0:0:0:
251,223,11020,1,0,0:0:0:0:
251,223,11114,6,0,P|266:272|254:318,1,99.0000030212403,4|0,0:0|0:0,0:0:0:0:
72,369,11489,2,0,P|57:320|69:274,1,99.0000030212403,4|0,0:0|0:0,0:0:0:0:
251,223,11864,1,4,0:0:0:0:
322,256,12051,1,2,0:0:0:0:
379,202,12239,1,8,0:0:0:0:
308,169,12426,1,2,0:0:0:0:
251,223,12614,6,0,P|229:168|247:93,1,135,4|0,0:0|0:0,0:0:0:0:
244,18,12989,2,0,L|162:53,1,90,8|0,0:0|0:0,0:0:0:0:
30,192,13364,2,0,L|112:157,1,90,2|0,0:0|0:0,0:0:0:0:
56,58,13739,1,8,0:0:0:0:
30,192,13926,2,0,B|-2:254|44:306|44:306|73:321|107:321,1,180,2|2,0:0|0:0,0:0:0:0:
188,318,14395,1,0,0:0:0:0:
188,318,14489,2,0,L|277:315,1,90,8|0,0:0|0:0,0:0:0:0:
370,158,14864,2,0,L|281:161,1,90,2|0,0:0|0:0,0:0:0:0:
499,41,15239,5,4,0:1:0:0:
244,88,15426,1,2,0:0:0:0:
244,88,15520,1,0,0:0:0:0:
244,88,15614,6,0,P|208:121|195:160,1,90,2|0,0:0|0:0,0:0:0:0:
343,266,15989,2,0,P|379:233|392:194,1,90,8|0,0:0|0:0,0:0:0:0:
252,279,16364,2,0,P|271:323|306:350,1,90,2|0,0:0|0:0,0:0:0:0:
284,191,16739,1,8,0:0:0:0:
159,297,16926,2,0,B|104:348|26:320|26:320|11:281,1,180,2|2,0:0|0:0,0:0:0:0:
20,206,17395,1,0,0:0:0:0:
20,206,17489,2,0,L|105:170,1,90,8|2,0:0|0:0,0:0:0:0:
324,32,17864,5,4,0:1:0:0:
320,67,17957,1,0,0:0:0:0:
304,99,18051,1,2,0:0:0:0:
278,123,18145,1,0,0:0:0:0:
245,136,18239,5,4,0:1:0:0:
295,119,18332,1,0,0:0:0:0:
348,124,18426,1,2,0:0:0:0:
392,154,18520,1,0,0:0:0:0:
415,202,18614,6,0,P|413:269|367:318,1,135,4|0,0:0|0:0,0:0:0:0:
209,305,18989,2,0,P|252:288|301:295,1,90,8|0,0:0|0:0,0:0:0:0:
156,374,19364,2,0,P|130:344|124:290,1,90,2|0,0:0|0:0,0:0:0:0:
168,112,19739,1,8,0:0:0:0:
45,225,19926,2,0,L|222:184,1,180,2|2,0:0|0:0,0:0:0:0:
266,249,20395,1,0,0:0:0:0:
266,249,20489,2,0,P|310:235|354:243,1,90,8|0,0:0|0:0,0:0:0:0:
443,360,20864,5,2,0:0:0:0:
428,327,20957,1,0,0:0:0:0:
430,291,21051,1,2,0:0:0:0:
448,259,21145,1,0,0:0:0:0:
479,240,21239,5,4,0:1:0:0:
472,204,21332,1,0,0:0:0:0:
464,168,21426,1,2,0:0:0:0:
454,132,21520,1,0,0:0:0:0:
447,96,21614,6,0,L|363:65,1,90,2|0,0:0|0:0,0:0:0:0:
181,150,21989,2,0,L|265:181,1,90,8|0,0:0|0:0,0:0:0:0:
99,208,22364,2,0,P|80:169|83:123,1,90,2|0,0:0|0:0,0:0:0:0:
192,42,22739,1,8,0:0:0:0:
265,181,22926,2,0,B|301:248|227:290|227:290|201:293|181:306,1,180,2|2,0:0|0:0,0:0:0:0:
113,344,23395,1,0,0:0:0:0:
113,344,23489,2,0,L|22:324,1,90,8|2,0:0|0:0,0:0:0:0:
296,336,23864,5,4,0:1:0:0:
336,328,23957,1,0,0:0:0:0:
376,320,24051,1,2,0:0:0:0:
416,312,24145,1,0,0:0:0:0:
456,304,24239,5,4,0:1:0:0:
416,312,24332,1,0,0:0:0:0:
376,320,24426,1,8,0:0:0:0:
336,328,24520,1,8,0:0:0:0:
296,336,24614,6,0,P|243:308|232:233,1,135,4|0,0:0|0:0,0:0:0:0:
340,136,24989,2,0,P|299:160|255:165,1,90,8|2,0:0|0:0,0:0:0:0:
28,135,25364,1,2,0:0:0:0:
97,321,25551,1,0,0:0:0:0:
97,321,25645,1,0,0:0:0:0:
97,321,25739,2,0,L|106:230,1,90,8|2,0:0|0:0,0:0:0:0:
255,45,26114,6,0,B|247:91|247:91|258:132|258:132|252:179,1,135,2|0,0:0|0:0,0:0:0:0:
230,265,26489,2,0,P|275:249|316:254,1,90,8|2,0:0|0:0,0:0:0:0:
464,325,26864,1,2,0:0:0:0:
464,325,26957,1,8,0:0:0:0:
464,325,27051,1,0,0:0:0:0:
355,179,27239,1,8,0:0:0:0:
441,56,27426,1,2,0:0:0:0:
441,56,27520,1,0,0:0:0:0:
441,56,27614,6,0,B|412:98|356:89|356:89|323:68,1,135,2|0,0:0|0:0,0:0:0:0:
167,43,27989,2,0,B|194:21|227:23|227:23|251:36,1,90,8|2,0:0|0:0,0:0:0:0:
296,164,28364,2,0,P|301:208|290:251,1,90,2|2,0:0|0:0,0:0:0:0:
183,364,28645,1,0,0:0:0:0:
183,364,28739,2,0,P|178:320|189:277,1,90,8|2,0:0|0:0,0:0:0:0:
296,164,29114,5,2,0:0:0:0:
183,364,29301,1,0,0:0:0:0:
53,259,29489,1,8,0:0:0:0:
224,258,29676,1,2,0:0:0:0:
384,321,29864,5,2,0:0:0:0:
384,321,29957,1,12,0:1:0:0:
384,321,30051,1,0,0:0:0:0:
418,26,30239,1,12,0:1:0:0:
296,164,30426,1,8,0:0:0:0:
296,164,30520,1,8,0:0:0:0:
296,164,30614,6,0,P|230:151|166:175,1,135,4|0,0:0|0:0,0:0:0:0:
24,228,30989,2,0,P|69:237|116:230,1,90,8|2,0:0|0:0,0:0:0:0:
145,97,31364,2,0,P|100:88|53:95,1,90,2|2,0:0|0:0,0:0:0:0:
221,64,31645,1,0,0:0:0:0:
221,64,31739,2,0,P|266:73|313:66,1,90,8|2,0:0|0:0,0:0:0:0:
433,32,32114,5,2,0:0:0:0:
432,197,32301,1,0,0:0:0:0:
432,197,32395,1,0,0:0:0:0:
432,197,32489,1,8,0:0:0:0:
328,300,32676,2,0,P|266:317|206:284,1,135,2|0,0:0|0:0,0:0:0:0:
166,216,33051,1,2,0:0:0:0:
246,354,33239,1,8,0:0:0:0:
245,164,33426,1,2,0:0:0:0:
245,164,33520,1,0,0:0:0:0:
245,164,33614,6,0,P|184:122|125:130,1,135,2|0,0:0|0:0,0:0:0:0:
74,192,33989,1,8,0:0:0:0:
189,46,34176,1,8,0:0:0:0:
189,46,34270,1,8,0:0:0:0:
189,46,34364,5,4,0:0:0:0:
309,35,34551,1,2,0:0:0:0:
498,162,34739,1,4,0:0:0:0:
474,141,34832,1,0,0:0:0:0:
443,133,34926,1,8,0:0:0:0:
411,135,35020,1,0,0:0:0:0:
385,147,35114,6,0,P|378:189|385:229,1,80.9999975280763,8|0,0:0|0:0,0:0:0:0:
432,366,35489,2,0,P|439:324|432:284,1,80.9999975280763,8|0,0:0|0:0,0:0:0:0:
303,329,35864,2,0,B|248:353|238:315|178:338,1,125.999996154785,4|0,0:0|0:0,0:0:0:0:
179,337,36614,6,0,P|110:321|86:247,1,148.50000453186,4|0,0:0|0:0,0:0:0:0:
104,179,36989,1,8,0:0:0:0:
88,347,37176,1,2,0:0:0:0:
28,122,37364,2,0,P|62:92|113:85,1,99.0000030212403,2|2,0:0|0:0,0:0:0:0:
199,116,37645,1,0,0:0:0:0:
199,116,37739,2,0,L|298:110,1,99.0000030212403,8|2,0:0|0:0,0:0:0:0:
459,235,38114,6,0,P|425:293|351:293,1,148.50000453186,2|2,0:0|0:0,0:0:0:0:
289,245,38489,1,8,0:0:0:0:
437,330,38676,1,2,0:0:0:0:
227,323,38864,2,0,L|129:319,1,99.0000030212403,2|2,0:0|0:0,0:0:0:0:
56,234,39145,1,0,0:0:0:0:
56,234,39239,2,0,P|105:221|153:233,1,99.0000030212403,8|2,0:0|0:0,0:0:0:0:
309,163,39614,6,0,P|335:102|285:47,1,148.50000453186,2|0,0:0|0:0,0:0:0:0:
134,103,39989,2,0,P|181:113|232:104,1,99.0000030212403,8|2,0:0|0:0,0:0:0:0:
465,38,40364,1,2,0:0:0:0:
390,226,40551,1,2,0:0:0:0:
390,226,40645,1,0,0:0:0:0:
390,226,40739,2,0,L|400:324,1,99.0000030212403,8|2,0:0|0:0,0:0:0:0:
243,269,41114,6,0,P|176:249|114:289,1,148.50000453186,2|2,0:0|0:0,0:0:0:0:
89,362,41489,1,8,0:0:0:0:
167,108,41676,1,2,0:0:0:0:
192,343,41864,2,0,P|241:355|293:342,1,99.0000030212403,2|0,0:0|0:0,0:0:0:0:
371,298,42145,1,8,0:0:0:0:
371,298,42239,2,0,L|421:292,1,49.5000015106202,8|0,0:0|0:0,0:0:0:0:
488,192,42426,2,0,L|438:198,1,49.5000015106202,8|0,0:0|0:0,0:0:0:0:
334,178,42614,6,0,B|299:163|299:163|277:131|280:89|304:61,1,148.50000453186,4|0,0:0|0:0,0:0:0:0:
371,20,42989,1,8,0:0:0:0:
221,194,43176,1,2,0:0:0:0:
86,36,43364,2,0,L|97:137,1,99.0000030212403,2|2,0:0|0:0,0:0:0:0:
59,211,43645,1,0,0:0:0:0:
59,211,43739,2,0,P|67:262|51:305,1,99.0000030212403,8|2,0:0|0:0,0:0:0:0:
226,313,44114,6,0,B|309:295|309:295|344:291|368:311,1,148.50000453186,2|2,0:0|0:0,0:0:0:0:
411,376,44489,1,8,0:0:0:0:
221,194,44676,1,2,0:0:0:0:
440,178,44864,2,0,P|452:128|438:83,1,99.0000030212403,2|2,0:0|0:0,0:0:0:0:
278,30,45145,1,0,0:0:0:0:
278,30,45239,2,0,P|266:80|280:125,1,99.0000030212403,8|2,0:0|0:0,0:0:0:0:
471,260,45614,6,0,L|323:239,1,148.50000453186,2|0,0:0|0:0,0:0:0:0:
255,205,45989,1,8,0:0:0:0:
93,60,46176,1,2,0:0:0:0:
141,215,46364,2,0,P|146:265|126:310,1,99.0000030212403,2|2,0:0|0:0,0:0:0:0:
229,367,46645,1,0,0:0:0:0:
229,367,46739,2,0,P|224:317|244:272,1,99.0000030212403,8|2,0:0|0:0,0:0:0:0:
442,98,47114,6,0,P|375:124|301:107,1,148.50000453186,4|2,0:0|0:0,0:0:0:0:
239,50,47489,1,8,0:0:0:0:
461,292,47676,1,2,0:0:0:0:
173,174,47864,1,4,0:0:0:0:
173,174,48239,1,4,0:0:0:0:
121,250,48426,1,0,0:0:0:0:
171,329,48614,5,4,0:0:0:0:
339,210,48989,1,0,0:0:0:0:
402,172,49176,1,0,0:0:0:0:
469,203,49364,1,8,0:0:0:0:
278,48,49739,1,0,0:0:0:0:
121,98,50020,1,2,0:0:0:0:
121,98,50114,6,0,P|99:155|114:218,1,125.999996154785,2|0,0:0|0:0,0:0:0:0:
308,334,50864,2,0,P|330:277|315:214,1,125.999996154785,8|0,0:0|0:0,0:0:0:0:
240,112,51520,1,2,0:0:0:0:
240,112,51614,6,0,B|248:114|248:114|255:105|255:105|264:111|264:111|270:102|270:102|280:108|280:108|286:99|286:99|295:106|295:106|302:96|302:96|311:103|311:103|318:94|318:94|327:100|327:100|333:91|333:91|342:93|342:93|389:85|389:85,1,188.999994232178,2|0,0:0|0:0,0:0:0:0:
479,67,52364,1,8,0:0:0:0:
265,208,52739,1,0,0:0:0:0:
429,192,53114,6,0,L|443:253,1,62.9999980773926,2|0,0:0|0:0,0:0:0:0:
364,328,53489,2,0,L|289:311,1,76.5000014591217,8|0,0:0|0:0,0:0:0:0:
52,286,53864,5,2,0:0:0:0:
52,286,54051,2,0,L|59:242,1,45,2|0,0:0|0:0,0:0:0:0:
85,86,54239,5,4,0:1:0:0:
192,213,54426,1,8,0:0:0:0:
192,213,54520,1,8,0:0:0:0:
192,213,54614,6,0,P|259:192|333:212,1,148.50000453186,4|0,0:0|0:0,0:0:0:0:
466,298,54989,2,0,P|418:307|367:296,1,99.0000030212403,8|2,0:0|0:0,0:0:0:0:
161,300,55364,2,0,P|107:246|106:178,1,148.50000453186,2|0,0:0|0:0,0:0:0:0:
183,42,55739,2,0,P|196:90|184:138,1,99.0000030212403,8|2,0:0|0:0,0:0:0:0:
279,109,56020,1,0,0:0:0:0:
279,109,56114,6,0,L|327:94,1,49.5000015106202,2|0,0:0|0:0,0:0:0:0:
442,127,56301,2,0,L|394:142,1,49.5000015106202,2|0,0:0|0:0,0:0:0:0:
318,236,56489,2,0,L|366:221,1,49.5000015106202,8|0,0:0|0:0,0:0:0:0:
481,254,56676,2,0,L|433:269,1,49.5000015106202,2|0,0:0|0:0,0:0:0:0:
337,329,56864,2,0,P|264:342|208:300,1,148.50000453186,2|0,0:0|0:0,0:0:0:0:
157,167,57239,2,0,P|153:217|126:257,1,99.0000030212403,8|2,0:0|0:0,0:0:0:0:
103,71,57614,6,0,P|174:57|239:92,1,148.50000453186,4|0,0:0|0:0,0:0:0:0:
283,157,57989,1,8,0:0:0:0:
387,46,58176,1,2,0:0:0:0:
340,230,58364,2,0,P|262:246|206:209,1,148.50000453186,4|0,0:0|0:0,0:0:0:0:
172,140,58739,1,8,0:0:0:0:
246,347,58926,1,2,0:0:0:0:
246,347,59020,1,0,0:0:0:0:
246,347,59114,5,4,0:0:0:0:
424,132,59301,1,2,0:0:0:0:
147,86,59489,1,4,0:0:0:0:
246,347,59676,1,2,0:0:0:0:
424,132,59864,1,4,0:0:0:0:
424,132,60239,1,4,0:0:0:0:
256,192,60614,12,4,62114,0:0:0:0:
333,220,67364,6,0,P|347:271|328:323,1,107.999996704102,0|4,0:0|0:0,0:0:0:0:
174,150,67926,1,8,0:0:0:0:
174,150,68020,1,8,0:0:0:0:
174,150,68114,6,0,P|149:226|100:244,1,135,4|0,0:0|0:0,0:0:0:0:
29,231,68489,1,8,0:0:0:0:
76,42,68676,1,2,0:0:0:0:
174,150,68864,2,0,P|243:176|301:159,1,135,2|0,0:0|0:0,0:0:0:0:
356,111,69239,1,8,0:0:0:0:
442,269,69426,1,2,0:0:0:0:
296,315,69614,6,0,L|160:304,1,135,0|2,0:0|0:0,0:0:0:0:
87,318,69989,1,8,0:0:0:0:
207,189,70176,1,2,0:0:0:0:
372,252,70364,1,2,0:0:0:0:
460,100,70551,1,2,0:0:0:0:
460,100,70645,1,0,0:0:0:0:
460,100,70739,2,0,P|414:88|372:94,1,90,8|2,0:0|0:0,0:0:0:0:
137,63,71114,6,0,P|186:103|256:96,1,135,4|0,0:0|0:0,0:0:0:0:
311,49,71489,1,8,0:0:0:0:
207,189,71676,1,2,0:0:0:0:
35,156,71864,1,2,0:0:0:0:
65,295,72051,1,8,0:0:0:0:
65,295,72145,1,8,0:0:0:0:
65,295,72239,1,8,0:0:0:0:
180,302,72426,1,2,0:0:0:0:
207,189,72614,6,0,P|280:154|359:206,1,180,4|8,0:0|0:0,0:0:0:0:
357,202,73457,5,12,0:1:0:0:
428,51,73645,1,10,0:0:0:0:
428,51,73739,1,12,0:1:0:0:
488,268,73926,1,12,0:1:0:0:
476,155,74114,6,0,P|426:98|357:95,1,148.50000453186,4|0,0:0|0:0,0:0:0:0:
289,140,74489,1,8,0:0:0:0:
461,26,74676,1,2,0:0:0:0:
250,53,74864,2,0,L|150:57,1,99.0000030212403,2|2,0:0|0:0,0:0:0:0:
61,118,75145,1,0,0:0:0:0:
61,118,75239,2,0,P|47:165|59:213,1,99.0000030212403,8|2,0:0|0:0,0:0:0:0:
300,304,75614,6,0,P|221:272|161:292,1,148.50000453186,2|2,0:0|0:0,0:0:0:0:
102,343,75989,1,8,0:0:0:0:
300,208,76176,1,2,0:0:0:0:
449,316,76364,2,0,L|420:220,1,99.0000030212403,2|2,0:0|0:0,0:0:0:0:
395,136,76645,1,0,0:0:0:0:
395,136,76739,2,0,L|419:36,1,99.0000030212403,8|2,0:0|0:0,0:0:0:0:
254,127,77114,6,0,B|220:158|176:140|176:140|150:119|116:119,1,148.50000453186,2|0,0:0|0:0,0:0:0:0:
35,125,77489,1,8,0:0:0:0:
312,54,77676,1,2,0:0:0:0:
119,209,77864,2,0,P|104:255|116:302,1,99.0000030212403,2|2,0:0|0:0,0:0:0:0:
208,344,78145,1,0,0:0:0:0:
208,344,78239,2,0,L|307:338,1,99.0000030212403,8|2,0:0|0:0,0:0:0:0:
474,219,78614,6,0,B|408:243|397:196|329:218,1,148.50000453186,2|2,0:0|0:0,0:0:0:0:
255,254,78989,1,8,0:0:0:0:
444,76,79176,1,2,0:0:0:0:
248,137,79364,2,0,L|148:122,1,99.0000030212403
65,90,79645,1,8,0:0:0:0:
65,90,79739,2,0,P|58:116|60:141,1,49.5000015106202,8|0,0:0|0:0,0:0:0:0:
76,218,79926,2,0,P|82:244|97:264,1,49.5000015106202,8|0,0:0|0:0,0:0:0:0:
206,324,80114,6,0,P|261:283|339:293,1,148.50000453186,4|0,0:0|0:0,0:0:0:0:
391,353,80489,1,8,0:0:0:0:
305,128,80676,1,2,0:0:0:0:
458,280,80864,2,0,L|469:180,1,99.0000030212403,2|2,0:0|0:0,0:0:0:0:
402,54,81145,1,0,0:0:0:0:
402,54,81239,2,0,L|391:154,1,99.0000030212403,8|2,0:0|0:0,0:0:0:0:
252,229,81614,6,0,B|193:250|139:215|139:215|112:228,1,148.50000453186,2|2,0:0|0:0,0:0:0:0:
41,269,81989,1,8,0:0:0:0:
206,151,82176,1,2,0:0:0:0:
154,342,82364,1,2,0:0:0:0:
133,105,82551,1,2,0:0:0:0:
133,105,82645,1,0,0:0:0:0:
133,105,82739,2,0,P|175:71|220:67,1,99.0000030212403,8|2,0:0|0:0,0:0:0:0:
463,117,83114,6,0,P|378:135|325:105,1,148.50000453186,2|0,0:0|0:0,0:0:0:0:
293,33,83489,1,8,0:0:0:0:
460,220,83676,1,2,0:0:0:0:
460,220,83864,2,0,L|361:213,1,99.0000030212403,2|2,0:0|0:0,0:0:0:0:
281,309,84145,1,0,0:0:0:0:
281,309,84239,2,0,L|380:316,1,99.0000030212403,8|2,0:0|0:0,0:0:0:0:
256,219,84614,5,2,0:0:0:0:
216,222,84707,1,0,0:0:0:0:
179,238,84801,1,0,0:0:0:0:
150,265,84895,1,0,0:0:0:0:
133,301,84989,1,2,0:0:0:0:
94,292,85082,1,0,0:0:0:0:
63,266,85176,1,2,0:0:0:0:
44,230,85270,1,0,0:0:0:0:
40,190,85364,5,4,0:0:0:0:
48,158,85457,1,0,0:0:0:0:
56,126,85551,1,2,0:0:0:0:
64,94,85645,1,0,0:0:0:0:
72,62,85739,2,0,P|92:48|115:40,1,49.5000015106202,4|0,0:0|0:0,0:0:0:0:
241,41,85926,2,0,P|221:55|198:63,1,49.5000015106202,2|0,0:0|0:0,0:0:0:0:
261,139,86114,6,0,P|323:106|394:127,1,148.50000453186,4|0,0:0|0:0,0:0:0:0:
435,193,86489,1,8,0:0:0:0:
307,312,86676,1,2,0:0:0:0:
307,312,86770,2,0,L|209:293,1,99.0000030212403
157,206,87051,2,0,L|255:225,1,99.0000030212403,0|8,0:0|0:0,0:0:0:0:
134,323,87426,1,2,0:0:0:0:
33,209,87614,6,0,P|21:123|57:76,1,148.50000453186,2|0,0:0|0:0,0:0:0:0:
126,46,87989,1,8,0:0:0:0:
316,72,88176,1,2,0:0:0:0:
316,72,88270,2,0,L|416:61,1,99.0000030212403
481,128,88551,2,0,L|381:139,1,99.0000030212403,0|8,0:0|0:0,0:0:0:0:
224,266,88926,1,2,0:0:0:0:
345,336,89114,6,0,P|424:333|464:282,1,148.50000453186,2|0,0:0|0:0,0:0:0:0:
474,206,89489,1,8,0:0:0:0:
308,259,89676,1,2,0:0:0:0:
308,259,89770,2,0,L|317:159,1,99.0000030212403
249,67,90051,2,0,L|240:167,1,99.0000030212403,0|8,0:0|0:0,0:0:0:0:
339,32,90426,1,2,0:0:0:0:
144,104,90614,5,2,0:0:0:0:
32,88,90801,1,0,0:0:0:0:
8,200,90989,1,8,0:0:0:0:
120,216,91176,1,0,0:0:0:0:
144,104,91364,1,2,0:0:0:0:
176,296,91551,1,0,0:0:0:0:
368,264,91739,1,8,0:0:0:0:
336,72,91926,1,8,0:0:0:0:
336,72,92020,1,8,0:0:0:0:
336,72,92114,6,0,P|337:142|279:185,1,148.50000453186,4|0,0:0|0:0,0:0:0:0:
201,185,92489,1,8,0:0:0:0:
399,195,92676,1,2,0:0:0:0:
399,195,92770,2,0,P|452:206|482:238,1,99.0000030212403
496,312,93051,2,0,P|443:301|413:269,1,99.0000030212403,0|8,0:0|0:0,0:0:0:0:
447,115,93426,1,2,0:0:0:0:
330,298,93614,6,0,L|179:286,1,148.50000453186,2|0,0:0|0:0,0:0:0:0:
107,304,93989,1,8,0:0:0:0:
48,161,94176,1,2,0:0:0:0:
48,161,94270,2,0,L|39:63,1,99.0000030212403
115,31,94551,2,0,L|124:129,1,99.0000030212403,0|8,0:0|0:0,0:0:0:0:
107,304,94926,1,2,0:0:0:0:
214,189,95114,6,0,P|282:163|356:185,1,148.50000453186,2|0,0:0|0:0,0:0:0:0:
409,235,95489,1,8,0:0:0:0:
292,337,95676,1,2,0:0:0:0:
292,337,95770,2,0,L|390:329,1,99.0000030212403
467,298,96051,2,0,P|496:254|492:208,1,99.0000030212403,0|8,0:0|0:0,0:0:0:0:
424,57,96426,1,2,0:0:0:0:
304,120,96614,5,2,0:0:0:0:
208,136,96801,1,2,0:0:0:0:
129,78,96989,1,10,0:0:0:0:
129,78,97364,6,0,B|71:106|57:174|97:228|97:228|132:248,1,215.999993408203,4|4,0:0|0:0,0:0:0:0:
256,192,98207,12,0,100364,0:0:0:0:
