osu file format v12

[General]
AudioFilename: Hana Ranman ~Flowers~.mp3
AudioLeadIn: 1500
PreviewTime: 35864
Countdown: 0
SampleSet: None
StackLeniency: 0.7
Mode: 0
LetterboxInBreaks: 1
WidescreenStoryboard: 0

[Editor]
DistanceSpacing: 0.6
BeatDivisor: 4
GridSize: 512

[Metadata]
Title:Hana Ranman ~Flowers~
TitleUnicode:華爛漫 ~Flowers~
Artist:TERRA
ArtistUnicode:TЁЯRA
Creator:buhei
Version:NOLD
Source:Beatmania IIDX
Tags:DDR SuperNOVA Flask Nyquill nold_1702 raririn
BeatmapID:298126
BeatmapSetID:100252

[Difficulty]
HPDrainRate:8
CircleSize:4
OverallDifficulty:7
ApproachRate:9
SliderMultiplier:1.7
SliderTickRate:1

[Events]
//Background and Video events
0,0,"bg.jpg",0,0
//Break Periods
//Storyboard Layer 0 (Background)
//Storyboard Layer 1 (Fail)
//Storyboard Layer 2 (Pass)
//Storyboard Layer 3 (Foreground)
//Storyboard Sound Samples
//Background Colour Transformations
3,100,163,162,255

[TimingPoints]
-886,375,4,1,0,100,1,0
239,-133.333333333333,4,1,23,70,0,0
426,-111.111111111111,4,1,23,70,0,0
6239,-200,4,2,24,100,0,0
6426,-100,4,1,23,20,0,0
6614,-100,4,1,23,80,0,0
6989,-90.9090909090909,4,1,23,80,0,0
7364,-83.3333333333333,4,1,23,80,0,0
7739,-76.9230769230769,4,1,23,80,0,0
8114,-83.3333333333333,4,1,23,80,0,0
9520,-100,4,1,23,80,0,0
9895,-90.9090909090909,4,1,23,80,0,0
10270,-83.3333333333333,4,1,23,80,0,0
10739,-76.9230769230769,4,1,23,80,0,0
12614,-117.647058823529,4,3,23,60,0,0
15145,-66.6666666666667,4,3,23,100,0,0
15332,-117.647058823529,4,3,23,60,0,0
21426,-166.666666666667,4,3,23,60,0,0
21614,-117.647058823529,4,3,23,60,0,0
23864,-117.647058823529,4,3,23,100,0,0
24614,-100,4,2,24,60,0,0
34739,-100,4,2,24,30,0,0
35114,-100,4,2,24,100,0,0
35676,-100,4,2,23,60,0,0
36051,-83.3333333333333,4,3,24,60,0,0
36239,-83.3333333333333,4,3,23,60,0,0
36614,-83.3333333333333,4,1,23,60,0,0
41957,-83.3333333333333,4,1,24,60,0,0
42332,-83.3333333333333,4,1,23,60,0,0
47114,-83.3333333333333,4,1,0,60,0,0
48051,-100,4,1,0,50,0,0
48614,-133.333333333333,4,1,23,60,0,0
50864,-200,4,3,23,60,0,0
51520,-133.333333333333,4,1,23,60,0,0
54614,-100,4,1,23,80,0,0
59114,-200,4,3,23,60,0,0
60614,-172.413793103448,4,3,23,20,0,0
62114,-100,4,3,23,100,0,0
62207,-100,4,2,24,60,0,0
62676,-100,4,2,0,60,0,0
62770,-100,4,2,24,60,0,0
63051,-100,4,2,0,60,0,0
63145,-100,4,2,24,60,0,0
63520,-100,4,2,0,60,0,0
63707,-100,4,2,24,60,0,0
64082,-100,4,2,0,60,0,0
64270,-100,4,2,24,60,0,0
64457,-100,4,2,23,60,0,0
64739,-100,4,2,24,60,0,0
64926,-100,4,2,0,60,0,0
65020,-100,4,2,24,60,0,0
65301,-100,4,2,0,60,0,0
66989,-83.3333333333333,4,3,23,60,0,0
67364,-100,4,3,23,60,0,0
68114,-100,4,2,0,60,0,0
70551,-100,4,2,0,40,0,0
70645,-100,4,2,0,60,0,0
70832,-100,4,2,0,40,0,0
71020,-100,4,2,0,60,0,0
72051,-100,4,1,0,40,0,0
72614,-100,4,1,0,20,0,0
73364,-133.333333333333,4,3,23,20,0,0
74114,-83.3333333333333,4,1,23,60,0,0
84614,-83.3333333333333,4,1,0,30,0,0
84989,-83.3333333333333,4,1,0,40,0,0
85364,-83.3333333333333,4,1,0,50,0,0
85739,-83.3333333333333,4,1,0,60,0,0
86114,-100,4,3,23,80,0,0
97364,-100,4,1,23,80,0,0
98114,-100,4,1,0,100,0,0
98301,-100,4,1,23,100,0,0
98770,-100,4,1,23,80,0,0
99145,-100,4,1,23,60,0,0
99520,-100,4,1,23,40,0,0
99989,-100,4,1,23,20,0,0
100270,-100,4,2,23,60,0,0

[Colours]
Combo1 : 0,0,0
Combo2 : 255,0,128
Combo3 : 128,0,255
Combo4 : 255,0,255
Combo5 : 0,128,255

[HitObjects]
144,192,239,6,0,L|184:76,1,95.6250036478044,4|0,0:0|3:0,0:0:0:0:
72,228,614,6,0,P|104:264|148:272,1,76.4999976654053,4|2,0:0|0:2,0:0:0:0:
236,148,989,1,8,0:0:0:0:
132,50,1176,5,8,0:0:0:0:
132,50,1270,1,8,0:0:0:0:
132,50,1364,2,0,P|117:96|132:138,1,76.4999976654053,4|2,0:0|0:2,0:0:0:0:
308,200,1739,2,0,P|353:215|395:200,1,76.4999976654053,8|2,0:0|0:2,0:0:0:0:
208,72,2114,5,4,0:0:0:0:
268,268,2301,2,0,L|296:352,1,76.4999976654053,2|8,0:2|0:0,0:0:0:0:
200,224,2676,1,2,0:2:0:0:
284,84,2864,2,0,P|329:69|371:84,1,76.4999976654053,4|2,0:0|0:2,0:0:0:0:
368,80,3145,1,0,0:0:0:0:
376,88,3239,1,14,0:2:0:0:
308,200,3426,1,14,0:2:0:0:
160,148,3614,21,4,0:0:0:0:
112,328,3801,2,0,P|96:288|108:240,1,76.4999976654053,2|8,0:2|0:0,0:0:0:0:
328,316,4176,1,8,0:0:0:0:
328,316,4270,1,8,0:0:0:0:
328,316,4364,2,0,P|285:309|249:275,1,76.4999976654053,4|2,0:0|0:2,0:0:0:0:
200,24,4739,2,0,L|224:116,1,76.4999976654053,8|2,0:0|0:2,0:0:0:0:
132,264,5114,6,0,P|139:221|173:185,1,76.4999976654053,4|2,0:0|0:2,0:0:0:0:
408,348,5489,2,0,L|456:368,2,38.2499988327027,8|0|2,0:0|0:0|0:2,0:0:0:0:
248,284,5864,6,0,L|232:232,1,38.2499988327027,12|0,0:0|0:0,0:0:0:0:
248,300,6051,6,0,L|199:325,1,38.2499988327027,12|8,0:0|0:0,0:0:0:0:
252,312,6239,22,0,P|280:348|304:356,1,63.75,12|0,1:2|3:0,0:0:0:0:
364,280,6614,6,0,P|416:268|468:292,1,85,4|2,0:0|0:2,0:0:0:0:
284,192,6989,2,0,P|317:137|382:113,1,93.5000028533936,8|2,0:0|0:2,0:0:0:0:
172,192,7364,2,0,P|156:123|187:54,1,101.999996887207,4|2,0:0|0:2,0:0:0:0:
176,56,7645,1,2,0:2:0:0:
208,32,7739,1,8,0:0:0:0:
56,80,7926,1,2,0:2:0:0:
16,220,8114,6,0,L|136:248,1,101.999996887207,4|2,0:0|0:2,0:0:0:0:
224,304,8489,1,8,0:0:0:0:
236,136,8676,1,2,0:2:0:0:
224,304,8864,5,4,0:0:0:0:
296,72,9051,1,8,0:0:0:0:
308,52,9145,1,2,0:2:0:0:
320,32,9239,1,0,0:0:0:0:
372,172,9426,1,8,0:0:0:0:
394,177,9520,1,2,0:2:0:0:
416,184,9614,22,0,P|364:208|320:196,1,85,4|2,0:0|0:2,0:0:0:0:
220,36,9989,2,0,L|96:48,1,93.5000028533936,8|2,0:0|0:2,0:0:0:0:
0,144,10364,2,0,P|23:180|77:200,1,101.999996887207,4|2,0:0|0:2,0:0:0:0:
222,207,10739,2,0,L|336:196,1,110.499994941712,8|2,0:0|0:2,0:0:0:0:
480,100,11114,5,4,0:0:0:0:
416,300,11301,1,8,0:0:0:0:
416,184,11489,5,8,0:0:0:0:
416,184,11864,5,8,0:0:0:0:
432,296,12051,1,4,0:0:0:0:
416,300,12145,1,4,0:0:0:0:
400,300,12239,1,12,0:0:0:0:
288,192,12426,1,12,0:0:0:0:
280,180,12520,1,0,0:0:0:0:
276,164,12614,22,0,L|288:80,1,72.2500013780594,4|0,0:0|0:0,0:0:0:0:
188,212,12989,2,0,P|148:224|112:216,1,72.2500013780594,12|0,0:0|0:0,0:0:0:0:
24,136,13364,1,12,0:0:0:0:
148,144,13551,1,12,0:0:0:0:
40,236,13739,5,0,0:0:0:0:
80,320,13926,2,0,P|118:362|208:354,1,144.500002756119,12|4,0:0|0:0,0:0:0:0:
348,296,14489,2,0,L|264:272,1,72.2500013780594,8|4,0:0|0:0,0:0:0:0:
184,240,14864,1,0,0:0:0:0:
348,164,15051,5,8,0:0:0:0:
352,168,15239,2,0,L|328:72,1,63.7500024318696,8|0,0:0|0:0,0:0:0:0:
320,76,15426,2,0,L|336:28,1,36.1250006890297,4|0,0:0|0:0,0:0:0:0:
276,224,15614,6,0,L|252:140,1,72.2500013780594,4|0,0:0|0:0,0:0:0:0:
232,64,15989,2,0,P|204:28|168:24,1,72.2500013780594,12|0,0:0|0:0,0:0:0:0:
92,72,16364,1,12,0:0:0:0:
64,168,16551,2,0,L|32:328,1,144.500002756119,12|4,0:0|0:0,0:0:0:0:
176,184,17114,21,0,0:0:0:0:
32,240,17301,2,0,P|84:248|112:232,1,72.2500013780594,0|12,0:0|0:0,0:0:0:0:
240,108,17676,2,0,P|292:100|320:116,1,72.2500013780594,4|8,0:0|0:0,0:0:0:0:
344,136,17957,1,8,0:0:0:0:
360,176,18051,1,8,0:0:0:0:
348,216,18145,1,8,0:0:0:0:
312,240,18239,1,8,0:0:0:0:
268,236,18332,1,8,0:0:0:0:
236,208,18426,1,8,0:0:0:0:
232,164,18520,1,8,0:0:0:0:
120,120,18614,6,0,L|96:28,1,72.2500013780594,4|0,0:0|0:0,0:0:0:0:
32,224,18989,2,0,L|4:316,1,72.2500013780594,12|0,0:0|0:0,0:0:0:0:
128,356,19364,1,4,0:0:0:0:
196,292,19551,2,0,P|260:276|332:324,1,144.500002756119,4|12,0:0|0:0,0:0:0:0:
264,252,20114,2,0,P|248:208|260:168,1,72.2500013780594,0|4,0:0|0:0,0:0:0:0:
376,96,20489,1,8,0:0:0:0:
328,200,20676,1,4,0:0:0:0:
460,180,20864,6,0,L|395:190,1,36.1250006890297,2|0,1:2|0:0,0:0:0:0:
293,205,21051,2,0,L|328:199,1,36.1250006890297,2|0,0:2|0:0,0:0:0:0:
413,91,21239,2,0,L|348:101,1,36.1250006890297,0|0,1:0|0:0,0:0:0:0:
246,116,21426,2,0,L|280:112,1,25.4999992218018,2|2,2:0|2:0,0:0:0:0:
104,188,21614,6,0,B|148:196|148:196|188:168,1,72.2500013780594,4|0,0:0|0:0,0:0:0:0:
76,76,21989,2,0,L|-8:88,1,72.2500013780594,12|0,0:0|0:0,0:0:0:0:
20,224,22364,1,12,0:0:0:0:
104,248,22551,2,0,L|268:288,1,144.500002756119,12|4,0:0|0:0,0:0:0:0:
344,180,23114,21,4,0:0:0:0:
416,228,23301,1,0,0:0:0:0:
488,152,23489,5,12,0:0:0:0:
512,60,23676,1,12,0:0:0:0:
412,0,23864,5,12,0:0:0:0:
340,288,24051,1,12,0:0:0:0:
348,316,24145,1,12,0:0:0:0:
356,344,24239,1,12,0:0:0:0:
168,232,24426,1,12,0:0:0:0:
176,204,24520,1,0,0:0:0:0:
184,176,24614,6,0,P|172:120|144:100,1,85,6|0,1:2|0:0,0:0:0:0:
8,280,24989,2,0,L|112:292,1,85,8|0,0:0|0:0,0:0:0:0:
216,364,25364,1,2,1:2:0:0:
204,336,25457,1,0,0:0:0:0:
292,192,25645,1,0,0:0:0:0:
280,224,25739,1,8,1:2:0:0:
348,312,25926,1,0,0:0:0:0:
464,156,26114,22,0,L|436:48,1,85,2|0,1:2|0:0,0:0:0:0:
488,156,26395,1,0,0:0:0:0:
488,156,26489,1,8,0:0:0:0:
184,104,26676,6,0,L|292:96,1,85,0|2,0:0|1:2,0:0:0:0:
168,96,26957,1,8,1:2:0:0:
292,112,27145,1,2,1:2:0:0:
316,124,27239,1,8,1:2:0:0:
168,196,27426,1,0,0:0:0:0:
56,268,27614,6,0,L|76:360,1,85,2|0,1:2|0:0,0:0:0:0:
40,252,27895,1,0,0:0:0:0:
40,252,27989,1,8,0:0:0:0:
76,116,28176,1,0,0:0:0:0:
216,52,28364,6,0,P|280:52|324:84,1,85,2|0,1:2|0:0,0:0:0:0:
200,76,28645,1,0,0:0:0:0:
200,76,28739,1,8,0:0:0:0:
284,192,28926,22,0,L|304:276,1,85,0|2,0:0|1:2,0:0:0:0:
268,180,29207,1,0,0:0:0:0:
296,296,29395,1,0,0:0:0:0:
288,316,29489,1,8,0:0:0:0:
392,204,29676,1,0,0:0:0:0:
296,296,29864,5,2,1:2:0:0:
280,336,29957,1,8,1:2:0:0:
284,192,30145,1,2,1:2:0:0:
252,168,30239,1,8,1:2:0:0:
132,192,30426,1,2,0:0:0:0:
56,232,30520,1,0,0:0:0:0:
0,168,30614,6,0,L|-16:84,1,85,2|0,1:2|0:0,0:0:0:0:
48,264,30989,1,8,0:0:0:0:
40,292,31082,1,0,0:0:0:0:
124,160,31270,1,0,0:0:0:0:
116,128,31364,1,2,1:2:0:0:
232,232,31551,1,0,0:0:0:0:
260,224,31645,1,0,0:0:0:0:
288,216,31739,1,8,0:0:0:0:
388,244,31926,1,0,0:0:0:0:
264,380,32114,6,0,L|280:272,1,85,2|0,1:2|0:0,0:0:0:0:
364,144,32489,1,8,0:0:0:0:
228,28,32676,2,0,L|244:136,1,85,0|2,0:0|1:2,0:0:0:0:
208,16,32957,1,8,0:0:0:0:
256,132,33145,1,0,0:0:0:0:
272,148,33239,1,10,0:0:0:0:
132,128,33426,1,0,0:0:0:0:
168,232,33614,22,0,P|112:220|72:236,1,85,2|0,1:2|0:0,0:0:0:0:
188,256,33895,1,2,0:0:0:0:
188,256,33989,1,8,0:0:0:0:
248,360,34176,1,10,0:0:0:0:
296,268,34364,2,0,L|344:184,1,85,0|0,1:2|0:0,0:0:0:0:
360,160,34645,1,0,0:0:0:0:
384,124,34739,5,8,1:2:0:0:
428,200,34832,1,0,1:0:0:0:
464,112,34926,1,0,1:0:0:0:
512,180,35020,1,0,1:0:0:0:
512,180,35114,5,4,1:2:0:0:
428,200,35489,1,4,1:2:0:0:
344,220,35676,6,0,L|296:232,1,42.5,2|2,0:0|0:0,0:0:0:0:
187,254,35864,2,0,L|201:206,1,42.5,2|2,0:0|0:0,0:0:0:0:
370,228,36051,22,0,L|307:243,1,50.9999984436036,0|0,1:0|1:0,0:0:0:0:
167,272,36239,2,0,L|185:211,1,50.9999984436036,2|2,2:0|2:0,0:0:0:0:
396,236,36426,6,0,L|333:251,1,50.9999984436036,2|2,0:0|0:0,0:0:0:0:
144,292,36614,6,0,L|172:180,1,101.999996887207,4|0,1:0|0:0,0:0:0:0:
76,92,36989,1,8,0:0:0:0:
120,320,37176,1,0,0:0:0:0:
92,124,37364,5,4,0:0:0:0:
212,92,37551,1,0,0:0:0:0:
216,72,37645,1,2,0:2:0:0:
220,52,37739,1,8,0:0:0:0:
348,80,37926,1,8,0:0:0:0:
512,200,38114,22,0,P|440:208|380:136,1,152.999995330811,4|8,0:0|0:0,0:0:0:0:
316,4,38489,1,2,0:2:0:0:
400,252,38676,1,8,0:0:0:0:
260,92,38864,2,0,L|240:224,1,101.999996887207,12|4,0:0|0:0,0:0:0:0:
120,232,39239,5,12,0:0:0:0:
264,212,39426,1,4,0:0:0:0:
172,296,39614,2,0,P|108:308|64:288,1,101.999996887207,4|8,0:0|0:0,0:0:0:0:
265,211,39989,5,0,0:0:0:0:
320,77,40176,1,8,0:0:0:0:
346,198,40364,2,0,P|324:259|285:287,1,101.999996887207,4|8,0:0|0:0,0:0:0:0:
320,78,40739,5,0,0:0:0:0:
177,60,40926,1,0,0:0:0:0:
288,8,41114,2,0,P|356:8|396:84,1,152.999995330811,12|8,0:0|0:0,0:0:0:0:
240,120,41489,1,0,0:0:0:0:
96,32,41676,2,0,L|-8:52,1,101.999996887207,8|8,0:0|0:0,0:0:0:0:
28,72,41957,1,8,2:0:0:0:
72,264,42145,1,0,0:0:0:0:
100,256,42239,21,10,0:2:0:0:
268,312,42426,1,8,0:0:0:0:
256,220,42614,2,0,L|240:112,1,101.999996887207,4|2,0:0|0:2,0:0:0:0:
304,352,42989,5,4,0:0:0:0:
220,288,43176,1,8,0:0:0:0:
352,236,43364,2,0,L|336:128,1,101.999996887207,4|8,0:0|0:0,0:0:0:0:
420,368,43739,5,8,0:0:0:0:
192,360,43926,1,8,0:0:0:0:
448,256,44114,2,0,L|424:72,1,152.999995330811,4|8,0:0|0:0,0:0:0:0:
396,16,44489,1,0,0:0:0:0:
352,236,44676,1,8,0:0:0:0:
304,76,44864,1,4,0:0:0:0:
200,176,45051,1,8,0:0:0:0:
172,168,45145,1,8,0:0:0:0:
148,149,45239,5,8,0:0:0:0:
89,44,45426,1,2,0:2:0:0:
0,116,45614,2,0,L|36:242,1,101.999996887207,4|8,0:0|0:0,0:0:0:0:
128,268,45989,21,8,0:0:0:0:
228,296,46176,1,0,0:0:0:0:
324,324,46364,2,0,P|360:272|344:224,1,101.999996887207,4|8,0:0|0:0,0:0:0:0:
304,180,46645,1,0,0:0:0:0:
304,180,46739,5,8,0:0:0:0:
312,332,46926,1,0,0:0:0:0:
468,96,47114,2,0,P|404:68|328:124,1,152.999995330811,4|4,0:0|1:2,0:0:0:0:
288,256,47489,1,4,1:2:0:0:
512,156,47676,2,0,L|492:28,1,101.999996887207,8|4,0:3|0:3,0:0:0:0:
504,32,48239,5,0,0:0:0:0:
496,56,48332,1,0,0:0:0:0:
492,84,48426,1,0,0:0:0:0:
496,108,48520,1,0,0:0:0:0:
508,132,48614,6,0,B|504:192|456:212|420:176|452:120|500:148|532:200|536:252|488:304,1,255.000009727478,4|8,0:3|0:0,0:0:0:0:
436,348,50020,1,0,0:0:0:0:
400,320,50114,22,0,P|353:313|312:336,1,95.6250036478044,12|0,0:0|0:0,0:0:0:0:
112,368,50489,2,0,P|158:374|199:351,1,95.6250036478044,12|0,0:0|0:0,0:0:0:0:
420,292,50864,6,0,P|349:290|291:330,1,127.500004863739,8|0,1:3|0:0,0:0:0:0:
228,380,51520,5,0,0:0:0:0:
248,372,51614,6,0,B|216:332|232:288|232:288|264:228|232:184|180:196|164:268|244:268,1,255.000009727478,4|8,0:3|0:0,0:0:0:0:
284,303,52739,1,0,0:0:0:0:
360,288,53114,22,0,L|392:196,1,95.6250036478044,12|0,0:0|0:0,0:0:0:0:
484,196,53489,2,0,L|452:288,1,95.6250036478044,12|0,0:0|0:0,0:0:0:0:
320,296,53864,1,12,0:0:0:0:
416,112,54051,1,4,0:0:0:0:
408,80,54145,1,8,0:0:0:0:
400,48,54239,1,4,0:0:0:0:
256,52,54426,1,12,0:0:0:0:
112,56,54614,6,0,P|100:104|128:160,1,85,4|2,0:0|0:2,0:0:0:0:
160,192,54895,1,0,0:2:0:0:
232,212,54989,1,8,0:0:0:0:
180,100,55176,5,2,0:2:0:0:
160,248,55364,2,0,P|195:282|258:286,1,85,4|2,0:0|0:2,0:0:0:0:
301,274,55645,1,0,0:0:0:0:
355,222,55739,1,8,0:0:0:0:
232,212,55926,5,2,0:2:0:0:
356,300,56114,1,4,0:0:0:0:
300,164,56301,1,8,0:0:0:0:
352,52,56489,1,8,0:0:0:0:
488,4,56676,1,2,0:2:0:0:
332,64,56864,22,0,P|276:80|204:56,1,127.5,4|8,0:0|0:0,0:0:0:0:
152,4,57239,1,4,0:0:0:0:
29,113,57426,1,8,0:0:0:0:
160,12,57614,6,0,L|184:156,1,127.5,4|0,0:0|0:0,0:0:0:0:
168,212,57989,1,8,0:0:0:0:
29,113,58176,1,2,0:2:0:0:
141,33,58364,2,0,L|157:133,1,85,4|2,0:0|0:2,0:0:0:0:
168,212,58739,5,8,0:0:0:0:
16,220,58926,1,2,0:2:0:0:
32,228,59020,1,0,0:0:0:0:
48,236,59114,6,2,L|72:288,1,42.5,4|8,0:0|0:0,0:0:0:0:
152,292,59489,22,2,L|176:344,1,42.5,4|8,0:0|0:0,0:0:0:0:
256,344,59864,6,2,L|280:396,1,42.5,4|8,0:0|0:0,0:0:0:0:
288,232,60239,1,8,1:3:0:0:
304,204,60332,1,8,1:3:0:0:
324,176,60426,1,8,1:3:0:0:
376,88,60614,38,2,B|392:44|356:-12|292:24|308:92|373:70|373:70|448:44|489:98|489:98|502:80|528:70|528:70|500:20,1,394.400012036133,0|2,0:0|0:2,0:0:0:0:
425,143,62301,5,2,0:0:0:0:
368,304,62489,2,0,P|336:256|352:200,1,85,8|2,0:3|0:2,0:0:0:0:
216,216,62864,2,0,P|241:164|298:150,1,85,8|2,0:3|0:2,0:0:0:0:
408,240,63239,5,8,0:0:0:0:
308,352,63426,1,8,0:3:0:0:
168,280,63614,2,0,L|32:280,1,127.5,2|0,0:0|0:0,0:0:0:0:
12,304,63989,1,0,0:0:0:0:
72,160,64176,2,0,L|96:76,1,85,2|0,0:0|0:0,0:0:0:0:
88,56,64551,1,8,0:3:0:0:
80,32,64739,6,0,P|128:24|168:40,1,85,8|2,0:3|0:0,0:0:0:0:
172,196,65114,2,0,P|132:167|115:128,1,85,0|2,0:0|0:0,0:0:0:0:
304,24,65489,2,0,P|334:61|341:104,1,85,2|8,0:0|0:3,0:0:0:0:
148,274,65864,2,0,P|152:225|178:191,1,85,2|2,0:0|0:0,0:0:0:0:
341,96,66239,5,0,0:0:0:0:
264,88,66426,1,0,0:0:0:0:
186,79,66614,2,0,L|24:58,1,127.5,8|0,0:3|0:0,0:0:0:0:
220,96,66989,6,0,L|44:72,1,152.999995330811,8|0,0:3|0:0,0:0:0:0:
254,113,67364,5,2,0:2:0:0:
204,192,67551,1,8,0:0:0:0:
228,276,67739,1,8,0:3:0:0:
304,320,67926,1,0,0:0:0:0:
332,328,68020,1,0,0:0:0:0:
360,336,68114,6,0,L|344:248,1,85,0|2,1:0|0:2,0:0:0:0:
452,368,68489,5,2,1:2:0:0:
332,360,68676,1,2,0:0:0:0:
212,352,68864,2,0,L|108:344,1,85,2|2,1:2|0:2,0:0:0:0:
127,345,69239,5,0,1:2:0:0:
228,332,69426,1,2,0:0:0:0:
96,264,69614,2,0,B|68:212|76:148|92:128,1,127.5,0|0,1:0|0:0,0:0:0:0:
108,108,69989,1,0,1:0:0:0:
32,232,70176,1,2,0:0:0:0:
108,108,70364,2,0,P|108:64|84:16,1,85,0|6,1:0|1:2,0:0:0:0:
8,116,70739,21,0,1:0:0:0:
108,184,70926,1,4,0:2:0:0:
264,64,71114,2,0,L|164:64,1,85,0|2,1:0|0:2,0:0:0:0:
192,148,71489,5,0,1:0:0:0:
292,216,71676,1,2,0:0:0:0:
444,96,71864,2,0,L|344:96,1,85,0|2,1:0|0:2,0:0:0:0:
336,88,72145,1,0,0:0:0:0:
312,80,72239,1,0,0:0:0:0:
288,72,72332,1,0,0:0:0:0:
264,64,72426,1,0,0:0:0:0:
240,52,72520,1,0,0:0:0:0:
220,40,72614,5,2,2:2:0:0:
256,44,72989,1,2,2:2:0:0:
296,40,73364,6,2,B|228:40|228:40|296:60|300:120|276:164|248:168,1,223.125008511544
108,120,74114,22,0,L|212:108,1,101.999996887207,4|8,0:0|0:0,0:0:0:0:
424,168,74489,5,8,0:0:0:0:
336,188,74676,1,0,0:0:0:0:
276,252,74864,2,0,P|260:296|276:348,1,101.999996887207,4|8,0:0|0:0,0:0:0:0:
348,191,75239,5,8,0:0:0:0:
328,279,75426,1,0,0:0:0:0:
276,347,75614,2,0,P|212:371|108:339,1,152.999995330811,12|8,0:0|0:0,0:0:0:0:
72,292,75989,1,0,0:0:0:0:
232,228,76176,1,8,0:0:0:0:
292,368,76364,5,4,0:0:0:0:
131,354,76551,1,8,0:3:0:0:
144,336,76645,1,8,0:3:0:0:
156,320,76739,21,8,0:3:0:0:
324,352,76926,1,8,0:0:0:0:
172,172,77114,2,0,P|200:152|276:160,1,101.999996887207,4|8,0:0|0:0,0:0:0:0:
408,340,77489,5,8,0:0:0:0:
232,364,77676,1,0,0:0:0:0:
468,292,77864,2,0,P|436:268|360:276,1,101.999996887207,4|8,0:0|0:0,0:0:0:0:
324,352,78239,5,8,0:0:0:0:
232,224,78426,1,0,0:0:0:0:
376,268,78614,2,0,P|448:272|500:212,1,152.999995330811,12|8,0:0|0:0,0:0:0:0:
500,128,78989,5,0,0:0:0:0:
396,96,79176,2,0,L|416:200,1,101.999996887207,8|4,0:0|0:0,0:0:0:0:
320,40,79551,1,8,0:3:0:0:
296,60,79645,1,8,0:3:0:0:
276,80,79739,21,8,0:3:0:0:
312,168,79926,1,8,0:3:0:0:
272,252,80114,2,0,P|228:276|164:264,1,101.999996887207,4|8,0:0|0:0,0:0:0:0:
336,176,80489,5,8,0:0:0:0:
248,228,80676,1,0,0:0:0:0:
288,320,80864,2,0,P|320:358|384:369,1,101.999996887207,4|8,0:0|0:0,0:0:0:0:
512,300,81239,5,8,0:0:0:0:
372,288,81426,1,0,0:0:0:0:
488,203,81614,2,0,P|412:191|324:175,1,152.999995330811,12|8,0:0|0:0,0:0:0:0:
264,140,81989,1,0,0:0:0:0:
428,136,82176,1,8,0:0:0:0:
264,140,82364,5,4,0:0:0:0:
336,76,82551,1,8,0:0:0:0:
244,45,82739,21,8,0:0:0:0:
284,235,82926,1,8,0:0:0:0:
494,99,83114,2,0,P|441:63|378:84,1,101.999996887207,4|0,0:0|0:0,0:0:0:0:
344,164,83489,5,8,0:0:0:0:
264,140,83676,1,0,0:0:0:0:
184,120,83864,2,0,L|72:96,1,101.999996887207,4|8,0:0|0:0,0:0:0:0:
48,88,84145,1,0,0:0:0:0:
16,80,84239,5,0,0:0:0:0:
67,246,84426,1,8,0:0:0:0:
16,80,84614,6,0,P|12:40|32:12,1,50.9999984436036
184,120,84801,2,0,P|207:152|204:186,1,50.9999984436036
68,244,84989,2,0,P|28:248|0:228,1,50.9999984436036
116,52,85176,1,0,0:0:0:0:
152,12,85270,1,0,0:0:0:0:
204,0,85364,1,0,0:0:0:0:
256,16,85457,1,0,0:0:0:0:
288,60,85551,1,0,0:0:0:0:
288,112,85645,1,0,0:0:0:0:
272,160,85739,22,0,L|248:240,1,50.9999984436036
272,304,85926,2,0,L|329:364,1,50.9999984436036,0|0,0:0|0:0,0:0:0:0:
396,376,86114,6,0,L|496:356,1,85,0|2,0:0|0:0,0:0:0:0:
272,304,86489,2,0,L|215:219,1,85,8|2,0:2|0:0,0:0:0:0:
416,276,86864,2,0,L|499:217,1,85,0|2,0:0|0:0,0:0:0:0:
336,216,87239,2,0,L|368:119,1,85,8|2,0:2|0:0,0:0:0:0:
196,28,87614,5,0,0:0:0:0:
284,44,87801,1,2,0:0:0:0:
144,92,87989,5,8,0:2:0:0:
174,176,88176,1,2,0:0:0:0:
60,92,88364,22,0,P|68:48|116:16,1,85,0|2,0:0|0:0,0:0:0:0:
248,212,88739,2,0,P|219:246|161:249,1,85,8|2,0:2|0:0,0:0:0:0:
92,236,89114,6,0,L|0:216,1,85,0|2,0:0|0:0,0:0:0:0:
16,28,89489,2,0,P|64:12|116:36,1,85,8|2,0:2|0:0,0:0:0:0:
160,88,89864,1,0,0:0:0:0:
164,176,90051,1,2,0:0:0:0:
92,236,90239,1,8,0:2:0:0:
12,200,90426,1,2,0:0:0:0:
0,176,90520,1,0,0:0:0:0:
0,148,90614,5,4,1:0:0:0:
236,132,90801,1,8,1:0:0:0:
24,148,90989,5,8,1:0:0:0:
258,181,91176,1,8,0:3:0:0:
264,160,91270,1,8,0:3:0:0:
268,140,91364,1,8,0:3:0:0:
388,56,91551,1,8,1:0:0:0:
512,212,91739,2,0,L|456:224,1,42.5,8|0,1:3|0:0,0:0:0:0:
392,240,91926,1,8,1:0:0:0:
428,384,92114,22,0,P|457:318|447:291,1,85,0|2,0:0|0:0,0:0:0:0:
420,164,92489,2,0,P|348:171|330:193,1,85,8|2,0:2|0:0,0:0:0:0:
234,281,92864,2,0,P|276:339|304:343,1,85,0|2,0:0|0:0,0:0:0:0:
488,184,93239,2,0,L|460:84,1,85,8|2,0:2|0:0,0:0:0:0:
384,28,93614,6,0,P|328:12|280:40,1,85,0|2,0:0|0:0,0:0:0:0:
204,92,93989,1,8,0:2:0:0:
276,192,94176,1,2,0:0:0:0:
376,120,94364,5,0,0:0:0:0:
232,20,94551,1,2,0:0:0:0:
196,172,94739,1,8,0:2:0:0:
340,272,94926,1,2,0:0:0:0:
460,76,95114,6,0,L|376:88,1,85,0|2,0:0|0:0,0:0:0:0:
76,152,95489,2,0,L|160:164,1,85,8|2,0:2|0:3,0:0:0:0:
420,260,95864,1,0,0:0:0:0:
260,284,96051,1,2,0:0:0:0:
100,308,96239,1,8,0:2:0:0:
208,380,96426,1,2,0:0:0:0:
216,372,96520,1,0,0:0:0:0:
224,364,96614,21,4,1:0:0:0:
88,228,96801,1,8,1:1:0:0:
112,384,96989,2,0,P|204:364|288:364,1,170,8|4,1:0|1:0,0:0:0:0:
332,380,97457,1,0,0:0:0:0:
332,380,97551,1,8,1:0:0:0:
332,380,97645,1,0,0:0:0:0:
332,380,97739,1,8,1:0:0:0:
332,380,97832,1,0,0:0:0:0:
332,380,97926,1,8,1:0:0:0:
332,380,98020,1,0,0:0:0:0:
332,380,98114,5,4,3:2:0:0:
488,308,98489,5,0,0:0:0:0:
414,174,98676,1,0,0:0:0:0:
351,16,98864,5,0,0:0:0:0:
311,151,99051,1,0,0:0:0:0:
266,283,99239,21,0,0:0:0:0:
215,183,99426,1,0,0:0:0:0:
205,42,99614,5,0,0:0:0:0:
130,105,99801,1,0,0:0:0:0:
114,214,99989,5,0,0:0:0:0:
37,201,100176,1,0,0:0:0:0:
114,213,100364,21,2,0:2:0:0:
