osu file format v12

[General]
AudioFilename: Hana Ranman ~Flowers~.mp3
AudioLeadIn: 1500
PreviewTime: 35864
Countdown: 0
SampleSet: Soft
StackLeniency: 0.7
Mode: 0
LetterboxInBreaks: 1
WidescreenStoryboard: 0

[Editor]
DistanceSpacing: 0.6
BeatDivisor: 4
GridSize: 512

[Metadata]
Title:Hana Ranman ~Flowers~
TitleUnicode:華爛漫 ~Flowers~
Artist:TERRA
ArtistUnicode:TЁЯRA
Creator:buhei
Version:Flask
Source:Beatmania IIDX
Tags:DDR SuperNOVA Flask Nyquill nold_1702 raririn
BeatmapID:298162
BeatmapSetID:100252

[Difficulty]
HPDrainRate:6
CircleSize:4
OverallDifficulty:7
ApproachRate:9
SliderMultiplier:1.7
SliderTickRate:1

[Events]
//Background and Video events
0,0,"bg.jpg",0,0
//Break Periods
//Storyboard Layer 0 (Background)
//Storyboard Layer 1 (Fail)
//Storyboard Layer 2 (Pass)
//Storyboard Layer 3 (Foreground)
//Storyboard Sound Samples
//Background Colour Transformations
3,100,163,162,255

[TimingPoints]
-886,375,4,1,1,70,1,0
6239,-66.6666666666667,4,1,1,70,0,0
6614,-100,4,1,1,70,0,0
17770,-100,4,2,1,70,0,0
18614,-100,4,1,1,70,0,0
20864,-100,4,2,1,70,0,0
21614,-100,4,1,1,70,0,0
23864,-100,4,2,1,70,0,0
24614,-100,4,1,1,70,0,0
26770,-100,4,1,3,70,0,0
27332,-100,4,1,1,70,0,0
29770,-100,4,1,3,70,0,0
30520,-100,4,1,1,70,0,0
32676,-100,4,1,3,70,0,0
33520,-100,4,1,1,70,0,0
36614,-100,4,1,1,70,0,1
48614,-100,4,1,1,70,0,0
60614,-200,4,1,1,20,0,0
61551,-200,4,1,1,5,0,0
61645,-200,4,1,1,50,0,0
62020,-100,4,1,2,70,0,0
68114,-100,4,1,1,70,0,0
73364,-100,4,1,2,70,0,0
74114,-100,4,1,1,70,0,1
86114,-100,4,1,1,70,0,0
98395,-100,4,2,2,70,0,0

[Colours]
Combo1 : 70,247,146
Combo2 : 253,100,176
Combo3 : 255,174,136
Combo4 : 232,148,241

[HitObjects]
116,56,239,1,4,1:2:0:0:
84,144,426,1,0,1:0:0:0:
156,204,614,2,0,P|168:288|140:368,1,170,4|0,1:2|1:0,0:0:0:0:
380,316,1364,2,0,P|368:232|396:152,1,170,0|0,1:0|1:0,0:0:0:0:
468,92,1926,1,2,0:0:0:0:
316,104,2114,2,0,P|232:112|144:100,2,170,0|0|0,1:0|1:0|1:0,0:0:0:0:
384,40,3051,1,2,0:0:0:0:
400,132,3239,2,0,L|408:224,1,85,0|2,1:0|0:0,0:0:0:0:
256,336,3614,6,0,P|212:340|168:332,1,85,0|2,0:0|0:0,0:0:0:0:
312,240,3989,2,0,P|356:244|400:236,1,85,0|2,0:0|0:0,0:0:0:0:
348,76,4364,1,0,0:0:0:0:
304,252,4551,1,2,0:0:0:0:
196,196,4739,2,0,P|152:188|112:196,1,85,0|2,0:0|0:0,0:0:0:0:
124,376,5114,5,0,0:0:0:0:
140,352,5207,1,0,0:0:0:0:
148,324,5301,1,0,0:0:0:0:
152,296,5395,1,0,0:0:0:0:
152,268,5489,2,0,L|200:292,3,42.5
36,300,5864,2,0,L|12:348,3,42.5
36,180,6239,6,0,P|40:112|140:36,1,191.250007295609,8|0,2:3|0:0,0:0:0:0:
144,56,6614,6,0,P|108:36|80:-4,1,85,4|2,0:2|0:0,0:0:0:0:
240,128,6989,2,0,P|208:154|161:167,1,85,8|2,0:0|0:0,0:0:0:0:
256,12,7364,1,0,0:0:0:0:
352,84,7551,1,2,0:0:0:0:
216,196,7739,2,0,P|208:244|212:284,1,85,8|2,0:0|0:0,0:0:0:0:
420,336,8114,2,0,P|404:288|296:252,2,170,0|8|0,0:0|0:0|0:0,0:0:0:0:
312,360,9051,1,2,0:0:0:0:
232,196,9239,2,0,L|240:104,1,85,8|2,0:0|0:0,0:0:0:0:
304,60,9520,5,0,0:0:0:0:
304,60,9614,2,0,P|348:68|392:60,1,85,4|2,0:2|0:0,0:0:0:0:
464,208,9989,2,0,P|420:200|376:208,1,85,8|2,0:0|0:0,0:0:0:0:
312,292,10364,1,4,0:2:0:0:
400,360,10551,1,2,0:0:0:0:
424,176,10739,2,0,P|428:136|424:88,1,85,8|2,0:0|0:0,0:0:0:0:
236,40,11114,6,0,P|184:48|104:36,1,127.5,4|0,0:2|0:0,0:0:0:0:
40,8,11489,1,8,0:0:0:0:
68,156,11676,1,2,0:0:0:0:
64,308,11864,1,4,0:2:0:0:
48,308,11957,1,0,0:0:0:0:
32,308,12051,1,0,0:0:0:0:
176,376,12239,1,8,0:0:0:0:
232,260,12426,5,0,0:0:0:0:
236,244,12520,1,0,0:0:0:0:
240,231,12614,2,0,P|248:191|240:147,1,85,0|2,0:0|0:0,0:0:0:0:
164,60,12989,1,8,0:0:0:0:
72,124,13176,1,2,0:0:0:0:
152,256,13364,2,0,P|184:336|264:336,1,170,0|8,0:0|0:0,0:0:0:0:
356,288,13926,2,0,P|404:280|448:288,1,85,2|0,0:0|0:0,0:0:0:0:
500,380,14301,1,2,0:0:0:0:
336,308,14489,2,0,P|328:264|336:216,1,85,8|2,0:0|0:0,0:0:0:0:
416,136,14864,5,0,0:0:0:0:
496,244,15051,1,2,0:0:0:0:
336,308,15239,1,8,0:0:0:0:
396,232,15426,1,2,0:0:0:0:
232,248,15614,6,0,P|144:256|64:248,1,170,0|8,0:0|0:0,0:0:0:0:
28,136,16176,1,2,0:0:0:0:
180,80,16364,2,0,P|185:126|180:164,1,85,0|2,0:0|0:0,0:0:0:0:
152,288,16739,1,8,0:0:0:0:
180,80,16926,2,0,P|224:64|276:64,1,85,2|0,0:0|0:0,0:0:0:0:
420,184,17301,1,2,0:0:0:0:
504,112,17489,1,8,0:0:0:0:
392,32,17676,1,2,0:0:0:0:
336,216,17864,5,8,0:0:0:0:
336,216,17957,1,0,0:0:0:0:
308,288,18051,1,8,0:0:0:0:
308,288,18145,1,0,0:0:0:0:
260,344,18239,1,8,0:0:0:0:
260,344,18332,1,0,0:0:0:0:
192,368,18426,1,8,0:0:0:0:
192,368,18520,1,0,0:0:0:0:
112,372,18614,6,0,P|124:332|124:288,1,85,0|2,0:0|0:0,0:0:0:0:
24,152,18989,1,8,0:0:0:0:
112,328,19176,1,2,0:0:0:0:
8,236,19364,2,0,P|0:168|16:68,1,170,0|8,0:0|0:0,0:0:0:0:
192,88,19926,1,2,0:0:0:0:
188,84,20301,1,2,0:0:0:0:
280,216,20489,1,8,0:0:0:0:
280,48,20676,1,2,0:0:0:0:
160,220,20864,5,8,0:0:0:0:
136,240,20957,1,0,0:0:0:0:
104,248,21051,1,8,0:0:0:0:
272,296,21239,1,8,0:0:0:0:
277,326,21332,1,0,0:0:0:0:
268,358,21426,1,8,0:0:0:0:
453,270,21614,6,0,P|456:304|440:352,1,85,0|2,0:0|0:0,0:0:0:0:
376,120,21989,1,8,0:0:0:0:
508,152,22176,1,2,0:0:0:0:
348,224,22364,2,0,P|272:236|176:224,1,170,0|8,0:0|0:0,0:0:0:0:
132,76,22926,1,2,0:0:0:0:
132,76,23301,1,2,0:0:0:0:
116,176,23489,1,8,0:0:0:0:
232,96,23676,1,2,0:0:0:0:
44,128,23864,5,8,0:0:0:0:
36,156,23957,1,0,0:0:0:0:
36,184,24051,1,8,0:0:0:0:
116,264,24239,1,12,0:0:0:0:
144,256,24332,1,0,0:0:0:0:
168,242,24426,1,8,0:0:0:0:
188,222,24520,1,0,0:0:0:0:
204,196,24614,6,0,P|216:152|240:120,1,85,4|2,0:2|0:0,0:0:0:0:
420,112,24989,2,0,P|408:156|384:188,1,85,8|2,0:0|0:0,0:0:0:0:
204,196,25364,2,0,L|224:104,1,85,0|2,0:0|0:0,0:0:0:0:
420,112,25739,2,0,L|400:204,1,85,8|2,0:0|0:0,0:0:0:0:
296,312,26114,2,0,B|268:352|268:352|200:388|160:352,1,127.5
120,348,26489,2,0,P|80:344|36:352,1,85,8|2,0:0|0:0,0:0:0:0:
8,284,26770,5,0,0:0:0:0:
8,284,26864,2,0,L|-4:196,1,85,2|0,0:0|0:0,0:0:0:0:
68,96,27239,1,2,0:0:0:0:
160,272,27426,5,0,0:0:0:0:
160,272,27520,1,0,0:0:0:0:
160,272,27614,2,0,P|148:236|148:188,1,85,0|2,0:0|0:0,0:0:0:0:
152,24,27989,2,0,P|164:60|164:108,1,85,8|2,0:0|0:0,0:0:0:0:
88,284,28364,2,0,L|-12:292,1,85,0|2,0:0|0:0,0:0:0:0:
216,328,28739,2,0,L|316:320,1,85,8|2,0:0|0:0,0:0:0:0:
496,316,29114,2,0,P|452:340|376:336,1,127.5
376,336,29489,2,0,L|364:236,1,85,8|2,0:0|0:0,0:0:0:0:
400,184,29770,5,0,0:0:0:0:
400,184,29864,2,0,P|344:208|280:192,1,127.5,2|2,0:0|0:0,0:0:0:0:
281,192,30239,2,0,L|196:180,1,85,2|0,0:0|0:0,0:0:0:0:
52,240,30614,6,0,L|40:332,1,85,0|2,0:0|0:0,0:0:0:0:
128,144,30989,2,0,L|116:52,1,85,8|2,0:0|0:0,0:0:0:0:
204,272,31364,2,0,L|192:364,1,85,0|2,0:0|0:0,0:0:0:0:
292,116,31739,2,0,L|280:24,1,85,8|2,0:0|0:0,0:0:0:0:
339,283,32114,2,0,P|403:330|463:278,1,170,0|8,0:0|0:0,0:0:0:0:
396,136,32676,5,0,0:0:0:0:
396,136,32770,1,0,0:0:0:0:
396,136,32864,1,2,0:0:0:0:
248,176,33051,6,0,P|200:180|164:176,1,85,0|2,0:0|0:0,0:0:0:0:
204,56,33426,1,0,0:0:0:0:
328,184,33614,2,0,P|336:232|332:312,1,127.5
280,368,33989,1,8,0:0:0:0:
192,252,34176,1,0,0:0:0:0:
192,252,34270,1,0,0:0:0:0:
192,252,34364,1,0,0:0:0:0:
328,184,34551,1,0,0:0:0:0:
188,216,34739,5,8,0:0:0:0:
156,224,34832,1,0,0:0:0:0:
120,224,34926,1,0,0:0:0:0:
88,220,35020,1,0,0:0:0:0:
56,212,35114,1,4,0:2:0:0:
56,212,35489,2,0,P|112:224|160:216,1,85
328,184,35864,6,0,P|408:192|424:280,2,170,0|0|4,0:0|0:0|0:2,0:0:0:0:
268,268,36801,1,0,0:0:0:0:
268,268,36895,1,0,0:0:0:0:
268,268,36989,1,10,0:0:0:0:
228,172,37177,1,0,0:0:0:0:
364,280,37364,1,2,0:0:0:0:
168,252,37552,1,0,0:0:0:0:
168,252,37645,1,0,0:0:0:0:
168,252,37739,1,10,0:0:0:0:
288,92,37926,1,0,0:0:0:0:
140,160,38114,6,0,P|92:192|76:268,1,127.5,2|0,0:0|0:0,0:0:0:0:
74,256,38489,2,0,P|32:264|-16:256,1,85,10|0,0:0|0:0,0:0:0:0:
184,344,38864,2,0,P|226:351|274:343,1,85,2|0,0:0|0:0,0:0:0:0:
448,316,39239,5,10,0:0:0:0:
368,252,39426,1,0,0:0:0:0:
356,352,39614,1,2,0:0:0:0:
456,220,39801,1,0,0:0:0:0:
456,220,39895,1,0,0:0:0:0:
456,220,39989,1,10,0:0:0:0:
368,252,40176,1,0,0:0:0:0:
356,352,40364,1,2,0:0:0:0:
384,152,40551,1,0,0:0:0:0:
384,152,40645,1,0,0:0:0:0:
384,152,40739,1,10,0:0:0:0:
448,316,40926,1,0,0:0:0:0:
276,292,41114,6,0,P|220:280|148:296,1,127.5,2|0,0:0|0:0,0:0:0:0:
152,294,41489,2,0,L|124:212,1,85,10|0,0:0|0:0,0:0:0:0:
248,124,41864,2,0,L|276:206,1,85,2|0,0:0|0:0,0:0:0:0:
160,280,42239,5,8,0:0:0:0:
60,296,42426,1,0,0:0:0:0:
56,192,42614,1,6,0:2:0:0:
120,348,42801,1,0,0:0:0:0:
120,348,42895,1,0,0:0:0:0:
120,348,42989,1,10,0:0:0:0:
0,244,43176,1,0,0:0:0:0:
112,140,43364,1,2,0:0:0:0:
48,376,43551,1,0,0:0:0:0:
48,376,43645,1,0,0:0:0:0:
48,376,43739,1,10,0:0:0:0:
0,164,43926,1,0,0:0:0:0:
176,180,44114,6,0,P|240:192|308:176,1,127.5,2|0,0:0|0:0,0:0:0:0:
300,179,44489,2,0,P|312:228|304:268,1,85,10|0,0:0|0:0,0:0:0:0:
484,216,44864,2,0,P|435:227|395:219,1,85,2|0,0:0|0:0,0:0:0:0:
436,116,45239,5,10,0:0:0:0:
484,216,45426,1,0,0:0:0:0:
436,116,45614,1,4,0:2:0:0:
356,188,45801,1,0,0:0:0:0:
356,188,45895,1,0,0:0:0:0:
356,188,45989,1,10,0:0:0:0:
484,216,46176,1,0,0:0:0:0:
436,116,46364,1,4,0:2:0:0:
356,188,46551,1,0,0:0:0:0:
356,188,46645,1,0,0:0:0:0:
356,188,46739,1,10,0:0:0:0:
404,288,46926,1,0,0:0:0:0:
268,248,47114,6,0,P|216:236|148:200,1,127.5,4|0,0:2|0:0,0:0:0:0:
150,201,47489,2,0,L|112:280,1,85
108,116,47864,2,0,P|168:104|240:176,2,170,2|2|6,0:0|0:0|0:2,0:0:0:0:
108,116,50020,5,0,0:0:0:0:
108,116,50114,2,0,P|88:168|104:288,2,170,4|0|0,0:2|0:0|0:0,0:0:0:0:
108,116,51520,1,0,0:0:0:0:
108,116,51614,1,4,0:2:0:0:
404,268,52364,1,4,0:2:0:0:
108,116,53114,2,0,B|40:124|44:200|44:200|112:228,2,170,4|0|0,0:2|0:0|0:0,0:0:0:0:
124,124,53957,1,0,0:0:0:0:
140,128,54051,1,0,0:0:0:0:
220,72,54239,5,2,0:0:0:0:
212,200,54426,1,2,0:0:0:0:
220,72,54614,2,0,P|264:56|344:72,1,127.5,4|0,0:2|0:0,0:0:0:0:
352,40,54989,2,0,L|440:48,1,85,8|2,0:0|0:0,0:0:0:0:
472,196,55364,2,0,P|480:248|468:328,1,127.5,4|0,0:2|0:0,0:0:0:0:
488,336,55739,2,0,L|401:342,1,85,8|2,0:0|0:0,0:0:0:0:
296,336,56114,5,0,0:0:0:0:
196,360,56301,1,2,0:0:0:0:
100,328,56489,1,8,0:0:0:0:
4,356,56676,1,2,0:0:0:0:
168,272,56864,2,0,P|184:228|176:144,1,127.5
177,148,57239,1,8,0:0:0:0:
88,200,57426,1,2,0:0:0:0:
264,208,57614,6,0,P|308:212|396:208,1,127.5,4|0,0:2|0:0,0:0:0:0:
391,208,57989,2,0,P|400:160|396:120,1,85,8|2,0:0|0:0,0:0:0:0:
236,60,58364,2,0,P|224:112|228:192,1,127.5,4|0,0:2|0:0,0:0:0:0:
226,185,58739,2,0,L|140:212,1,85,8|2,0:0|0:0,0:0:0:0:
100,268,59020,6,0,L|96:296,2,21.25
100,268,59489,1,0,0:0:0:0:
100,268,59864,1,0,0:0:0:0:
100,268,60239,1,0,0:0:0:0:
100,268,60614,6,0,P|164:216|72:200,1,212.5
24,248,61739,5,0,0:0:0:0:
80,344,61926,1,0,0:0:0:0:
196,252,62114,2,0,P|240:248|284:252,1,85,4|2,0:0|0:0,0:0:0:0:
368,304,62489,1,0,0:0:0:0:
284,360,62676,1,2,0:0:0:0:
240,204,62864,2,0,L|236:116,1,85,4|2,0:0|0:0,0:0:0:0:
168,44,63239,1,0,0:0:0:0:
268,28,63426,1,2,0:0:0:0:
328,168,63614,2,0,P|332:236|292:288,1,127.5,8|0,0:0|0:0,0:0:0:0:
252,304,63989,2,0,P|204:300|168:276,1,85,0|2,0:0|0:0,0:0:0:0:
108,160,64364,1,0,0:0:0:0:
108,160,64739,5,4,0:0:0:0:
16,200,64926,1,2,0:0:0:0:
132,124,65114,2,0,P|192:108|260:120,1,127.5,4|0,0:0|0:0,0:0:0:0:
240,148,65489,2,0,L|336:144,1,85,0|2,0:0|0:0,0:0:0:0:
452,192,65864,1,4,0:0:0:0:
452,192,66239,1,0,0:0:0:0:
436,292,66426,1,2,0:0:0:0:
336,320,66614,2,0,P|296:316|216:356,1,127.5
219,352,66989,2,0,L|120:352,1,85,8|2,0:0|0:0,0:0:0:0:
72,216,67364,1,0,0:0:0:0:
72,216,67739,5,4,0:0:0:0:
84,116,67926,1,2,0:0:0:0:
180,76,68114,2,0,P|224:68|272:76,1,85,4|2,0:2|0:0,0:0:0:0:
200,260,68489,1,8,0:0:0:0:
232,168,68676,1,2,0:0:0:0:
304,240,68864,2,0,P|312:288|300:332,1,85,0|2,0:0|0:0,0:0:0:0:
136,332,69239,1,8,0:0:0:0:
108,236,69426,1,2,0:0:0:0:
140,140,69614,2,0,P|160:100|240:72,1,127.5
264,92,69989,2,0,L|360:88,1,85,8|2,0:0|0:0,0:0:0:0:
472,148,70364,1,0,0:0:0:0:
472,148,70739,5,0,0:0:0:0:
484,248,70926,1,2,0:0:0:0:
388,208,71114,2,0,P|344:200|296:212,1,85,8|2,0:0|0:0,0:0:0:0:
272,364,71489,1,0,0:0:0:0:
348,296,71676,1,2,0:0:0:0:
324,196,71864,2,0,P|316:156|324:104,1,85,8|2,0:0|0:0,0:0:0:0:
440,52,72239,5,0,0:0:0:0:
392,64,72332,1,0,0:0:0:0:
340,68,72426,1,0,0:0:0:0:
288,64,72520,1,0,0:0:0:0:
236,56,72614,1,0,0:0:0:0:
236,56,72989,5,0,0:0:0:0:
148,104,73176,1,0,0:0:0:0:
60,52,73364,1,8,0:0:0:0:
60,52,73457,2,0,L|48:152,1,85,8|0,0:0|0:0,0:0:0:0:
112,192,73739,5,8,0:0:0:0:
40,332,73926,1,8,0:0:0:0:
200,320,74114,1,4,0:2:0:0:
116,280,74301,1,0,0:0:0:0:
116,280,74395,1,0,0:0:0:0:
116,280,74489,1,10,0:0:0:0:
32,240,74676,1,0,0:0:0:0:
196,232,74864,1,2,0:0:0:0:
124,372,75051,1,0,0:0:0:0:
124,372,75145,1,0,0:0:0:0:
124,372,75239,1,10,0:0:0:0:
112,192,75426,1,0,0:0:0:0:
276,276,75614,6,0,P|340:292|404:276,1,127.5,2|0,0:0|0:0,0:0:0:0:
398,278,75989,2,0,L|404:188,1,85,10|0,0:0|0:0,0:0:0:0:
264,80,76364,2,0,L|258:170,1,85,2|0,0:0|0:0,0:0:0:0:
276,276,76739,5,10,0:0:0:0:
232,368,76926,1,0,0:0:0:0:
140,324,77114,1,2,0:0:0:0:
188,232,77301,1,0,0:0:0:0:
188,232,77395,1,0,0:0:0:0:
188,232,77489,1,10,0:0:0:0:
284,268,77676,1,0,0:0:0:0:
240,376,77864,1,2,0:0:0:0:
132,332,78051,1,0,0:0:0:0:
132,332,78145,1,0,0:0:0:0:
132,332,78239,1,10,0:0:0:0:
180,224,78426,1,0,0:0:0:0:
336,352,78614,6,0,P|404:360|460:328,1,127.5,2|0,0:0|0:0,0:0:0:0:
454,333,78989,2,0,L|452:244,1,85,10|0,0:0|0:0,0:0:0:0:
380,80,79364,1,2,0:0:0:0:
376,120,79457,1,0,0:0:0:0:
380,164,79551,1,0,0:0:0:0:
248,264,79739,5,10,0:0:0:0:
196,176,79926,1,0,0:0:0:0:
86,299,80114,1,4,0:2:0:0:
178,339,80301,1,0,0:0:0:0:
178,339,80395,1,0,0:0:0:0:
178,339,80489,1,10,0:0:0:0:
248,264,80676,1,0,0:0:0:0:
96,198,80864,1,2,0:0:0:0:
196,176,81051,1,0,0:0:0:0:
196,176,81145,1,0,0:0:0:0:
196,176,81239,1,10,0:0:0:0:
86,299,81426,1,0,0:0:0:0:
248,264,81614,6,0,P|288:232|296:156,1,127.5,2|0,0:0|0:0,0:0:0:0:
297,159,81989,2,0,P|288:120|296:64,1,85,10|0,0:0|0:0,0:0:0:0:
424,40,82364,2,0,P|433:79|425:135,1,85,2|0,0:0|0:0,0:0:0:0:
388,248,82739,5,10,0:0:0:0:
300,300,82926,1,0,0:0:0:0:
208,256,83114,1,0,0:0:0:0:
384,344,83301,1,0,0:0:0:0:
384,344,83395,1,0,0:0:0:0:
384,344,83489,1,10,0:0:0:0:
388,248,83676,1,0,0:0:0:0:
300,196,83864,1,2,0:0:0:0:
216,348,84051,1,0,0:0:0:0:
216,348,84145,1,0,0:0:0:0:
216,348,84239,1,10,0:0:0:0:
208,256,84426,1,0,0:0:0:0:
388,248,84614,5,2,0:0:0:0:
400,236,84707,1,0,0:0:0:0:
408,220,84801,1,0,0:0:0:0:
412,204,84895,1,0,0:0:0:0:
392,188,84989,5,2,0:0:0:0:
396,171,85082,1,0,0:0:0:0:
395,153,85176,1,0,0:0:0:0:
390,137,85270,1,0,0:0:0:0:
372,120,85364,5,2,0:0:0:0:
367,103,85457,1,0,0:0:0:0:
357,88,85551,1,0,0:0:0:0:
345,77,85645,1,0,0:0:0:0:
320,72,85739,5,2,0:0:0:0:
308,60,85832,1,0,0:0:0:0:
292,52,85926,1,0,0:0:0:0:
276,48,86020,1,0,0:0:0:0:
260,48,86114,6,0,P|184:56|88:44,1,170,4|8,0:2|0:0,0:0:0:0:
8,100,86676,1,2,0:0:0:0:
8,100,87051,1,2,0:0:0:0:
56,188,87239,1,8,0:0:0:0:
16,280,87426,1,2,0:0:0:0:
152,220,87614,6,0,P|216:208|320:220,1,170,0|8,0:0|0:0,0:0:0:0:
400,284,88176,1,2,0:0:0:0:
400,284,88551,1,2,0:0:0:0:
492,236,88739,1,8,0:0:0:0:
408,180,88926,1,2,0:0:0:0:
308,296,89114,6,0,P|320:336|444:368,1,170,0|8,0:0|0:0,0:0:0:0:
508,308,89676,1,2,0:0:0:0:
508,308,90051,1,2,0:0:0:0:
484,208,90239,1,8,0:0:0:0:
504,108,90426,1,2,0:0:0:0:
420,48,90614,6,0,P|376:40|328:48,1,85,0|2,0:0|0:0,0:0:0:0:
264,144,90989,1,8,0:0:0:0:
352,232,91176,1,2,0:0:0:0:
352,232,91270,1,0,0:0:0:0:
352,232,91364,1,0,0:0:0:0:
420,48,91551,1,2,0:0:0:0:
236,52,91739,5,8,0:0:0:0:
200,52,91832,1,0,0:0:0:0:
160,48,91926,1,0,0:0:0:0:
124,40,92020,1,0,0:0:0:0:
88,28,92114,6,0,P|112:120|76:204,1,170,4|8,0:2|0:0,0:0:0:0:
40,276,92676,1,2,0:0:0:0:
40,276,93051,1,2,0:0:0:0:
104,356,93239,1,8,0:0:0:0:
4,372,93426,1,2,0:0:0:0:
140,268,93614,6,0,P|184:256|312:264,1,170,0|8,0:0|0:0,0:0:0:0:
380,336,94176,1,2,0:0:0:0:
380,336,94551,1,0,0:0:0:0:
320,256,94739,1,8,0:0:0:0:
420,244,94926,1,0,0:0:0:0:
360,160,95114,6,0,B|332:120|340:64|340:64|296:128,1,170,0|8,0:0|0:0,0:0:0:0:
232,196,95676,1,2,0:0:0:0:
232,196,96051,1,2,0:0:0:0:
188,288,96239,1,8,0:0:0:0:
132,204,96426,1,2,0:0:0:0:
288,276,96614,6,0,P|340:284|384:276,1,85,4|2,0:2|0:0,0:0:0:0:
384,116,96989,2,0,P|351:157|336:199,1,85,8|2,0:0|0:0,0:0:0:0:
492,312,97364,5,0,0:0:0:0:
472,292,97457,1,0,0:0:0:0:
452,268,97551,1,0,0:0:0:0:
432,244,97645,1,0,0:0:0:0:
396,224,97739,5,0,0:0:0:0:
376,204,97832,1,0,0:0:0:0:
356,180,97926,1,0,0:0:0:0:
336,156,98020,1,0,0:0:0:0:
306,138,98114,6,0,P|266:102|234:94,1,85,4|0,0:2|0:0,0:0:0:0:
164,68,98489,5,2,0:0:0:0:
144,72,98676,1,2,0:0:0:0:
80,124,98864,5,2,0:0:0:0:
72,160,99051,1,2,0:0:0:0:
104,244,99239,5,2,0:0:0:0:
124,296,99426,1,2,0:0:0:0:
216,308,99614,5,2,0:0:0:0:
276,332,99801,1,2,0:0:0:0:
372,324,99989,5,2,0:0:0:0:
456,260,100176,5,2,0:0:0:0:
460,140,100364,5,2,0:0:0:0:
