osu file format v12

[General]
AudioFilename: 01 -Flowers-.mp3
AudioLeadIn: 0
PreviewTime: 35904
Countdown: 0
SampleSet: None
StackLeniency: 0.7
Mode: 0
LetterboxInBreaks: 1
WidescreenStoryboard: 1

[Editor]
DistanceSpacing: 1.4
BeatDivisor: 4
GridSize: 4

[Metadata]
Title:Hana Ranman -Flowers-
TitleUnicode:華爛漫 -Flowers-
Artist:TERRA
ArtistUnicode:TERRA
Creator:Scorpiour
Version:Candidate 17 Insane
Source:
Tags:
BeatmapID:297008
BeatmapSetID:102498

[Difficulty]
HPDrainRate:7
CircleSize:4
OverallDifficulty:6
ApproachRate:9
SliderMultiplier:2.3
SliderTickRate:1

[Events]
//Background and Video events
//Break Periods
//Storyboard Layer 0 (Background)
//Storyboard Layer 1 (Fail)
//Storyboard Layer 2 (Pass)
//Storyboard Layer 3 (Foreground)
//Storyboard Sound Samples
//Background Colour Transformations
3,100,0,0,0

[TimingPoints]
-846,375,4,1,0,50,1,0
36654,-100,4,1,0,50,0,1
48654,-100,4,1,0,50,0,0
68154,-100,4,1,0,50,0,1
73404,-100,4,1,0,50,0,0
74154,-100,4,1,0,50,0,1
85779,-100,4,1,0,50,0,0
86154,-100,4,1,0,50,0,1
98154,-100,4,1,0,50,0,0
100404,-100,4,2,0,50,0,0

[HitObjects]
173,97,6654,2,0,P|112:112|64:96,1,115,4|0,0:0|0:0,0:0:0:0:
256,144,7029,2,0,P|272:96|256:32,1,115
208,224,7404,2,0,P|256:240|320:224,1,115
128,176,7779,2,0,P|112:224|128:288,1,115,8|0,0:0|0:0,0:0:0:0:
256,144,8154,6,0,P|317:158|365:142,1,115
400,112,8435,1,0,0:0:0:0:
384,192,8529,2,0,P|336:160|320:96,1,115
416,32,8904,2,0,P|464:64|480:128,1,115
384,192,9279,1,8,0:0:0:0:
400,112,9466,1,0,0:0:0:0:
368,272,9654,6,0,P|432:240|496:272,1,115
304,224,10029,2,0,P|368:192|432:224,1,115,0|0,0:0|0:0,0:0:0:0:
240,176,10404,2,0,P|304:144|368:176,1,115
304,224,10779,2,0,P|240:256|176:224,1,115,8|0,0:0|0:0,0:0:0:0:
128,192,11154,6,0,P|192:160|256:192,1,115
64,144,11529,2,0,P|128:112|192:144,1,115
0,96,11904,2,0,P|64:64|128:96,1,115
128,96,12185,1,0,0:0:0:0:
160,128,12279,2,0,P|199:138|263:106,1,115,8|0,0:0|0:0,0:0:0:0:
192,48,12654,6,0,P|256:16|320:48,1,115
224,224,13029,1,8,0:0:0:0:
208,240,13122,1,0,0:0:0:0:
192,256,13216,2,0,P|152:266|88:234,1,115
192,336,13591,1,8,0:0:0:0:
160,176,13779,5,8,0:0:0:0:
192,192,13872,1,0,0:0:0:0:
224,208,13966,1,0,0:0:0:0:
256,224,14060,1,0,0:0:0:0:
288,240,14154,2,0,P|352:240|400:224,1,115
432,208,14435,1,0,0:0:0:0:
464,192,14529,2,0,P|448:144|448:80,1,115,8|0,0:0|0:0,0:0:0:0:
320,96,14904,5,0,0:0:0:0:
304,80,14997,1,0,0:0:0:0:
288,64,15091,1,8,0:0:0:0:
272,48,15185,1,0,0:0:0:0:
256,32,15279,2,0,P|272:80|272:144,1,115,8|0,0:0|0:0,0:0:0:0:
144,112,15654,5,0,0:0:0:0:
32,144,15841,1,0,0:0:0:0:
80,272,16029,1,8,0:0:0:0:
112,192,16216,2,0,P|176:192|224:160,1,115
176,272,16591,5,8,0:0:0:0:
160,288,16685,1,0,0:0:0:0:
144,304,16779,1,8,0:0:0:0:
128,320,16872,1,0,0:0:0:0:
112,336,16966,2,0,P|176:320|240:320,1,115
224,224,17341,1,0,0:0:0:0:
208,240,17435,1,0,0:0:0:0:
192,256,17529,2,0,P|256:240|320:240,1,115,8|0,0:0|0:0,0:0:0:0:
304,144,17904,5,0,0:0:0:0:
288,160,17997,1,0,0:0:0:0:
272,176,18091,1,8,0:0:0:0:
256,192,18185,1,0,0:0:0:0:
240,208,18279,2,0,L|304:192,3,57.5,8|0|8|0,0:0|0:0|0:0|0:0,0:0:0:0:
336,192,18654,6,2,P|336:256|272:352,1,172.5,0|0,0:0|0:0,0:0:0:0:
240,368,19029,2,0,P|176:288|144:288,1,115,0|0,0:0|0:0,0:0:0:0:
160,368,19404,1,0,0:0:0:0:
192,208,19591,1,0,0:0:0:0:
48,256,19779,1,8,0:0:0:0:
64,272,19872,1,0,0:0:0:0:
80,288,19966,2,0,P|112:240|112:176,1,115
32,240,20341,2,2,P|96:272|208:176,1,230,0|0,0:0|0:0,0:0:0:0:
96,112,20904,5,0,0:0:0:0:
128,112,20997,1,0,0:0:0:0:
160,112,21091,1,8,0:0:0:0:
192,112,21185,1,0,0:0:0:0:
176,80,21279,5,8,0:0:0:0:
208,80,21372,1,0,0:0:0:0:
240,80,21466,1,8,0:0:0:0:
272,80,21560,1,0,0:0:0:0:
256,48,21654,6,0,P|304:64|400:64,1,115
240,128,22029,2,0,P|288:144|384:144,1,115,8|0,0:0|0:0,0:0:0:0:
304,288,22404,1,0,0:0:0:0:
320,256,22497,1,0,0:0:0:0:
336,224,22591,2,0,P|272:219|224:203,1,115,0|0,0:0|0:0,0:0:0:0:
144,160,22966,1,0,0:0:0:0:
192,96,23154,2,2,P|224:144|160:240,1,172.5,0|0,0:0|0:0,0:0:0:0:
144,240,23529,2,0,L|240:304,1,115
416,288,23904,5,0,0:0:0:0:
384,288,23997,1,0,0:0:0:0:
352,288,24091,1,8,0:0:0:0:
320,288,24185,1,0,0:0:0:0:
336,256,24279,5,8,0:0:0:0:
304,256,24372,1,0,0:0:0:0:
272,256,24466,1,8,0:0:0:0:
240,256,24560,1,0,0:0:0:0:
272,224,24654,6,0,P|336:224|384:208,1,115
368,96,25029,2,0,P|368:160|384:208,1,115,8|0,0:0|0:0,0:0:0:0:
256,112,25404,1,0,0:0:0:0:
272,128,25497,1,0,0:0:0:0:
288,144,25591,2,0,P|256:160|176:160,1,115,0|8,0:0|0:0,0:0:0:0:
256,64,25966,1,0,0:0:0:0:
336,80,26154,6,0,P|368:144|352:192,1,115
448,112,26529,2,0,P|448:176|416:240,1,115,8|0,0:0|0:0,0:0:0:0:
288,144,26904,2,2,L|224:144,1,57.5,2|0,0:0|0:0,0:0:0:0:
352,208,27279,2,2,L|480:208,1,115,10|0,0:0|0:0,0:0:0:0:
288,272,27654,6,0,L|192:272,1,57.5
128,192,28029,2,0,L|128:112,1,57.5,8|0,0:0|0:0,0:0:0:0:
288,192,28404,2,0,L|384:192,1,57.5
128,272,28779,2,0,L|128:352,1,57.5,8|0,0:0|0:0,0:0:0:0:
208,192,29154,5,0,0:0:0:0:
192,192,29247,1,0,0:0:0:0:
176,192,29341,2,0,P|240:224|304:224,1,115,0|8,0:0|0:0,0:0:0:0:
224,304,29716,1,0,0:0:0:0:
256,96,29904,2,2,L|192:96,1,57.5,2|0,0:0|0:0,0:0:0:0:
336,144,30279,2,2,L|464:144,1,115,10|0,0:0|0:0,0:0:0:0:
336,198,30654,6,0,L|336:256,2,57.5
176,256,31029,2,0,L|233:256,1,57.5,8|0,0:0|0:0,0:0:0:0:
176,153,31404,2,0,L|176:96,2,57.5
336,96,31779,2,0,L|278:96,1,57.5,8|0,0:0|0:0,0:0:0:0:
312,341,32154,2,0,P|368:336|416:304,1,115
416,144,32529,2,0,P|368:176|312:181,1,115,8|0,0:0|0:0,0:0:0:0:
176,256,32904,2,2,L|240:256,1,57.5,2|0,0:0|0:0,0:0:0:0:
128,192,33279,2,2,L|77:192|13:192,1,115,10|0,0:0|0:0,0:0:0:0:
96,112,33654,6,0,L|224:112,1,115
288,80,34029,2,2,L|352:80,1,57.5,8|0,0:0|0:0,0:0:0:0:
320,160,34404,2,2,L|448:160,1,115,0|0,0:0|0:0,0:0:0:0:
352,240,34779,1,8,0:0:0:0:
384,240,34873,1,0,0:0:0:0:
416,240,34967,1,8,0:0:0:0:
448,240,35061,1,0,0:0:0:0:
480,240,35154,1,0,0:0:0:0:
384,320,35341,6,0,L|256:320,1,115,0|8,0:0|0:0,0:0:0:0:
240,320,35622,1,0,0:0:0:0:
208,320,35716,1,0,0:0:0:0:
176,320,35810,1,0,0:0:0:0:
144,320,35904,2,2,P|176:256|176:160,1,115,0|2,0:0|0:0,0:0:0:0:
208,272,36185,2,2,P|240:208|240:112,1,115,0|2,0:0|0:0,0:0:0:0:
272,224,36466,2,2,P|304:160|304:64,1,115,0|2,0:0|0:0,0:0:0:0:
304,32,36841,1,0,0:0:0:0:
416,0,37029,6,0,P|412:58|380:106,1,115,8|0,0:0|0:0,0:0:0:0:
352,128,37310,1,0,0:0:0:0:
320,144,37404,2,0,P|272:144|208:96,1,115
176,176,37779,2,0,P|272:224|320:224,1,115,8|8,0:0|0:0,0:0:0:0:
368,224,38154,1,0,0:0:0:0:
432,144,38341,1,0,0:0:0:0:
448,128,38435,1,0,0:0:0:0:
464,112,38529,2,0,P|400:112|336:144,1,115,8|0,0:0|0:0,0:0:0:0:
256,240,38904,2,0,P|320:240|384:208,1,115
449,162,39279,6,8,P|464:224|448:272,1,115
480,256,39560,1,0,0:0:0:0:
512,240,39654,2,0,P|444:245|384:224,1,115
256,96,40029,2,0,P|304:112|368:112,1,115,8|0,0:0|0:0,0:0:0:0:
352,80,40310,1,0,0:0:0:0:
336,48,40404,2,0,P|304:128|256:144,1,115
176,176,40779,6,8,P|224:240|256:256,1,115
277,165,41154,2,0,P|255:239|191:271,1,153.333333333333
64,192,41529,2,0,P|128:192|176:176,1,115,8|0,0:0|0:0,0:0:0:0:
32,272,41904,2,0,P|144:272|256:224,1,230,0|8,0:0|0:0,0:0:0:0:
288,208,42372,1,0,0:0:0:0:
320,192,42466,6,0,P|352:240|416:272,1,115,8|0,0:0|0:0,0:0:0:0:
384,352,42841,1,0,0:0:0:0:
432,160,43029,1,8,0:0:0:0:
448,144,43122,1,0,0:0:0:0:
464,128,43216,2,0,P|464:176|432:240,1,115
416,64,43591,1,0,0:0:0:0:
352,160,43779,6,8,P|276:151|228:135,1,115
384,80,44154,2,0,P|432:144|432:176,1,115
416,208,44435,1,0,0:0:0:0:
384,240,44529,2,0,P|448:224|496:240,1,115,8|0,0:0|0:0,0:0:0:0:
368,320,44904,6,0,P|304:240|384:160,1,230,0|8,0:0|0:0,0:0:0:0:
368,192,45372,1,0,0:0:0:0:
336,176,45466,2,0,P|320:112|336:64,1,115,8|0,0:0|0:0,0:0:0:0:
240,144,45841,6,0,P|160:144|128:128,1,115,0|8,0:0|0:0,0:0:0:0:
128,96,46122,1,0,0:0:0:0:
160,112,46216,2,0,P|144:176|96:208,1,115
32,64,46591,1,0,0:0:0:0:
128,32,46779,6,8,P|192:32|240:64,1,115
160,240,47154,2,0,P|107:255|32:192,1,153.333333333333
112,176,47529,2,0,P|96:240|16:272,1,115,8|0,0:0|0:0,0:0:0:0:
64,96,47904,2,0,B|96:80|160:80|192:144|192:144|224:64,1,230,0|8,0:0|0:0,0:0:0:0:
256,192,48654,12,0,50154,0:0:0:0:
224,128,50341,6,0,L|109:128,1,115
288,256,50716,2,0,L|403:256,1,115
176,224,51279,1,0,0:0:0:0:
256,192,51654,12,0,53154,0:0:0:0:
32,240,53529,2,0,P|64:289|110:320,1,115
144,208,53904,1,0,0:0:0:0:
80,128,54091,1,0,0:0:0:0:
96,112,54185,1,0,0:0:0:0:
112,96,54279,6,0,P|144:144|192:176,1,115
224,64,54654,1,2,0:0:0:0:
288,224,55029,5,0,0:0:0:0:
320,112,55216,2,0,P|366:143|398:191,1,115,0|2,0:0|0:0,0:0:0:0:
288,224,55779,6,0,P|240:256|208:304,1,115
320,336,56154,1,2,0:0:0:0:
288,224,56341,2,0,P|336:192|368:144,1,115
256,112,56716,1,0,0:0:0:0:
288,224,56904,2,0,P|320:272|368:304,1,115,2|0,0:0|0:0,0:0:0:0:
480,272,57279,6,0,P|448:224|400:192,1,115
304,144,57654,1,2,0:0:0:0:
368,304,58029,5,0,0:0:0:0:
272,256,58217,2,0,P|225:224|193:176,1,115,0|2,0:0|0:0,0:0:0:0:
304,144,58779,6,0,P|336:96|384:64,1,115
416,176,59154,1,2,0:0:0:0:
304,144,59341,2,0,P|272:192|224:224,1,115
192,112,59716,1,0,0:0:0:0:
304,144,59904,2,0,P|352:176|384:224,1,115,2|0,0:0|0:0,0:0:0:0:
384,224,60279,2,0,P|432:256|464:304,1,115,2|0,0:0|0:0,0:0:0:0:
256,192,60747,12,0,62154,0:0:0:0:
144,96,62529,6,0,L|384:96,1,230
192,208,63466,1,0,0:0:0:0:
320,272,64404,2,0,L|384:256,2,57.5
192,304,64779,1,0,0:0:0:0:
320,80,65154,1,0,0:0:0:0:
192,112,65716,2,0,L|128:128,2,57.5
320,176,66654,1,0,0:0:0:0:
192,208,67029,2,0,L|128:224,2,57.5
320,272,67404,1,0,0:0:0:0:
192,112,67779,5,0,0:0:0:0:
256,192,67966,1,0,0:0:0:0:
272,176,68060,1,0,0:0:0:0:
288,160,68154,2,0,P|368:176|416:160,1,115,8|0,0:0|0:0,0:0:0:0:
256,48,68529,1,0,0:0:0:0:
240,64,68622,1,0,0:0:0:0:
224,80,68716,2,0,P|144:96|96:80,1,115,8|8,0:0|0:0,0:0:0:0:
48,144,69091,1,0,0:0:0:0:
160,224,69279,5,0,0:0:0:0:
176,208,69372,1,0,0:0:0:0:
192,192,69466,2,0,P|256:192|304:208,1,115,0|8,0:0|0:0,0:0:0:0:
336,224,69747,1,0,0:0:0:0:
368,240,69841,2,0,P|384:176|416:128,1,115
432,112,70122,1,0,0:0:0:0:
464,96,70216,2,0,P|416:80|368:32,1,115,8|8,0:0|0:0,0:0:0:0:
256,48,70591,6,0,P|192:80|144:80,1,115
256,144,70966,2,0,P|336:176|400:208,1,115,0|8,0:0|0:0,0:0:0:0:
176,192,71341,2,0,P|80:240|32:240,1,115
256,240,71716,2,8,P|304:256|368:272,1,115
128,320,72091,5,0,0:0:0:0:
144,304,72185,1,0,0:0:0:0:
160,288,72279,1,0,0:0:0:0:
176,272,72372,1,0,0:0:0:0:
176,256,72466,1,0,0:0:0:0:
176,240,72560,1,0,0:0:0:0:
176,224,72654,2,0,P|240:256|320:208,1,153.333333333333,8|0,0:0|0:0,0:0:0:0:
240,176,73029,2,0,P|240:256|288:304,1,115,0|8,0:0|0:0,0:0:0:0:
320,336,73404,5,8,0:0:0:0:
320,336,73591,1,0,0:0:0:0:
320,336,73779,1,0,0:0:0:0:
320,336,73966,1,0,0:0:0:0:
368,208,74154,2,0,L|416:80,1,115,12|0,0:0|0:0,0:0:0:0:
288,48,74529,5,0,0:0:0:0:
288,48,74716,1,0,0:0:0:0:
240,176,74904,2,0,L|192:304,1,115,8|0,0:0|0:0,0:0:0:0:
48,320,75279,6,0,P|48:256|96:192,1,115
144,64,75654,2,0,L|272:64,1,115,8|0,0:0|0:0,0:0:0:0:
240,176,76029,2,0,L|355:176,1,115
336,288,76404,2,0,L|451:288,1,115,8|0,0:0|0:0,0:0:0:0:
416,80,76779,6,0,P|368:96|304:96,1,115
160,192,77154,2,0,L|32:192,1,115,8|0,0:0|0:0,0:0:0:0:
96,80,77529,6,0,P|144:96|208:96,1,115
352,192,77904,2,0,L|480:192,1,115,8|0,0:0|0:0,0:0:0:0:
240,192,78279,6,0,L|304:288,1,115
304,96,78654,2,0,L|240:192,1,115,8|0,0:0|0:0,0:0:0:0:
208,32,79029,2,0,L|304:96,1,115
112,96,79404,2,0,L|208:32,1,115,8|0,0:0|0:0,0:0:0:0:
32,144,79779,5,0,0:0:0:0:
48,176,79872,1,0,0:0:0:0:
64,208,79966,1,0,0:0:0:0:
80,240,80060,1,0,0:0:0:0:
96,272,80154,2,4,L|224:272,1,115,8|0,0:0|0:0,0:0:0:0:
112,128,80529,5,0,0:0:0:0:
128,160,80622,1,0,0:0:0:0:
144,192,80716,2,0,L|272:192,1,115,0|8,0:0|0:0,0:0:0:0:
192,112,81091,5,0,0:0:0:0:
267,139,81279,2,0,P|240:48|192:32,1,153.333333333333
192,112,81654,2,0,P|208:192|272:224,1,115,8|0,0:0|0:0,0:0:0:0:
192,32,82029,2,0,P|128:64|112:112,1,115
192,112,82404,6,0,B|240:144|240:144|288:112|288:112|336:144|336:144|384:112,1,230,8|0,0:0|0:0,0:0:0:0:
432,176,82966,2,0,L|336:240,1,115,0|8,0:0|0:0,0:0:0:0:
144,176,83341,1,0,0:0:0:0:
288,112,83529,5,0,0:0:0:0:
336,176,83716,2,0,L|240:240,1,115,0|8,0:0|0:0,0:0:0:0:
48,176,84091,1,0,0:0:0:0:
192,112,84279,5,0,0:0:0:0:
240,176,84466,1,0,0:0:0:0:
160,224,84654,5,8,0:0:0:0:
144,224,84747,1,0,0:0:0:0:
128,224,84841,2,0,P|144:176|160:112,1,115,8|8,0:0|0:0,0:0:0:0:
112,128,85122,1,0,0:0:0:0:
144,144,85216,2,0,P|208:160|256:160,1,115,8|8,0:0|0:0,0:0:0:0:
256,128,85497,1,0,0:0:0:0:
240,160,85591,2,0,P|224:224|240:272,1,115,8|8,0:0|0:0,0:0:0:0:
272,256,85872,1,0,0:0:0:0:
240,240,85966,2,0,P|176:224|128:224,1,115,8|4,0:0|0:0,0:0:0:0:
48,320,86529,6,0,P|112:336|160:336,1,115
176,64,87091,1,8,0:0:0:0:
96,160,87279,2,0,P|160:176|208:176,1,115
368,160,87654,5,8,0:0:0:0:
288,256,88029,2,0,P|352:272|400:272,1,115
240,48,88591,1,8,0:0:0:0:
160,144,88779,2,0,P|224:160|272:160,1,115
96,256,89154,5,8,0:0:0:0:
16,352,89529,2,0,P|80:368|128:368,1,115
288,160,90091,1,8,0:0:0:0:
208,256,90279,2,0,P|272:272|320:272,1,115
416,256,90654,5,8,0:0:0:0:
96,128,91029,1,8,0:0:0:0:
176,128,91216,2,0,L|240:128,2,57.5
144,208,91591,1,8,0:0:0:0:
224,208,91779,2,0,L|288:208,2,57.5
144,208,92154,5,8,0:0:0:0:
176,320,92529,2,0,P|128:320|64:304,1,115
112,96,93091,5,8,0:0:0:0:
144,208,93279,2,0,P|96:208|32:192,1,115
272,192,93654,5,8,0:0:0:0:
304,304,94029,2,0,P|256:304|192:288,1,115
352,96,94591,5,8,0:0:0:0:
384,208,94779,2,0,P|336:208|272:192,1,115
128,112,95154,5,8,0:0:0:0:
160,224,95529,2,0,P|112:224|48:208,1,115
336,192,96091,5,8,0:0:0:0:
368,304,96279,2,0,P|320:304|256:288,1,115
160,256,96654,1,8,0:0:0:0:
240,208,96841,2,0,P|320:144|336:112,1,115
272,64,97310,5,0,0:0:0:0:
272,64,97404,2,0,P|192:144|32:128,1,230
112,112,97966,2,0,L|144:224,1,115,0|4,0:0|0:0,0:0:0:0:
256,192,98247,12,0,100404,0:0:0:0:
