osu file format v12

[General]
AudioFilename: 01 -Flowers-.mp3
AudioLeadIn: 0
PreviewTime: 35904
Countdown: 0
SampleSet: None
StackLeniency: 0.7
Mode: 0
LetterboxInBreaks: 1
WidescreenStoryboard: 1

[Editor]
DistanceSpacing: 1.4
BeatDivisor: 4
GridSize: 4

[Metadata]
Title:Hana Ranman -Flowers-
TitleUnicode:華爛漫 -Flowers-
Artist:TERRA
ArtistUnicode:TERRA
Creator:Scorpiour
Version:Candidate 17 Hard
Source:
Tags:
BeatmapID:297007
BeatmapSetID:102498

[Difficulty]
HPDrainRate:6
CircleSize:4
OverallDifficulty:6
ApproachRate:8
SliderMultiplier:1.5
SliderTickRate:1

[Events]
//Background and Video events
//Break Periods
//Storyboard Layer 0 (Background)
//Storyboard Layer 1 (Fail)
//Storyboard Layer 2 (Pass)
//Storyboard Layer 3 (Foreground)
//Storyboard Sound Samples
//Background Colour Transformations
3,100,0,0,0

[TimingPoints]
-846,375,4,1,0,50,1,0
36654,-100,4,1,0,50,0,1
48654,-100,4,1,0,50,0,0
68154,-100,4,1,0,50,0,1
73404,-100,4,1,0,50,0,0
74154,-100,4,1,0,50,0,1
85779,-100,4,1,0,50,0,0
86154,-100,4,1,0,50,0,1
98154,-100,4,1,0,50,0,0
100404,-100,4,2,0,50,0,0

[HitObjects]
64,192,654,2,0,P|136:160|192:200,1,150,0|2,0:0|0:0,0:0:0:0:
128,232,1404,2,0,P|216:264|256:224,1,150,0|2,0:0|0:0,0:0:0:0:
320,192,2154,2,0,P|328:224|240:312,2,150,0|2|2,0:0|0:0|0:0,0:0:0:0:
336,40,3654,6,0,P|269:48|197:88,1,150,0|2,0:0|0:0,0:0:0:0:
152,152,4404,1,0,0:0:0:0:
152,152,4779,1,2,0:0:0:0:
80,176,5154,2,0,P|32:216|24:248,1,75,2|0,0:0|0:0,0:0:0:0:
104,248,5529,2,0,P|144:264|184:256,1,75,2|0,0:0|0:0,0:0:0:0:
152,192,5904,2,0,P|152:152|136:120,1,75,2|0,0:0|0:0,0:0:0:0:
88,64,6279,1,14,0:0:0:0:
240,48,6654,5,4,0:0:0:0:
272,184,7029,1,8,0:0:0:0:
152,152,7404,1,0,0:0:0:0:
224,120,7779,1,8,0:0:0:0:
240,256,8154,1,2,0:0:0:0:
352,184,8529,1,2,0:0:0:0:
272,184,8904,1,2,0:0:0:0:
432,184,9654,5,0,0:0:0:0:
312,112,10029,1,8,0:0:0:0:
312,256,10404,1,0,0:0:0:0:
352,184,10779,1,8,0:0:0:0:
232,136,11154,1,2,0:0:0:0:
336,32,11529,1,2,0:0:0:0:
312,112,11904,2,0,L|248:48,1,75,0|2,0:0|0:0,0:0:0:0:
232,136,12279,2,0,L|168:72,1,75,0|2,0:0|0:0,0:0:0:0:
152,160,12654,5,8,0:0:0:0:
16,104,13029,1,0,0:0:0:0:
32,176,13216,1,0,0:0:0:0:
48,248,13404,1,8,0:0:0:0:
184,304,13779,2,0,P|160:272|152:232,1,75
224,240,14154,2,0,P|312:256|384:240,1,150,8|0,0:0|0:0,0:0:0:0:
448,248,14716,2,0,P|440:214|416:182,1,75,0|8,0:0|0:0,0:0:0:0:
352,136,15279,1,8,0:0:0:0:
200,112,15654,5,8,0:0:0:0:
56,136,16029,1,0,0:0:0:0:
80,208,16216,2,0,L|104:288,1,75,0|8,0:0|0:0,0:0:0:0:
136,136,16779,2,0,L|160:216,1,75
184,280,17154,1,8,0:0:0:0:
280,168,17529,1,0,0:0:0:0:
344,216,17904,2,0,P|296:248|216:216,2,150,8|8|8,0:0|0:0|0:0,0:0:0:0:
424,88,19029,5,0,0:0:0:0:
352,80,19216,2,0,L|272:88,1,75,0|8,0:0|0:0,0:0:0:0:
128,104,19779,1,0,0:0:0:0:
16,208,20154,1,8,0:0:0:0:
88,224,20341,2,0,L|168:232,1,75
312,248,20904,2,0,P|360:248|464:184,2,150,8|8|8,0:0|0:0|0:0,0:0:0:0:
336,96,22029,5,0,0:0:0:0:
296,160,22216,2,0,L|224:136,1,75,0|8,0:0|0:0,0:0:0:0:
80,176,22779,1,0,0:0:0:0:
160,304,23154,1,8,0:0:0:0:
232,288,23341,1,0,0:0:0:0:
304,272,23529,1,0,0:0:0:0:
232,136,23904,2,0,P|304:176|376:152,2,150,8|8|8,0:0|0:0|0:0,0:0:0:0:
368,80,25029,5,2,0:0:0:0:
432,216,25404,1,0,0:0:0:0:
280,200,25779,1,2,0:0:0:0:
208,64,26154,1,0,0:0:0:0:
128,192,26529,1,2,0:0:0:0:
280,200,26904,1,2,0:0:0:0:
352,184,27091,1,0,0:0:0:0:
424,168,27279,1,2,0:0:0:0:
328,56,27654,5,0,0:0:0:0:
208,152,28029,1,2,0:0:0:0:
344,208,28404,1,0,0:0:0:0:
224,296,28779,1,2,0:0:0:0:
88,248,29154,5,8,0:0:0:0:
88,248,29341,1,8,0:0:0:0:
88,248,29529,1,8,0:0:0:0:
208,152,29904,1,2,0:0:0:0:
216,224,30091,1,0,0:0:0:0:
224,296,30279,1,2,0:0:0:0:
344,208,30654,5,0,0:0:0:0:
288,72,31029,1,0,0:0:0:0:
416,152,31404,1,2,0:0:0:0:
264,152,31779,1,2,0:0:0:0:
384,64,32154,5,8,0:0:0:0:
384,64,32341,1,8,0:0:0:0:
384,64,32529,1,8,0:0:0:0:
344,208,32904,1,2,0:0:0:0:
272,192,33091,1,0,0:0:0:0:
200,176,33279,1,2,0:0:0:0:
344,128,33654,6,0,P|408:160|416:240,1,150,0|2,0:0|0:0,0:0:0:0:
240,264,34404,2,0,P|200:224|240:120,1,150,2|0,0:0|0:0,0:0:0:0:
416,128,35154,2,0,P|360:200|304:192,1,150,2|0,0:0|0:0,0:0:0:0:
256,56,35904,6,2,L|232:128,1,75,0|2,0:0|0:0,0:0:0:0:
304,152,36279,2,2,L|280:224,1,75,0|2,0:0|0:0,0:0:0:0:
352,248,36654,1,10,0:0:0:0:
208,200,37029,2,0,L|184:272,1,75
256,296,37404,1,8,0:0:0:0:
408,296,37779,6,0,P|424:256|416:216,1,75
352,248,38154,2,0,P|320:264|272:264,1,75,8|0,0:0|0:0,0:0:0:0:
296,192,38529,2,0,P|240:168|216:128,1,75
296,112,38904,1,8,0:0:0:0:
176,24,39279,5,0,0:0:0:0:
112,64,39466,1,0,0:0:0:0:
48,104,39654,1,8,0:0:0:0:
200,112,40029,1,0,0:0:0:0:
168,176,40216,1,0,0:0:0:0:
136,240,40404,1,8,0:0:0:0:
272,176,40779,5,0,0:0:0:0:
344,152,40966,1,0,0:0:0:0:
392,96,41154,2,0,P|392:208|320:224,2,150,8|0|8,0:0|0:0|0:0,0:0:0:0:
240,96,42279,5,0,0:0:0:0:
312,72,42466,1,0,0:0:0:0:
384,40,42654,1,8,0:0:0:0:
312,176,43029,1,0,0:0:0:0:
384,160,43216,1,0,0:0:0:0:
456,144,43404,1,8,0:0:0:0:
352,256,43779,6,0,P|264:256|248:248,1,75
240,200,44154,2,0,P|208:248|208:296,1,75,8|0,0:0|0:0,0:0:0:0:
224,336,44529,2,0,P|184:336|152:320,1,75
104,264,44904,1,8,0:0:0:0:
112,112,45279,5,0,0:0:0:0:
160,168,45466,1,0,0:0:0:0:
208,224,45654,1,8,0:0:0:0:
232,80,46029,1,0,0:0:0:0:
304,88,46216,1,0,0:0:0:0:
376,96,46404,1,8,0:0:0:0:
384,248,46779,6,0,P|360:208|328:192,1,75
312,264,47154,2,0,P|240:256|192:192,1,150,0|0,0:0|0:0,0:0:0:0:
200,120,47716,1,0,0:0:0:0:
128,144,47904,2,2,P|200:192|264:160,1,150,0|2,0:0|0:0,0:0:0:0:
16,136,54279,5,2,0:0:0:0:
88,120,54466,1,0,0:0:0:0:
160,104,54654,1,2,0:0:0:0:
160,104,55029,5,2,0:0:0:0:
232,88,55216,1,0,0:0:0:0:
304,72,55404,1,2,0:0:0:0:
232,88,55779,5,2,0:0:0:0:
304,72,55966,1,0,0:0:0:0:
352,128,56154,1,2,0:0:0:0:
376,56,56341,1,0,0:0:0:0:
424,112,56529,1,2,0:0:0:0:
448,40,56716,1,0,0:0:0:0:
496,96,56904,1,2,0:0:0:0:
496,248,57279,5,2,0:0:0:0:
424,240,57466,1,0,0:0:0:0:
352,232,57654,1,2,0:0:0:0:
352,232,58029,5,2,0:0:0:0:
280,216,58216,1,0,0:0:0:0:
208,200,58404,1,2,0:0:0:0:
280,216,58779,5,2,0:0:0:0:
208,200,58966,1,0,0:0:0:0:
184,128,59154,1,2,0:0:0:0:
128,184,59341,1,0,0:0:0:0:
112,112,59529,1,2,0:0:0:0:
56,160,59716,1,0,0:0:0:0:
0,208,59904,1,2,0:0:0:0:
0,208,60279,1,2,0:0:0:0:
256,192,60654,12,0,61779,0:0:0:0:
256,192,62154,5,0,0:0:0:0:
208,48,62529,1,0,0:0:0:0:
320,144,62904,1,0,0:0:0:0:
96,104,63466,1,0,0:0:0:0:
352,256,64404,5,0,0:0:0:0:
288,216,64591,1,0,0:0:0:0:
224,176,64779,1,0,0:0:0:0:
368,128,65154,1,0,0:0:0:0:
152,64,65716,1,0,0:0:0:0:
80,64,65904,1,0,0:0:0:0:
312,256,66654,5,0,0:0:0:0:
216,136,67029,1,0,0:0:0:0:
216,136,67216,1,0,0:0:0:0:
288,104,67404,1,0,0:0:0:0:
216,240,67779,1,0,0:0:0:0:
360,192,68154,5,8,0:0:0:0:
208,192,68529,1,0,0:0:0:0:
296,72,68904,1,8,0:0:0:0:
416,160,69279,1,0,0:0:0:0:
328,280,69654,1,8,0:0:0:0:
176,280,70029,1,0,0:0:0:0:
256,152,70404,1,8,0:0:0:0:
104,152,70779,5,0,0:0:0:0:
208,40,71154,1,8,0:0:0:0:
176,184,71529,1,0,0:0:0:0:
128,40,71904,1,8,0:0:0:0:
168,104,72091,1,0,0:0:0:0:
208,168,72279,1,0,0:0:0:0:
248,232,72466,1,0,0:0:0:0:
288,296,72654,5,8,0:0:0:0:
288,296,73029,1,8,0:0:0:0:
288,296,73404,1,2,0:0:0:0:
416,224,73779,5,2,0:0:0:0:
344,216,73966,1,0,0:0:0:0:
272,200,74154,2,0,P|240:192|208:152,1,75,6|0,0:0|0:0,0:0:0:0:
280,128,74529,1,0,0:0:0:0:
352,120,74716,1,0,0:0:0:0:
424,112,74904,2,0,P|456:104|488:64,1,75,8|0,0:0|0:0,0:0:0:0:
416,40,75279,6,0,P|376:56|352:96,1,75
344,152,75654,2,0,P|392:152|432:144,2,75,8|0|0,0:0|0:0|0:0,0:0:0:0:
272,144,76216,2,0,L|288:224,1,75,0|8,0:0|0:0,0:0:0:0:
344,360,76779,5,0,0:0:0:0:
296,304,76966,1,0,0:0:0:0:
232,336,77154,2,0,P|184:344|152:336,1,75,2|0,0:0|0:0,0:0:0:0:
192,272,77529,1,0,0:0:0:0:
144,216,77716,1,0,0:0:0:0:
80,248,77904,2,0,P|32:256|0:248,1,75,8|0,0:0|0:0,0:0:0:0:
40,184,78279,6,0,P|88:144|96:112,1,75
104,64,78654,2,0,P|64:56|32:40,2,75,8|0|0,0:0|0:0|0:0,0:0:0:0:
176,64,79216,2,0,L|232:120,1,75,0|8,0:0|0:0,0:0:0:0:
376,80,79779,5,0,0:0:0:0:
368,152,79966,1,0,0:0:0:0:
360,224,80154,2,0,P|320:216|280:224,1,75,6|0,0:0|0:0,0:0:0:0:
216,256,80529,1,0,0:0:0:0:
224,184,80716,1,0,0:0:0:0:
232,112,80904,2,0,P|272:120|312:112,1,75,8|0,0:0|0:0,0:0:0:0:
272,48,81279,6,0,P|224:40|192:48,1,75
128,80,81654,2,0,P|144:120|144:152,2,75,8|0|0,0:0|0:0|0:0,0:0:0:0:
64,40,82216,2,0,L|40:120,1,75,0|8,0:0|0:0,0:0:0:0:
0,256,82779,5,0,0:0:0:0:
72,232,82966,1,0,0:0:0:0:
144,208,83154,2,0,P|184:232|216:232,1,75,2|0,0:0|0:0,0:0:0:0:
200,160,83529,1,0,0:0:0:0:
272,136,83716,1,0,0:0:0:0:
344,112,83904,2,0,P|384:136|416:136,1,75,8|0,0:0|0:0,0:0:0:0:
400,64,84279,6,0,P|360:40|328:40,1,75
264,72,84654,2,0,P|240:128|248:160,1,75,8|0,0:0|0:0,0:0:0:0:
272,208,85029,2,0,P|320:248|352:256,1,75
408,256,85404,2,2,P|440:232|456:200,2,75,8|0|2,0:0|0:0|0:0,0:0:0:0:
264,296,86154,5,8,0:0:0:0:
384,208,86529,2,0,L|304:176,1,75
248,152,86904,1,0,0:0:0:0:
152,272,87279,1,8,0:0:0:0:
136,120,87654,5,8,0:0:0:0:
264,48,88029,2,0,L|352:72,1,75
408,88,88404,1,0,0:0:0:0:
296,192,88779,1,8,0:0:0:0:
152,224,89154,5,8,0:0:0:0:
280,296,89529,2,0,L|360:296,1,75
432,296,89904,1,0,0:0:0:0:
360,168,90279,1,8,0:0:0:0:
208,168,90654,5,0,0:0:0:0:
280,40,91029,1,0,0:0:0:0:
288,192,91404,1,0,0:0:0:0:
200,72,91779,1,0,0:0:0:0:
336,136,92154,6,0,P|360:208|312:264,1,150,8|0,0:0|0:0,0:0:0:0:
288,192,92716,2,0,P|192:192|136:152,1,150
88,208,93279,1,8,0:0:0:0:
88,208,93466,1,0,0:0:0:0:
16,224,93654,6,0,P|80:280|144:256,1,150,8|0,0:0|0:0,0:0:0:0:
208,232,94216,2,0,P|248:288|328:280,1,150
280,224,94779,1,8,0:0:0:0:
280,224,94966,1,0,0:0:0:0:
296,152,95154,6,0,P|352:96|424:112,1,150,8|0,0:0|0:0,0:0:0:0:
368,168,95716,2,0,P|320:224|240:200,1,150
200,160,96279,1,8,0:0:0:0:
200,160,96466,1,0,0:0:0:0:
272,176,96654,6,0,P|208:232|152:216,1,150,8|0,0:0|0:0,0:0:0:0:
97,160,97216,2,10,P|129:144|168:144,1,75,8|8,0:0|0:0,0:0:0:0:
312,184,97779,1,8,0:0:0:0:
256,40,98154,1,4,0:0:0:0:
256,192,98341,12,0,100404,0:0:0:0:
