osu file format v12

[General]
AudioFilename: 01 -Flowers-.mp3
AudioLeadIn: 1985
PreviewTime: 35904
Countdown: 0
SampleSet: None
StackLeniency: 0.7
Mode: 0
LetterboxInBreaks: 1
WidescreenStoryboard: 1

[Editor]
DistanceSpacing: 1.4
BeatDivisor: 4
GridSize: 4

[Metadata]
Title:Hana Ranman -Flowers-
TitleUnicode:華爛漫 -Flowers-
Artist:TERRA
ArtistUnicode:TERRA
Creator:Scorpiour
Version:Candidate 14 Insane
Source:
Tags:
BeatmapID:297006
BeatmapSetID:102498

[Difficulty]
HPDrainRate:7
CircleSize:5
OverallDifficulty:7
ApproachRate:8
SliderMultiplier:1.6
SliderTickRate:1

[Events]
//Background and Video events
//Break Periods
//Storyboard Layer 0 (Background)
//Storyboard Layer 1 (Fail)
//Storyboard Layer 2 (Pass)
//Storyboard Layer 3 (Foreground)
//Storyboard Sound Samples
//Background Colour Transformations
3,100,0,0,0

[TimingPoints]
-846,375,4,1,0,50,1,0
6279,-100,4,1,17,75,0,0
9654,-100,4,1,0,40,0,0
10029,-100,4,1,17,60,0,0
10404,-100,4,1,0,40,0,0
10779,-100,4,1,17,60,0,0
11154,-100,4,1,0,40,0,0
12091,-100,4,1,0,40,0,0
12654,-100,4,1,17,60,0,0
18091,-100,4,1,17,20,0,0
18185,-100,4,1,17,30,0,0
18279,-100,4,1,17,40,0,0
18372,-100,4,1,17,50,0,0
18466,-100,4,1,17,60,0,0
18560,-100,4,1,17,70,0,0
18841,-100,4,1,17,60,0,0
20904,-100,4,2,17,60,0,0
21654,-100,4,1,17,60,0,0
23904,-100,4,2,17,60,0,0
24654,-100,4,1,17,60,0,0
35154,-100,4,1,0,40,0,0
35904,-133.333333333333,4,1,17,30,0,0
36185,-133.333333333333,4,2,0,5,0,0
36279,-100,4,1,17,50,0,0
36560,-100,4,2,0,5,0,0
36654,-80,4,1,17,70,0,1
36935,-80,4,2,0,5,0,1
37029,-80,4,1,17,65,0,1
37122,-80,4,2,0,5,0,1
37216,-80,4,1,17,65,0,1
37310,-80,4,2,0,5,0,1
37404,-80,4,1,17,65,0,1
37591,-80,4,2,0,5,0,1
37779,-80,4,1,17,65,0,1
37872,-80,4,2,0,5,0,1
37966,-80,4,1,17,65,0,1
38060,-80,4,2,0,5,0,1
38154,-80,4,1,17,65,0,1
38247,-80,4,2,0,5,0,1
38341,-80,4,1,17,65,0,1
39372,-80,4,2,0,5,0,1
39466,-80,4,1,17,65,0,1
39560,-80,4,2,0,5,0,1
39654,-80,4,1,17,65,0,1
39747,-80,4,2,0,5,0,1
40029,-80,4,1,17,65,0,1
40122,-80,4,2,0,5,0,1
40216,-80,4,1,17,65,0,1
40310,-80,4,2,0,5,0,1
40404,-80,4,1,17,65,0,1
40685,-80,4,2,0,5,0,1
40779,-80,4,1,17,65,0,1
42372,-80,4,2,0,5,0,1
42466,-80,4,1,17,65,0,1
42560,-80,4,2,0,5,0,1
42654,-80,4,1,17,65,0,1
42747,-80,4,2,0,5,0,1
42935,-80,4,1,17,65,0,1
43122,-80,4,2,0,5,0,1
43216,-80,4,1,17,65,0,1
43310,-80,4,2,0,5,0,1
43404,-80,4,1,17,65,0,1
43497,-80,4,2,0,5,0,1
43779,-80,4,1,17,65,0,1
48185,-80,4,2,0,5,0,1
48279,-80,4,1,17,65,0,1
48654,-80,4,1,17,80,0,1
48841,-80,4,1,17,70,0,1
49029,-80,4,1,17,60,0,1
49216,-80,4,1,17,50,0,1
49404,-80,4,1,17,40,0,1
49591,-80,4,1,17,30,0,1
49779,-80,4,1,17,20,0,1
49966,-80,4,1,17,10,0,1
50154,-80,4,1,17,5,0,0
54279,-80,4,1,0,40,0,0
54466,-80,4,1,0,50,0,0
54654,-100,4,1,17,60,0,0
60466,-100,4,1,17,70,0,0
60654,-100,4,1,17,60,0,0
60841,-100,4,1,17,50,0,0
61029,-100,4,1,17,40,0,0
61216,-100,4,1,17,30,0,0
61404,-100,4,1,17,20,0,0
61591,-100,4,1,17,10,0,0
61779,-133.333333333333,4,2,18,60,0,0
67779,-100,4,2,18,80,0,0
68154,-80,4,1,17,60,0,1
72091,-80,4,1,0,20,0,1
72654,-80,4,1,17,60,0,1
73779,-80,4,1,17,80,0,0
74154,-80,4,1,17,80,0,1
86060,-80,4,1,17,80,0,0
86154,-100,4,1,17,80,0,1
86247,-100,4,1,17,80,0,0
90935,-100,4,2,0,5,0,0
91029,-100,4,1,17,80,0,0
91310,-100,4,2,0,5,0,0
91404,-100,4,1,17,80,0,0
91685,-100,4,2,0,5,0,0
91779,-100,4,1,17,80,0,0
97310,-100,4,2,0,5,0,0
97404,-100,4,1,17,40,0,0
98154,-100,4,1,0,60,0,0
98247,-100,4,2,0,20,0,0
99279,-100,4,2,0,30,0,0
99466,-100,4,2,0,40,0,0
99654,-100,4,2,0,50,0,0
99841,-100,4,2,0,60,0,0
100029,-100,4,2,0,70,0,0
100216,-100,4,2,0,80,0,0
100404,-100,4,2,0,70,0,0
100497,-100,4,1,17,5,0,0

[HitObjects]
467,123,654,1,4,0:0:0:0:
443,139,1404,1,0,0:0:0:0:
419,155,2154,1,0,0:0:0:0:
396,171,2904,1,0,0:0:0:0:
373,188,3654,5,0,0:0:0:0:
352,206,4029,1,0,0:0:0:0:
329,222,4404,1,0,0:0:0:0:
306,238,4779,1,0,0:0:0:0:
364,110,5154,5,0,0:0:0:0:
445,223,5529,1,0,0:0:0:0:
306,238,5716,1,0,0:0:0:0:
306,238,5810,1,0,0:0:0:0:
306,238,5904,2,0,L|236:286,2,80,0|0|12,0:0|0:0|0:0,0:0:0:0:
63,139,6654,6,0,P|112:102|136:103,1,80,0|0,0:0|2:0,0:0:0:0:
306,238,7029,2,0,P|257:275|230:274,1,80,2|0,0:0|2:0,0:0:0:0:
222,62,7404,2,0,P|259:111|259:137,1,80,0|0,0:0|2:0,0:0:0:0:
142,306,7779,2,0,P|105:257|105:232,1,80,2|0,0:0|2:0,0:0:0:0:
221,62,8154,6,0,L|286:108,1,80,0|0,0:0|2:0,0:0:0:0:
364,277,8529,2,0,L|294:232,1,80,8|0,0:0|0:0,0:0:0:0:
274,217,8810,1,8,0:0:0:0:
250,201,8904,1,0,0:0:0:0:
176,152,9091,1,0,0:0:0:0:
56,168,9279,2,0,L|136:224,1,80,8|0,0:0|2:0,0:0:0:0:
264,288,9654,6,0,L|224:360,1,80,4|0,1:1|2:0,0:0:0:0:
104,112,10029,2,0,L|144:40,1,80,2|0,0:0|2:0,0:0:0:0:
96,280,10404,2,0,L|24:240,1,80,4|0,1:1|2:0,0:0:0:0:
272,120,10779,2,0,L|344:160,1,80,2|0,0:0|2:0,0:0:0:0:
96,280,11154,6,0,P|80:240|88:200,1,80,4|0,0:0|2:0,0:0:0:0:
272,120,11529,1,4,0:0:0:0:
392,232,11904,1,4,0:0:0:0:
272,232,12091,1,0,0:0:0:0:
272,232,12185,1,8,0:0:0:0:
272,232,12279,1,0,0:0:0:0:
328,288,12466,1,0,0:0:0:0:
328,288,12560,1,8,0:0:0:0:
328,288,12654,6,0,L|264:336,1,80,0|0,0:0|0:0,0:0:0:0:
192,96,13029,2,0,L|248:168,1,80,8|0,0:0|0:0,0:0:0:0:
311,251,13404,2,0,P|344:192|328:104,1,160,2|8,0:0|0:0,0:0:0:0:
166,234,13966,2,0,P|224:267|312:251,1,160,2|8,0:0|0:0,0:0:0:0:
438,200,14529,1,2,0:0:0:0:
350,331,14716,1,0,0:0:0:0:
264,51,14904,1,2,0:0:0:0:
227,181,15091,1,0,0:0:0:0:
227,181,15185,1,2,0:0:0:0:
227,181,15279,2,0,L|157:243,1,80,8|8,0:0|0:0,0:0:0:0:
67,117,15654,6,0,P|101:86|163:86,1,80,2|0,0:0|0:0,0:0:0:0:
253,83,16029,1,8,0:0:0:0:
368,113,16216,2,0,P|400:106|434:75,2,80,2|0|0,0:0|0:0|0:0,0:0:0:0:
336,24,16779,1,8,0:0:0:0:
288,176,16966,2,0,P|281:255|326:327,1,160,2|0,0:0|0:0,0:0:0:0:
368,232,17529,1,8,0:0:0:0:
200,272,17716,1,2,0:0:0:0:
96,144,17904,1,2,0:0:0:0:
224,96,18091,5,2,0:0:0:0:
243,90,18185,1,0,0:0:0:0:
263,90,18279,1,2,0:0:0:0:
281,96,18372,1,0,0:0:0:0:
298,106,18466,1,0,0:0:0:0:
315,115,18560,1,0,0:0:0:0:
333,123,18654,2,0,P|374:127|416:113,1,80,4|0,0:0|0:0,0:0:0:0:
360,42,19029,5,8,0:0:0:0:
360,42,19216,1,0,0:0:0:0:
327,188,19404,2,0,B|291:251|406:291|306:342|306:342,1,160,2|8,0:0|0:0,0:0:0:0:
232,368,19966,2,0,P|179:377|150:357,1,80,2|0,0:0|0:0,0:0:0:0:
70,267,20341,1,2,0:0:0:0:
70,267,20435,1,0,0:0:0:0:
70,267,20529,2,0,P|113:244|133:215,1,80,10|0,0:0|0:0,0:0:0:0:
153,117,20904,5,10,0:0:0:0:
159,98,20997,1,0,0:0:0:0:
173,84,21091,1,2,0:0:0:0:
191,76,21185,1,0,0:0:0:0:
211,76,21279,1,2,0:0:0:0:
228,85,21372,1,0,0:0:0:0:
243,98,21466,1,2,0:0:0:0:
258,111,21560,1,0,0:0:0:0:
271,125,21654,2,0,P|304:152|343:165,1,80,2|0,0:0|0:0,0:0:0:0:
471,126,22029,5,10,0:0:0:0:
371,55,22216,1,0,0:0:0:0:
344,232,22404,2,0,P|264:208|200:144,1,160,2|8,0:0|0:0,0:0:0:0:
176,56,22966,2,0,P|128:72|88:112,1,80,2|0,0:0|0:0,0:0:0:0:
56,192,23341,1,2,0:0:0:0:
48,224,23435,1,0,0:0:0:0:
48,256,23529,2,0,P|80:296|112:312,1,80,8|2,0:0|0:0,0:0:0:0:
231,305,23904,5,10,0:0:0:0:
245,291,23997,1,0,0:0:0:0:
263,283,24091,1,2,0:0:0:0:
283,283,24185,1,0,0:0:0:0:
302,284,24279,1,2,0:0:0:0:
321,286,24372,1,0,0:0:0:0:
339,278,24466,1,2,0:0:0:0:
353,264,24560,1,0,0:0:0:0:
364,247,24654,6,0,P|392:200|392:160,1,80,6|0,0:0|2:0,0:0:0:0:
216,120,25029,2,0,P|256:152|296:152,1,80,8|0,0:0|2:0,0:0:0:0:
445,44,25404,2,0,P|405:60|373:92,1,80,2|0,0:0|2:0,0:0:0:0:
344,136,25779,1,8,0:0:0:0:
264,320,26154,2,0,P|192:280|160:200,1,160,2|8,0:0|0:0,0:0:0:0:
224,96,26716,1,0,0:0:0:0:
313,185,26904,2,0,P|233:217|153:209,1,160,2|8,0:0|0:0,0:0:0:0:
304,152,27654,6,0,L|229:122,1,80,2|0,0:0|2:0,0:0:0:0:
128,0,28029,2,0,L|160:80,1,80,8|0,0:0|2:0,0:0:0:0:
112,232,28404,2,0,L|152:144,1,80,2|0,0:0|2:0,0:0:0:0:
224,208,28779,2,0,L|256:288,1,80,8|0,0:0|0:0,0:0:0:0:
253,282,29060,1,0,0:0:0:0:
253,282,29154,1,2,0:0:0:0:
352,192,29341,1,0,0:0:0:0:
472,240,29529,1,8,0:0:0:0:
408,80,29716,1,0,0:0:0:0:
272,128,29904,1,0,0:0:0:0:
272,128,29997,1,8,0:0:0:0:
272,128,30091,1,0,0:0:0:0:
160,24,30279,6,0,L|192:112,1,80,2|0,0:0|0:0,0:0:0:0:
208,256,30654,2,0,P|176:280|136:280,1,80,2|0,0:0|2:0,0:0:0:0:
160,112,31029,2,0,P|192:88|232:88,1,80,8|0,0:0|2:0,0:0:0:0:
256,168,31404,2,0,P|280:200|280:240,1,80,2|0,0:0|2:0,0:0:0:0:
120,224,31779,2,0,P|96:192|96:152,1,80,8|0,0:0|2:0,0:0:0:0:
224,72,32154,2,0,P|264:88|288:120,1,80,2|0,0:0|0:0,0:0:0:0:
304,144,32435,1,2,0:0:0:0:
320,168,32529,2,0,P|352:192|400:200,1,80,8|8,0:0|0:0,0:0:0:0:
397,111,32904,1,0,0:0:0:0:
391,201,33091,2,0,B|455:201|481:159|491:123|487:88,1,160,2|0,0:0|0:0,0:0:0:0:
487,97,33654,1,8,0:0:0:0:
200,336,34029,5,0,0:0:0:0:
200,336,34216,2,0,B|168:280|200:216|208:176,1,160,8|2,0:0|0:0,0:0:0:0:
206,180,34779,2,0,P|212:153|212:130,4,40,8|0|0|0|0,0:0|0:0|0:0|0:0|0:0,0:0:0:0:
206,180,35529,1,0,0:0:0:0:
64,80,35904,6,0,P|104:112|120:152,1,90.0000034332277,2|0,0:0|2:0,0:0:0:0:
118,146,36279,6,0,P|136:80|120:32,1,120,2|0,0:0|2:0,0:0:0:0:
120,33,36654,6,0,P|200:104|200:184,1,150,2|0,0:0|0:0,0:0:0:0:
207,142,37029,6,0,L|240:192,1,50,8|0,0:0|2:0,0:0:0:0:
368,232,37216,2,0,L|336:184,1,50,2|0,0:0|2:0,0:0:0:0:
368,56,37404,2,0,L|432:144,1,100,2|0,0:0|2:0,0:0:0:0:
191,208,37779,2,0,L|235:182,1,50,8|0,0:0|2:0,0:0:0:0:
325,257,37966,2,0,L|369:231,1,50,2|0,0:0|2:0,0:0:0:0:
320,384,38154,2,0,L|364:358,1,50,2|0,0:0|2:0,0:0:0:0:
154,316,38435,1,2,0:0:0:0:
154,316,38529,2,0,P|128:280|80:256,1,100,8|0,0:0|0:0,0:0:0:0:
128,160,38904,2,0,P|192:192|232:272,1,150,4|0,0:0|0:0,0:0:0:0:
229,258,39279,6,0,L|280:224,1,50,2|0,0:0|2:0,0:0:0:0:
271,230,39466,2,0,L|264:168,1,50,10|0,0:0|2:0,0:0:0:0:
265,180,39654,2,0,L|408:112,1,150,10|0,0:0|2:0,0:0:0:0:
400,115,40029,6,0,L|352:64,1,50,2|0,0:0|2:0,0:0:0:0:
366,79,40216,2,0,L|312:96,1,50,10|0,0:0|2:0,0:0:0:0:
318,93,40404,2,0,P|256:64|176:72,1,150,10|0,0:0|2:0,0:0:0:0:
112,128,40779,2,0,P|160:152|216:144,1,100,2|0,0:0|0:0,0:0:0:0:
216,224,41154,2,0,P|144:232|64:192,1,150,2|0,0:0|0:0,0:0:0:0:
74,201,41529,1,8,0:0:0:0:
160,288,41716,1,8,0:0:0:0:
296,216,41904,2,0,L|320:104,1,100,12|0,0:0|0:0,0:0:0:0:
440,104,42279,6,0,L|424:160,1,50,2|0,0:0|0:0,0:0:0:0:
320,224,42466,2,0,L|333:175,1,50,2|0,0:0|0:0,0:0:0:0:
255,79,42654,2,0,L|216:224,1,150,10|0,0:0|0:0,0:0:0:0:
162,237,43029,2,0,L|179:176,1,50,2|0,0:0|0:0,0:0:0:0:
120,64,43216,2,0,L|103:125,1,50,10|0,0:0|0:0,0:0:0:0:
16,240,43404,2,0,L|33:179,1,50,10|0,0:0|0:0,0:0:0:0:
251,162,43779,6,0,P|211:194|149:188,1,100,8|0,0:0|0:0,0:0:0:0:
128,128,44154,2,0,P|176:72|240:96,1,150,2|0,0:0|0:0,0:0:0:0:
192,135,44529,1,8,0:0:0:0:
232,253,44716,2,0,L|264:355,1,100,8|6,0:0|0:0,0:0:0:0:
392,248,45091,1,0,0:0:0:0:
392,248,45185,1,0,0:0:0:0:
392,248,45279,6,0,L|448:136,2,100,10|2|10,0:0|0:0|0:0,0:0:0:0:
351,190,45841,1,0,0:0:0:0:
319,141,46029,6,0,L|263:29,2,100,10|2|10,0:0|0:0|0:0,0:0:0:0:
351,190,46591,5,0,0:0:0:0:
228,245,46779,1,8,0:0:0:0:
139,139,46966,1,2,0:0:0:0:
59,264,47154,2,0,P|116:290|208:303,1,150,8|2,0:0|0:0,0:0:0:0:
236,302,47529,2,0,P|297:304|336:323,1,100,8|0,0:0|0:0,0:0:0:0:
426,278,47904,2,0,P|454:222|450:119,1,150,8|0,0:0|2:0,0:0:0:0:
455,135,48279,1,12,0:0:0:0:
256,192,48372,12,0,50154,0:0:0:0:
392,74,54279,5,0,0:0:0:0:
249,114,54466,1,0,0:0:0:0:
296,246,54654,2,0,P|318:183|303:95,1,120,2|0,0:0|0:0,0:0:0:0:
305,62,55029,2,0,P|263:88|245:129,1,80,8|0,0:0|0:0,0:0:0:0:
191,294,55404,2,0,P|252:281|303:238,1,120,2|0,0:0|0:0,0:0:0:0:
340,187,55779,2,0,P|301:173|253:191,1,80,8|0,0:0|0:0,0:0:0:0:
101,177,56154,1,0,0:0:0:0:
101,177,56247,1,8,0:0:0:0:
101,177,56341,1,2,0:0:0:0:
210,241,56529,1,8,0:0:0:0:
232,52,56716,1,0,0:0:0:0:
439,168,56904,6,0,P|404:113|347:96,1,120,8|0,0:0|0:0,0:0:0:0:
354,95,57279,1,0,0:0:0:0:
269,270,57466,1,0,0:0:0:0:
251,157,57654,2,0,P|197:116|118:117,1,120,2|0,0:0|0:0,0:0:0:0:
146,110,58029,1,8,0:0:0:0:
206,219,58216,1,0,0:0:0:0:
173,285,58404,2,0,P|227:326|306:325,1,120,2|0,0:0|0:0,0:0:0:0:
277,331,58779,1,8,0:0:0:0:
396,274,58966,1,0,0:0:0:0:
376,153,59153,1,0,0:0:0:0:
358,131,59247,1,2,0:0:0:0:
330,125,59341,1,0,0:0:0:0:
232,192,59529,1,8,0:0:0:0:
273,17,59716,1,0,0:0:0:0:
233,193,59904,1,8,0:0:0:0:
233,193,60279,1,12,0:0:0:0:
256,192,60466,12,0,61591,0:0:0:0:
320,80,61779,5,4,0:0:0:0:
424,136,61966,1,8,0:0:0:0:
312,184,62154,2,0,L|336:248,1,60.0000022888184,4|2,0:0|0:0,0:0:0:0:
216,208,62529,1,8,0:0:0:0:
112,152,62716,1,2,0:0:0:0:
224,104,62904,2,0,L|200:40,1,60.0000022888184,8|2,0:0|0:0,0:0:0:0:
224,104,63279,1,2,0:0:0:0:
312,184,63466,1,8,0:0:0:0:
216,208,63654,2,0,L|148:291,1,90.0000034332277,4|2,0:0|0:0,0:0:0:0:
184,320,64029,1,8,0:0:0:0:
320,328,64216,1,2,0:0:0:0:
440,256,64404,2,0,L|392:168,1,90.0000034332277,8|2,0:0|0:0,0:0:0:0:
344,168,64779,6,0,L|384:240,1,60.0000022888184,8|2,0:0|0:0,0:0:0:0:
312,360,65154,2,0,L|280:296,1,60.0000022888184,4|2,0:0|0:0,0:0:0:0:
255,113,65529,6,0,L|215:185,1,60.0000022888184,8|2,0:0|0:0,0:0:0:0:
287,305,65904,2,0,L|319:241,1,60.0000022888184,4|2,0:0|0:0,0:0:0:0:
227,165,66279,2,0,L|193:223,1,60.0000022888184,2|2,0:0|0:0,0:0:0:0:
25,224,66654,2,0,L|83:137,1,90.0000034332277,6|10,0:0|0:0,0:0:0:0:
114,97,67029,2,0,P|134:122|134:165,1,60.0000022888184,4|2,0:0|0:0,0:0:0:0:
132,248,67404,1,4,0:0:0:0:
72,304,67779,6,0,P|110:324|165:319,1,80,8|2,0:0|0:0,0:0:0:0:
288,275,68154,2,0,P|336:208|336:136,1,150,6|0,0:0|0:0,0:0:0:0:
306,69,68529,2,0,P|266:105|259:155,1,100,8|0,0:0|0:0,0:0:0:0:
426,166,68904,2,0,L|464:259,1,100,2|0,0:0|0:0,0:0:0:0:
351,384,69279,2,0,L|313:291,1,100,8|0,0:0|0:0,0:0:0:0:
176,72,69654,2,0,L|232:216,1,150,2|0,0:0|0:0,0:0:0:0:
224,240,70029,2,0,P|141:277|118:267,1,100,8|0,0:0|0:0,0:0:0:0:
160,200,70404,2,0,P|240:168|288:208,1,150,8|0,0:0|0:0,0:0:0:0:
304,232,70779,6,0,L|400:168,1,100,2|2,0:0|0:0,0:0:0:0:
232,288,71154,1,14,0:0:0:0:
232,176,71341,1,0,0:0:0:0:
232,176,71435,1,2,0:0:0:0:
232,176,71529,6,0,L|136:112,1,100,8|0,0:0|0:0,0:0:0:0:
304,232,71904,2,0,L|387:287,1,100,2|0,0:0|0:0,0:0:0:0:
403,298,72185,1,0,0:0:0:0:
419,309,72279,1,0,0:0:0:0:
435,320,72372,1,0,0:0:0:0:
451,331,72466,1,0,0:0:0:0:
466,224,72654,2,0,P|456:116|426:74,1,150,2|0,0:0|0:0,0:0:0:0:
392,80,73029,2,0,L|331:173,1,100,2|0,0:0|0:0,0:0:0:0:
288,248,73404,1,2,0:0:0:0:
104,320,73779,5,2,0:0:0:0:
146,248,73966,1,2,0:0:0:0:
208,144,74154,1,10,0:0:0:0:
288,136,74341,5,0,0:0:0:0:
288,136,74435,1,8,0:0:0:0:
288,136,74529,1,2,0:0:0:0:
208,272,74716,1,8,0:0:0:0:
392,352,74904,1,10,0:0:0:0:
408,152,75091,5,0,0:0:0:0:
408,152,75185,1,0,0:0:0:0:
408,152,75279,2,0,L|376:48,1,100,8|0,0:0|0:0,0:0:0:0:
328,280,75654,2,0,L|288:136,1,150,8|0,0:0|0:0,0:0:0:0:
272,96,76029,2,0,P|208:104|176:144,2,100,8|2|12,0:0|0:0|0:0,0:0:0:0:
256,176,76591,5,0,0:0:0:0:
256,176,76685,1,0,0:0:0:0:
256,176,76779,1,2,0:0:0:0:
184,296,76966,1,10,0:0:0:0:
256,176,77154,2,0,L|384:272,1,150,10|0,0:0|0:0,0:0:0:0:
408,288,77529,5,2,0:0:0:0:
480,168,77716,1,10,0:0:0:0:
408,288,77904,2,0,L|288:200,1,100,10|0,0:0|0:0,0:0:0:0:
192,120,78279,5,2,0:0:0:0:
96,176,78466,1,0,0:0:0:0:
120,64,78654,2,0,P|200:32|272:72,1,150,8|0,0:0|0:0,0:0:0:0:
280,80,79029,1,2,0:0:0:0:
304,240,79216,2,0,P|248:224|224:192,1,100,2|12,0:0|0:0,0:0:0:0:
280,80,79591,6,0,L|312:120,2,50,0|8|2,0:0|0:0|0:0,0:0:0:0:
184,208,79966,1,10,0:0:0:0:
64,160,80154,1,10,0:0:0:0:
232,80,80341,6,0,L|200:120,2,50,0|8|2,0:0|0:0|0:0,0:0:0:0:
328,208,80716,1,10,0:0:0:0:
448,160,80904,1,10,0:0:0:0:
256,152,81091,5,0,0:0:0:0:
256,152,81185,1,0,0:0:0:0:
256,152,81279,2,0,L|256:272,1,100,2|8,0:0|0:0,0:0:0:0:
176,312,81654,2,0,P|104:288|32:312,1,150,2|0,0:0|0:0,0:0:0:0:
56,336,82029,2,0,P|76:303|60:247,1,100,10|2,0:0|0:0,0:0:0:0:
128,128,82404,1,14,0:0:0:0:
272,64,82591,6,0,L|296:16,2,50,0|0|2,0:0|0:0|0:0,0:0:0:0:
240,128,82966,2,0,L|192:224,2,100,10|10|0,0:0|0:0|0:0,0:0:0:0:
400,24,83529,5,2,0:0:0:0:
368,88,83716,2,0,L|320:184,1,100,10|10,0:0|0:0,0:0:0:0:
150,307,84091,1,0,0:0:0:0:
150,307,84185,1,2,0:0:0:0:
150,307,84279,2,0,L|194:217,1,100,8|2,0:0|0:0,0:0:0:0:
240,128,84654,2,0,P|179:100|90:126,1,150,8|2,0:0|0:0,0:0:0:0:
40,168,85029,2,0,P|111:194|152:179,1,100,8|2,0:0|0:0,0:0:0:0:
240,128,85403,1,8,0:0:0:0:
240,128,85779,6,0,P|328:112|374:180,1,150,6|0,0:0|0:0,0:0:0:0:
376,176,86154,2,0,P|379:231|345:280,1,80,2|8,0:0|0:0,0:0:0:0:
344,280,86435,1,0,0:0:0:0:
304,296,86529,2,0,L|216:240,1,80,2|10,0:0|0:0,0:0:0:0:
112,160,86904,1,0,0:0:0:0:
240,128,87091,2,0,P|208:64|120:32,1,160,14|10,0:0|0:0,0:0:0:0:
112,160,87654,5,2,0:0:0:0:
192,256,87841,1,8,0:0:0:0:
208,288,87935,1,0,0:0:0:0:
200,320,88029,2,0,P|168:352|104:352,1,80,2|10,0:0|0:0,0:0:0:0:
24,256,88404,1,0,0:0:0:0:
112,160,88591,2,0,P|192:120|264:120,1,160,14|10,0:0|0:0,0:0:0:0:
424,168,89154,5,2,0:0:0:0:
384,264,89341,2,0,L|364:304,2,40,10|0|2,0:0|0:0|0:0,0:0:0:0:
424,168,89716,2,0,L|464:80,1,80,10|0,0:0|0:0,0:0:0:0:
312,120,90091,2,0,L|240:264,1,160,14|10,0:0|0:0,0:0:0:0:
136,320,90654,6,0,P|208:272|240:264,1,120,2|0,0:0|0:0,0:0:0:0:
239,264,91029,6,0,P|159:215|127:215,1,120,10|0,0:0|0:0,0:0:0:0:
136,215,91404,6,0,P|216:159|248:159,1,120,10|0,0:0|0:0,0:0:0:0:
234,157,91779,6,0,P|183:118|119:126,1,120,14|0,0:0|0:0,0:0:0:0:
130,120,92154,6,0,P|176:69|208:53,1,80,2|8,0:0|0:0,0:0:0:0:
216,53,92435,1,0,0:0:0:0:
248,48,92529,2,0,P|296:48|344:64,1,80,2|10,0:0|0:0,0:0:0:0:
417,105,92904,1,0,0:0:0:0:
448,229,93091,2,0,P|473:160|417:105,1,160,10|10,0:0|0:0,0:0:0:0:
369,184,93654,6,0,L|329:269,1,80,2|8,0:0|0:0,0:0:0:0:
318,283,93935,1,0,0:0:0:0:
299,309,94029,2,0,P|233:317|214:302,1,80,2|10,0:0|0:0,0:0:0:0:
146,186,94404,1,0,0:0:0:0:
249,114,94591,2,0,P|184:110|146:186,1,160,10|10,0:0|0:0,0:0:0:0:
234,202,95154,6,0,P|297:195|325:180,1,80,2|8,0:0|0:0,0:0:0:0:
339,172,95435,1,0,0:0:0:0:
361,149,95529,2,0,P|379:103|378:62,1,80,2|10,0:0|0:0,0:0:0:0:
197,106,95904,1,0,0:0:0:0:
176,256,96091,2,0,P|164:183|200:104,1,160,10|10,0:0|0:0,0:0:0:0:
296,48,96654,5,2,0:0:0:0:
380,120,96841,1,6,0:0:0:0:
464,192,97029,2,0,P|424:232|344:272,1,120,6|0,0:0|0:0,0:0:0:0:
336,272,97404,5,6,0:0:0:0:
304,280,97497,1,0,0:0:0:0:
272,288,97591,1,8,0:0:0:0:
240,288,97685,1,0,0:0:0:0:
208,280,97779,1,2,0:0:0:0:
176,264,97872,1,0,0:0:0:0:
152,248,97966,1,8,0:0:0:0:
128,224,98060,1,0,0:0:0:0:
112,200,98154,1,4,0:0:0:0:
256,192,98247,12,0,100590,0:0:0:0:
