osu file format v12

[General]
AudioFilename: 01 -Flowers-.mp3
AudioLeadIn: 0
PreviewTime: 35904
Countdown: 0
SampleSet: None
StackLeniency: 0.7
Mode: 0
LetterboxInBreaks: 1
WidescreenStoryboard: 1

[Editor]
DistanceSpacing: 1.4
BeatDivisor: 4
GridSize: 4

[Metadata]
Title:Hana Ranman -Flowers-
TitleUnicode:華爛漫 -Flowers-
Artist:TERRA
ArtistUnicode:TERRA
Creator:Scorpiour
Version:Candidate 10 Hard
Source:
Tags:
BeatmapID:297001
BeatmapSetID:102498

[Difficulty]
HPDrainRate:6
CircleSize:4
OverallDifficulty:6
ApproachRate:7
SliderMultiplier:1.4
SliderTickRate:1

[Events]
//Background and Video events
//Break Periods
2,48853,53379
//Storyboard Layer 0 (Background)
//Storyboard Layer 1 (Fail)
//Storyboard Layer 2 (Pass)
//Storyboard Layer 3 (Foreground)
//Storyboard Sound Samples
//Background Colour Transformations
3,100,163,162,255

[TimingPoints]
-846,375,4,1,1,70,1,0
6279,-66.6666666666667,4,1,1,70,0,0
6654,-100,4,1,1,70,0,0
17810,-100,4,2,1,70,0,0
18654,-100,4,1,1,70,0,0
20904,-100,4,2,1,70,0,0
21654,-100,4,1,1,70,0,0
23904,-100,4,2,1,70,0,0
24654,-100,4,1,1,70,0,0
26810,-100,4,1,3,70,0,0
27372,-100,4,1,1,70,0,0
29810,-100,4,1,3,70,0,0
30560,-100,4,1,1,70,0,0
32716,-100,4,1,3,70,0,0
33654,-100,4,1,1,70,0,0
36654,-100,4,1,1,70,0,1
48654,-100,4,1,1,70,0,0
60654,-200,4,1,1,20,0,0
61591,-200,4,1,1,5,0,0
61685,-200,4,1,1,50,0,0
62060,-100,4,1,2,70,0,0
68154,-100,4,1,1,70,0,0
73404,-100,4,1,2,70,0,0
74154,-100,4,1,1,70,0,1
86154,-100,4,1,1,70,0,0
98435,-100,4,2,2,70,0,0

[HitObjects]
88,76,279,1,4,1:2:0:0:
68,156,466,1,0,1:0:0:0:
96,236,654,2,0,P|108:304|68:376,2,140,4|0|0,1:2|1:0|1:0,0:0:0:0:
256,188,1779,1,0,1:0:0:0:
416,236,2154,2,0,P|404:304|444:376,2,140,0|0|0,1:0|1:0|1:0,0:0:0:0:
416,236,3654,6,0,L|422:166,1,70,0|2,0:0|0:0,0:0:0:0:
328,84,4029,2,0,L|336:164,1,70,0|2,0:0|0:0,0:0:0:0:
244,228,4404,2,0,L|250:158,1,70,0|2,0:0|0:0,0:0:0:0:
156,88,4779,2,0,L|164:168,1,70,0|2,0:0|0:0,0:0:0:0:
104,248,5154,2,0,L|96:284,3,35,0|0|0|0,0:0|0:0|0:0|0:0,0:0:0:0:
140,284,5529,2,0,L|151:319,3,35,0|0|0|0,0:0|0:0|0:0|0:0,0:0:0:0:
188,296,5904,2,0,L|215:320,3,35,0|0|0|0,0:0|0:0|0:0|0:0,0:0:0:0:
228,280,6279,6,0,P|272:256|376:280,1,157.500006008148,8|0,2:3|0:0,0:0:0:0:
408,300,6654,6,0,B|384:248|420:192|420:192|392:160,1,140,4|8,0:2|0:0,0:0:0:0:
324,148,7216,1,2,0:0:0:0:
244,168,7404,2,0,P|200:176|104:160,1,140,0|8,0:0|0:0,0:0:0:0:
44,108,7966,1,2,0:0:0:0:
44,240,8154,2,0,P|36:276|48:324,1,70,0|0,0:0|0:0,0:0:0:0:
120,280,8529,2,0,P|131:315|165:350,1,70,8|0,0:0|0:0,0:0:0:0:
204,276,8904,2,0,P|248:292|344:264,2,140,0|8|4,0:0|0:0|0:2,0:0:0:0:
60,192,10029,5,8,0:0:0:0:
204,108,10404,2,0,P|248:92|344:120,1,140,4|8,0:2|0:0,0:0:0:0:
372,192,10966,1,2,0:0:0:0:
352,276,11154,2,0,P|400:276|456:200,2,140,4|8|4,0:2|0:0|0:2,0:0:0:0:
312,268,11997,1,0,0:0:0:0:
272,276,12091,1,0,0:0:0:0:
176,356,12279,1,8,0:0:0:0:
88,268,12466,5,0,0:0:0:0:
88,268,12560,1,0,0:0:0:0:
88,268,12654,2,0,P|72:232|84:128,1,140,0|8,0:0|0:0,0:0:0:0:
64,52,13216,1,2,0:0:0:0:
148,64,13404,2,0,P|208:76|296:56,1,140,0|8,0:0|0:0,0:0:0:0:
420,204,13966,2,0,P|360:192|272:212,1,140,2|2,0:0|0:0,0:0:0:0:
248,284,14529,1,8,0:0:0:0:
284,360,14716,1,2,0:0:0:0:
164,312,14904,2,0,P|132:288|116:256,1,70,0|2,0:0|0:0,0:0:0:0:
48,312,15279,2,0,P|32:275|34:239,1,70,8|2,0:0|0:0,0:0:0:0:
32,72,15654,6,0,B|72:80|128:60|128:60|176:72,1,140,0|8,0:0|0:0,0:0:0:0:
220,136,16216,1,2,0:0:0:0:
256,212,16404,2,0,B|280:240|280:240|336:272|400:240,1,140,0|8,0:0|0:0,0:0:0:0:
404,80,16966,2,0,P|356:88|340:176,1,140,2|2,0:0|0:0,0:0:0:0:
336,304,17529,2,0,P|324:340|300:368,1,70,8|2,0:0|0:0,0:0:0:0:
148,336,17904,6,0,L|140:372,3,35,8|0|8|0,0:0|0:0|0:0|0:0,0:0:0:0:
108,340,18279,2,0,L|83:367,3,35,8|0|8|0,0:0|0:0|0:0|0:0,0:0:0:0:
72,328,18654,6,0,P|48:280|64:196,1,140,0|8,0:0|0:0,0:0:0:0:
112,128,19216,1,2,0:0:0:0:
60,60,19404,2,0,P|136:48|192:96,1,140,0|8,0:0|0:0,0:0:0:0:
316,192,19966,2,0,P|240:204|184:156,1,140,2|2,0:0|0:0,0:0:0:0:
340,112,20529,2,0,P|372:128|392:168,1,70,8|2,0:0|0:0,0:0:0:0:
400,296,20904,6,0,L|408:336,2,35,8|0|8,0:0|0:0|0:0,0:0:0:0:
280,224,21279,2,0,L|244:212,2,35,8|0|8,0:0|0:0|0:0,0:0:0:0:
448,224,21654,6,0,B|496:192|480:132|480:132|452:100,1,140,0|8,0:0|0:0,0:0:0:0:
392,52,22216,1,2,0:0:0:0:
312,72,22404,2,0,P|268:92|180:68,1,140,0|8,0:0|0:0,0:0:0:0:
104,220,22966,2,0,B|144:208|176:224|176:224|212:208|260:224,1,140,2|2,0:0|0:0,0:0:0:0:
216,300,23529,1,8,0:0:0:0:
132,300,23716,1,2,0:0:0:0:
52,160,23904,6,0,L|44:116,2,35,8|0|8,0:0|0:0|0:0,0:0:0:0:
156,92,24279,2,0,L|160:48,3,35,12|0|8|0,0:0|0:0|0:0|0:0,0:0:0:0:
192,84,24654,6,0,P|236:96|328:76,1,140,4|8,0:2|0:0,0:0:0:0:
400,36,25216,1,2,0:0:0:0:
464,88,25404,2,0,P|484:152|468:240,1,140,0|8,0:0|0:0,0:0:0:0:
452,304,25966,1,2,0:0:0:0:
380,264,26154,2,0,B|324:240|276:260|276:260|236:244,1,140,0|8,0:0|0:0,0:0:0:0:
124,184,26716,5,2,0:0:0:0:
124,184,26810,1,2,0:0:0:0:
124,184,26904,2,0,P|104:220|104:252,1,70,2|0,0:0|0:0,0:0:0:0:
204,156,27279,2,0,P|182:120|155:104,1,70,2|0,0:0|0:0,0:0:0:0:
188,240,27654,6,0,P|224:240|288:160,1,140,0|8,0:0|0:0,0:0:0:0:
204,156,28216,1,2,0:0:0:0:
124,184,28404,2,0,P|104:232|144:312,1,140,0|8,0:0|0:0,0:0:0:0:
300,352,29154,2,0,L|376:348,1,70,0|0,0:0|0:0,0:0:0:0:
492,280,29529,2,0,L|422:276,1,70,8|2,0:0|0:0,0:0:0:0:
384,256,29810,5,2,0:0:0:0:
384,256,29904,2,0,P|364:200|392:112,1,140,0|2,0:0|0:0,0:0:0:0:
276,36,30466,5,0,0:0:0:0:
276,36,30560,1,0,0:0:0:0:
276,36,30654,2,0,P|228:28|124:40,1,140,0|8,0:0|0:0,0:0:0:0:
76,96,31216,1,2,0:0:0:0:
124,168,31404,2,0,P|132:204|112:312,1,140,0|8,0:0|0:0,0:0:0:0:
44,348,31966,1,2,0:0:0:0:
196,352,32154,2,0,P|280:356|348:352,1,140,0|8,0:0|0:0,0:0:0:0:
392,220,32716,5,0,0:0:0:0:
392,220,32810,1,0,0:0:0:0:
392,220,32904,2,0,P|396:168|392:132,1,70,2|0,0:0|0:0,0:0:0:0:
328,32,33279,2,0,P|324:84|328:120,1,70,2|0,0:0|0:0,0:0:0:0:
392,220,33654,6,0,P|384:268|304:288,1,140,0|8,0:0|0:0,0:0:0:0:
220,272,34216,2,0,P|228:224|308:204,1,140,0|0,0:0|0:0,0:0:0:0:
392,220,34779,1,8,0:0:0:0:
396,220,34872,1,0,0:0:0:0:
400,220,34966,1,0,0:0:0:0:
404,220,35060,1,0,0:0:0:0:
404,220,35154,1,4,0:2:0:0:
400,220,35529,6,0,P|360:224|320:220,1,70,0|0,0:0|0:0,0:0:0:0:
144,200,35904,2,0,P|108:224|148:304,2,140,0|0|4,0:0|0:0|0:2,0:0:0:0:
144,200,37029,5,10,0:0:0:0:
176,124,37216,1,0,0:0:0:0:
140,48,37404,1,2,0:0:0:0:
140,48,37779,5,10,0:0:0:0:
176,124,37966,1,0,0:0:0:0:
256,100,38154,2,0,P|312:92|368:104,1,105,2|0,0:0|0:0,0:0:0:0:
359,100,38529,2,0,L|444:96,1,70,10|0,0:0|0:0,0:0:0:0:
336,208,38904,2,0,L|266:204,1,70,2|0,0:0|0:0,0:0:0:0:
364,320,39279,5,10,0:0:0:0:
448,316,39466,1,0,0:0:0:0:
504,252,39654,1,2,0:0:0:0:
504,252,40029,5,10,0:0:0:0:
448,316,40217,1,0,0:0:0:0:
364,320,40404,1,2,0:0:0:0:
364,320,40779,5,10,0:0:0:0:
448,316,40966,1,0,0:0:0:0:
408,244,41154,2,0,P|360:232|296:264,1,105,2|0,0:0|0:0,0:0:0:0:
309,250,41529,2,0,P|276:284|272:320,1,70,10|0,0:0|0:0,0:0:0:0:
156,356,41904,2,0,P|189:322|193:286,1,70,2|0,0:0|0:0,0:0:0:0:
108,168,42279,5,8,0:0:0:0:
56,240,42466,1,0,0:0:0:0:
124,292,42654,1,6,0:2:0:0:
124,292,43029,5,10,0:0:0:0:
56,240,43217,1,0,0:0:0:0:
108,168,43404,1,2,0:0:0:0:
108,168,43779,5,10,0:0:0:0:
56,240,43966,1,0,0:0:0:0:
20,164,44154,2,0,P|40:112|88:84,1,105,2|0,0:0|0:0,0:0:0:0:
79,86,44529,2,0,L|140:48,1,70,10|0,0:0|0:0,0:0:0:0:
248,116,44904,2,0,L|187:154,1,70,2|0,0:0|0:0,0:0:0:0:
228,276,45279,5,10,0:0:0:0:
296,228,45466,1,0,0:0:0:0:
360,176,45654,1,4,0:2:0:0:
360,176,46029,5,10,0:0:0:0:
296,228,46217,1,0,0:0:0:0:
228,276,46404,1,4,0:2:0:0:
228,276,46779,5,10,0:0:0:0:
296,228,46966,1,0,0:0:0:0:
308,312,47154,2,0,P|272:352|208:360,1,105,4|0,0:2|0:0,0:0:0:0:
223,362,47529,2,0,L|148:360,1,70,0|0,0:0|0:0,0:0:0:0:
68,248,47904,2,0,L|208:252,2,140,2|2|6,0:0|0:0|0:2,0:0:0:0:
176,128,54279,5,2,0:0:0:0:
160,212,54466,1,2,0:0:0:0:
240,188,54654,2,0,P|260:136|232:60,1,140,4|8,0:2|0:0,0:0:0:0:
148,44,55216,1,2,0:0:0:0:
92,108,55404,2,0,B|86:131|96:156|96:156|64:192|84:252,1,140,4|8,0:2|0:0,0:0:0:0:
144,296,55966,1,2,0:0:0:0:
224,272,56154,2,0,P|256:272|308:240,1,70,0|2,0:0|0:0,0:0:0:0:
392,168,56529,2,0,P|360:168|308:200,2,70,8|2|0,0:0|0:0|0:0,0:0:0:0:
392,168,57279,5,8,0:0:0:0:
448,104,57466,1,2,0:0:0:0:
412,28,57654,2,0,B|372:44|364:92|364:92|300:72,1,140,4|8,0:2|0:0,0:0:0:0:
256,12,58216,1,2,0:0:0:0:
201,75,58404,2,0,B|148:92|148:92|140:44|100:28,1,140,4|8,0:2|0:0,0:0:0:0:
64,104,58966,6,0,L|68:128,4,17.5,2|0|0|0|0,0:0|0:0|0:0|0:0|0:0,0:0:0:0:
64,104,59529,1,0,0:0:0:0:
64,104,59904,1,0,0:0:0:0:
64,104,60279,1,0,0:0:0:0:
64,104,60654,6,0,B|84:148|60:192|60:192|92:256|48:308,1,210,0|0,0:0|0:0,0:0:0:0:
32,340,61966,1,0,0:0:0:0:
152,324,62154,6,0,P|200:316|296:320,1,140,4|0,0:0|0:0,0:0:0:0:
368,356,62716,1,2,0:0:0:0:
428,296,62904,2,0,P|444:232|424:152,1,140,4|0,0:0|0:0,0:0:0:0:
380,92,63466,1,2,0:0:0:0:
452,48,63654,2,0,P|412:12|352:16,1,105,8|0,0:0|0:0,0:0:0:0:
363,11,64029,2,0,L|284:16,2,70,0|2|0,0:0|0:0|0:0,0:0:0:0:
363,11,64779,5,4,0:0:0:0:
380,92,64966,1,2,0:0:0:0:
316,144,65154,2,0,P|304:208|328:292,1,140,4|0,0:0|0:0,0:0:0:0:
404,292,65716,1,2,0:0:0:0:
360,360,65904,2,0,P|288:364|208:360,1,140,4|0,0:0|0:0,0:0:0:0:
152,312,66466,1,2,0:0:0:0:
88,368,66654,2,0,P|68:328|80:264,1,105,0|0,0:0|0:0,0:0:0:0:
76,270,67029,2,0,P|96:240|144:224,2,70,8|2|0,0:0|0:0|0:0,0:0:0:0:
76,270,67779,5,4,0:0:0:0:
152,312,67966,1,2,0:0:0:0:
208,248,68154,2,0,P|212:204|144:136,1,140,4|8,0:2|0:0,0:0:0:0:
88,84,68716,1,2,0:0:0:0:
160,44,68904,2,0,B|216:8|272:36|272:36|312:32,1,140,0|8,0:0|0:0,0:0:0:0:
376,44,69466,1,2,0:0:0:0:
436,176,69654,2,0,P|448:232|440:284,1,105,0|0,0:0|0:0,0:0:0:0:
441,278,70029,2,0,P|404:300|368:304,2,70,8|2|0,0:0|0:0|0:0,0:0:0:0:
441,278,70779,5,0,0:0:0:0:
504,224,70966,1,2,0:0:0:0:
436,176,71154,2,0,B|464:136|508:136|508:136|508:96|456:76,1,140,8|0,0:0|0:0,0:0:0:0:
412,48,71716,1,2,0:0:0:0:
328,56,71904,2,0,P|284:60|244:52,1,70,8|2,0:0|0:0,0:0:0:0:
220,40,72185,6,0,L|212:4,3,35,0|0|0|0,0:0|0:0|0:0|0:0,0:0:0:0:
236,152,72654,2,0,P|244:216|224:292,1,140,0|0,0:0|0:0,0:0:0:0:
164,344,73216,1,0,0:0:0:0:
292,348,73404,1,8,0:0:0:0:
292,348,73497,2,0,P|348:340|416:352,1,105,8|8,0:0|0:0,0:0:0:0:
476,368,73966,5,8,0:0:0:0:
464,224,74154,1,4,0:2:0:0:
464,224,74529,5,10,0:0:0:0:
444,144,74716,1,0,0:0:0:0:
476,64,74904,1,2,0:0:0:0:
476,64,75279,5,10,0:0:0:0:
444,144,75466,1,0,0:0:0:0:
360,132,75654,2,0,P|312:120|256:132,1,105,2|0,0:0|0:0,0:0:0:0:
258,130,76029,2,0,P|216:148|184:148,2,70,10|0|2,0:0|0:0|0:0,0:0:0:0:
258,130,76779,5,10,0:0:0:0:
308,196,76966,1,0,0:0:0:0:
360,132,77154,1,2,0:0:0:0:
360,132,77529,5,10,0:0:0:0:
308,196,77717,1,0,0:0:0:0:
258,130,77904,1,2,0:0:0:0:
258,130,78279,5,10,0:0:0:0:
308,196,78466,1,0,0:0:0:0:
296,280,78654,2,0,P|344:272|384:232,1,105,2|0,0:0|0:0,0:0:0:0:
383,233,79029,2,0,L|460:244,2,70,10|0|2,0:0|0:0|0:0,0:0:0:0:
383,233,79779,5,10,0:0:0:0:
308,196,79966,1,0,0:0:0:0:
296,280,80154,1,4,0:2:0:0:
296,280,80529,5,10,0:0:0:0:
308,196,80716,1,0,0:0:0:0:
383,233,80904,1,2,0:0:0:0:
383,233,81279,5,10,0:0:0:0:
308,196,81466,1,0,0:0:0:0:
228,228,81654,2,0,P|212:272|236:340,1,105,2|0,0:0|0:0,0:0:0:0:
225,326,82029,2,0,L|156:352,2,70,10|0|2,0:0|0:0|0:0,0:0:0:0:
225,326,82779,5,10,0:0:0:0:
300,364,82967,1,0,0:0:0:0:
372,324,83154,1,0,0:0:0:0:
372,324,83529,5,10,0:0:0:0:
300,364,83716,1,0,0:0:0:0:
225,326,83904,1,2,0:0:0:0:
225,326,84279,5,10,0:0:0:0:
300,364,84467,1,0,0:0:0:0:
300,280,84654,6,0,L|272:252,3,35,2|0|0|0,0:0|0:0|0:0|0:0,0:0:0:0:
316,248,85029,2,0,L|305:209,3,35,2|0|0|0,0:0|0:0|0:0|0:0,0:0:0:0:
348,228,85404,2,0,L|358:189,3,35,2|0|0|0,0:0|0:0|0:0|0:0,0:0:0:0:
388,224,85779,2,0,L|416:196,3,35,2|0|0|0,0:0|0:0|0:0|0:0,0:0:0:0:
424,240,86154,6,0,P|472:256|516:188,1,140,4|8,0:2|0:0,0:0:0:0:
440,156,86716,1,2,0:0:0:0:
440,156,87091,1,2,0:0:0:0:
360,128,87279,1,8,0:0:0:0:
276,128,87466,1,2,0:0:0:0:
200,164,87654,6,0,P|160:180|60:168,1,140,0|8,0:0|0:0,0:0:0:0:
36,92,88216,1,2,0:0:0:0:
36,92,88591,1,2,0:0:0:0:
65,170,88779,1,8,0:0:0:0:
36,248,88966,1,2,0:0:0:0:
64,328,89154,6,0,B|96:352|96:352|144:320|208:348,1,140,0|8,0:0|0:0,0:0:0:0:
272,364,89716,1,2,0:0:0:0:
272,364,90091,1,2,0:0:0:0:
320,296,90279,1,8,0:0:0:0:
276,224,90466,1,2,0:0:0:0:
360,372,90654,6,0,P|392:348|404:316,1,70,0|2,0:0|0:0,0:0:0:0:
320,296,91029,1,8,0:0:0:0:
272,364,91216,2,0,P|248:340|240:328,2,35,2|0|0,0:0|0:0|0:0,0:0:0:0:
444,348,91591,1,2,0:0:0:0:
336,216,91779,2,0,L|328:180,3,35,8|0|0|0,0:0|0:0|0:0|0:0,0:0:0:0:
372,184,92154,6,0,P|300:208|224:192,1,140,4|8,0:2|0:0,0:0:0:0:
168,148,92716,1,2,0:0:0:0:
168,148,93091,1,2,0:0:0:0:
164,232,93279,1,8,0:0:0:0:
232,284,93466,1,2,0:0:0:0:
316,272,93654,6,0,P|344:236|344:144,1,140,0|8,0:0|0:0,0:0:0:0:
304,72,94216,1,2,0:0:0:0:
304,72,94591,1,0,0:0:0:0:
392,72,94779,1,8,0:0:0:0:
432,148,94966,1,0,0:0:0:0:
400,224,95154,6,0,B|392:264|400:308|400:308|360:304|332:316,1,140,0|8,0:0|0:0,0:0:0:0:
268,348,95716,1,2,0:0:0:0:
268,348,96091,1,2,0:0:0:0:
184,356,96279,1,8,0:0:0:0:
220,280,96466,1,2,0:0:0:0:
108,344,96654,6,0,P|72:348|32:344,1,70,4|2,0:2|0:0,0:0:0:0:
36,204,97029,2,0,P|57:233|74:269,1,70,8|2,0:0|0:0,0:0:0:0:
16,120,97404,2,0,L|60:124,3,35,0|0|0|0,0:0|0:0|0:0|0:0,0:0:0:0:
92,124,97779,2,0,L|144:120,3,35,0|0|0|0,0:0|0:0|0:0|0:0,0:0:0:0:
168,116,98154,6,0,P|212:104|248:112,1,70,4|0,0:2|0:0,0:0:0:0:
288,172,98529,5,2,0:0:0:0:
288,172,98716,1,2,0:0:0:0:
319,94,98904,5,2,0:0:0:0:
319,94,99091,1,2,0:0:0:0:
403,99,99279,5,2,0:0:0:0:
403,99,99466,1,2,0:0:0:0:
423,181,99654,5,2,0:0:0:0:
423,181,99841,1,2,0:0:0:0:
352,225,100029,5,2,0:0:0:0:
352,225,100216,1,2,0:0:0:0:
352,225,100404,1,2,0:0:0:0:
