osu file format v12

[General]
AudioFilename: 01 -Flowers-.mp3
AudioLeadIn: 0
PreviewTime: 35904
Countdown: 0
SampleSet: None
StackLeniency: 0.7
Mode: 0
LetterboxInBreaks: 1
WidescreenStoryboard: 1

[Editor]
DistanceSpacing: 1.4
BeatDivisor: 4
GridSize: 4

[Metadata]
Title:Hana Ranman -Flowers-
TitleUnicode:華爛漫 -Flowers-
Artist:TERRA
ArtistUnicode:TERRA
Creator:Scorpiour
Version:Candidate 07 Hard
Source:
Tags:
BeatmapID:296997
BeatmapSetID:102498

[Difficulty]
HPDrainRate:4
CircleSize:4
OverallDifficulty:6
ApproachRate:7
SliderMultiplier:1.2
SliderTickRate:1

[Events]
//Background and Video events
0,0,"bg.png",0,0
//Break Periods
//Storyboard Layer 0 (Background)
//Storyboard Layer 1 (Fail)
//Storyboard Layer 2 (Pass)
//Storyboard Layer 3 (Foreground)
//Storyboard Sound Samples
//Background Colour Transformations
3,100,163,162,255

[TimingPoints]
-846,375,4,2,0,60,1,0
654,-100,4,1,0,50,0,0
1029,-100,4,2,0,60,0,0
1404,-100,4,1,0,50,0,0
1779,-100,4,2,0,60,0,0
2154,-100,4,1,0,50,0,0
2529,-100,4,2,0,60,0,0
2904,-100,4,1,0,50,0,0
3279,-100,4,1,0,60,0,0
4029,-100,4,1,0,52,0,0
4404,-100,4,1,0,54,0,0
4779,-100,4,1,0,56,0,0
5154,-100,4,1,0,58,0,0
5529,-100,4,1,0,60,0,0
6279,-100,4,2,22,80,0,0
6560,-100,4,2,0,60,0,0
12654,-80,4,2,0,60,0,0
13216,-80,4,2,0,70,0,0
13404,-80,4,2,0,60,0,0
13966,-80,4,2,0,70,0,0
14154,-80,4,2,0,60,0,0
14341,-80,4,2,0,70,0,0
14529,-80,4,2,0,60,0,0
14716,-80,4,2,0,70,0,0
14904,-80,4,2,0,60,0,0
15091,-80,4,2,0,70,0,0
15279,-80,4,2,0,60,0,0
15466,-80,4,2,0,70,0,0
15654,-80,4,2,0,60,0,0
16216,-80,4,2,0,70,0,0
16404,-80,4,2,0,60,0,0
16966,-80,4,2,0,70,0,0
17154,-80,4,2,0,60,0,0
17341,-80,4,2,0,70,0,0
17529,-80,4,2,0,60,0,0
17716,-80,4,2,0,70,0,0
17904,-80,4,2,21,70,0,0
18654,-80,4,2,0,60,0,0
19216,-80,4,2,0,70,0,0
19404,-80,4,2,0,60,0,0
19591,-80,4,2,0,70,0,0
19779,-80,4,2,0,60,0,0
19966,-80,4,2,0,70,0,0
20529,-80,4,2,0,60,0,0
20716,-80,4,2,0,70,0,0
20904,-80,4,2,22,60,0,0
20997,-80,4,2,21,70,0,0
21091,-80,4,2,22,60,0,0
21185,-80,4,2,21,70,0,0
21279,-80,4,2,21,70,0,0
21654,-80,4,2,0,60,0,0
22216,-80,4,2,0,70,0,0
22404,-80,4,2,0,60,0,0
22966,-80,4,2,0,70,0,0
23529,-80,4,2,0,60,0,0
23716,-80,4,2,0,70,0,0
23904,-80,4,2,0,70,0,0
24654,-80,4,2,0,60,0,0
25029,-80,4,2,0,63,0,0
25404,-80,4,2,0,66,0,0
25779,-80,4,2,0,69,0,0
26154,-80,4,2,0,70,0,0
26247,-80,4,2,0,60,0,0
26904,-80,4,2,0,65,0,0
27279,-80,4,2,0,70,0,0
27654,-80,4,2,0,60,0,0
28029,-80,4,2,0,63,0,0
28404,-80,4,2,0,66,0,0
28779,-80,4,2,0,69,0,0
29154,-80,4,2,0,70,0,0
29904,-80,4,2,0,70,0,0
30654,-80,4,2,0,60,0,0
31029,-80,4,2,0,63,0,0
31404,-80,4,2,0,66,0,0
31779,-80,4,2,0,69,0,0
32154,-80,4,2,0,70,0,0
35904,-153.846153846154,4,2,21,80,0,0
36279,-80,4,2,21,80,0,0
36654,-80,4,2,21,80,0,1
37779,-80,4,2,0,65,0,1
37966,-80,4,2,0,70,0,1
38154,-80,4,2,0,60,0,1
38529,-80,4,1,0,70,0,1
38904,-80,4,2,0,60,0,1
39279,-80,4,2,21,80,0,1
40779,-80,4,1,0,65,0,1
40966,-80,4,2,0,70,0,1
41154,-80,4,2,0,60,0,1
41529,-80,4,1,0,70,0,1
41904,-80,4,2,0,60,0,1
42279,-80,4,2,21,80,0,1
43779,-80,4,1,21,65,0,1
43966,-80,4,2,0,70,0,1
44154,-80,4,2,0,60,0,1
44341,-80,4,2,0,70,0,1
44529,-80,4,2,21,70,0,1
44904,-80,4,2,0,60,0,1
45279,-80,4,2,21,80,0,1
46779,-80,4,2,21,80,0,1
46966,-80,4,2,22,70,0,1
47154,-80,4,2,0,60,0,1
47435,-80,4,2,0,65,0,1
47716,-80,4,1,0,70,0,1
48279,-80,4,1,0,60,0,1
48372,-80,4,1,0,57,0,1
48466,-80,4,1,0,54,0,1
48560,-80,4,1,0,50,0,1
48654,-200,4,2,0,60,0,0
50154,-80,4,1,0,45,0,0
53529,-80,4,1,0,47,0,0
53904,-80,4,1,0,50,0,0
54279,-80,4,1,0,50,0,0
54466,-80,4,1,0,55,0,0
54654,-80,4,2,0,60,0,0
60654,-80,4,2,0,50,0,0
61029,-80,4,2,0,40,0,0
61404,-80,4,2,0,30,0,0
61779,-80,4,2,0,20,0,0
62154,-80,4,2,0,5,0,0
62341,-153.846153846154,4,1,22,40,0,0
62904,-153.846153846154,4,2,22,20,0,0
63466,-153.846153846154,4,2,22,15,0,0
64404,-153.846153846154,4,1,22,40,0,0
64779,-153.846153846154,4,2,22,15,0,0
65154,-153.846153846154,4,2,22,12,0,0
65716,-153.846153846154,4,2,22,10,0,0
66279,-80,4,2,22,15,0,0
67029,-80,4,2,22,25,0,0
67779,-80,4,2,0,40,0,0
67779,-80,4,2,0,50,0,0
67966,-80,4,2,0,55,0,0
68154,-80,4,2,0,60,0,0
68529,-80,4,2,0,70,0,0
69654,-80,4,2,0,60,0,0
69841,-80,4,2,0,70,0,0
70779,-80,4,2,0,60,0,0
70966,-80,4,2,0,70,0,0
71529,-80,4,2,0,60,0,0
71716,-80,4,2,0,70,0,0
73404,-80,4,2,21,70,0,0
73685,-80,4,2,22,70,0,0
73779,-80,4,2,22,70,0,1
74154,-80,4,2,21,80,0,1
74529,-80,4,2,22,70,0,1
74716,-80,4,2,21,80,0,1
75279,-80,4,2,22,60,0,1
75466,-80,4,2,21,80,0,1
77529,-80,4,2,22,70,0,1
77716,-80,4,2,21,80,0,1
78279,-80,4,2,22,60,0,1
78466,-80,4,2,21,80,0,1
80529,-80,4,2,22,70,0,1
80716,-80,4,2,21,80,0,1
81279,-80,4,2,22,60,0,1
81466,-80,4,2,21,80,0,1
83529,-80,4,2,22,70,0,1
83716,-80,4,2,21,80,0,1
85404,-80,4,1,0,70,0,1
86154,-80,4,2,0,65,0,1
86529,-80,4,2,0,70,0,1
87654,-80,4,2,0,65,0,1
88029,-80,4,2,0,70,0,1
89154,-80,4,2,0,65,0,1
89529,-80,4,2,0,70,0,1
90654,-80,4,2,0,65,0,1
91029,-80,4,2,0,70,0,1
91404,-80,4,2,0,65,0,1
91779,-80,4,2,0,70,0,1
92154,-80,4,1,0,60,0,1
92341,-80,4,2,21,80,0,1
93654,-80,4,1,0,60,0,1
93841,-80,4,2,21,80,0,1
95154,-80,4,1,0,60,0,1
95341,-80,4,2,21,80,0,1
96654,-80,4,2,0,60,0,1
97404,-100,4,2,0,60,0,1
98060,-100,4,2,0,60,0,0
98154,-100,4,2,0,60,0,1
98247,-100,4,2,0,60,0,0
98341,-100,4,2,0,60,0,0
98529,-100,4,2,0,55,0,0
98716,-100,4,2,0,50,0,0
98904,-100,4,2,0,45,0,0
99091,-100,4,2,0,40,0,0
99279,-100,4,2,0,35,0,0
99466,-100,4,2,0,30,0,0
99654,-100,4,2,0,25,0,0
99841,-100,4,2,0,20,0,0
100029,-100,4,2,0,15,0,0
100216,-100,4,2,0,10,0,0
100404,-100,4,2,0,5,0,0

[HitObjects]
42,81,279,2,0,P|74:112|108:117,1,60,4|2,0:0|0:0,0:0:0:0:
166,118,654,1,0,1:0:0:0:
241,80,1029,1,2,0:0:0:0:
324,69,1404,1,0,1:0:0:0:
394,113,1779,1,2,0:0:0:0:
421,192,2154,1,0,1:0:0:0:
388,269,2529,1,2,0:0:0:0:
307,301,2904,1,0,1:0:0:0:
62,324,3654,5,0,0:0:0:0:
123,267,4029,1,0,0:0:0:0:
206,266,4404,1,0,0:0:0:0:
284,294,4779,1,0,0:0:0:0:
364,269,5154,1,0,0:0:0:0:
414,201,5529,1,0,0:0:0:0:
395,119,5904,1,0,0:0:0:0:
395,119,6279,5,8,0:0:0:0:
169,50,6654,6,0,P|155:86|164:120,1,60,0|2,1:0|0:0,0:0:0:0:
209,156,7029,2,0,P|247:150|272:125,1,60,8|2,0:0|0:0,0:0:0:0:
286,68,7404,2,0,P|261:37|227:28,1,60,0|2,1:0|0:0,0:0:0:0:
170,50,7779,6,0,P|138:68|96:68,1,60,8|2,0:0|0:0,0:0:0:0:
58,123,8154,2,0,P|90:141|132:141,1,60,0|2,1:0|0:0,0:0:0:0:
165,200,8529,2,0,P|133:218|91:218,1,60,8|2,0:0|0:0,0:0:0:0:
47,276,8904,2,0,P|91:313|164:314,1,120,0|8,1:0|0:0,0:0:0:0:
368,310,9654,6,0,P|382:274|373:240,1,60,0|2,1:0|0:0,0:0:0:0:
328,204,10029,2,0,P|289:209|264:234,1,60,8|2,0:0|0:0,0:0:0:0:
251,292,10404,2,0,P|275:322|309:331,1,60,0|2,1:0|0:0,0:0:0:0:
367,310,10779,6,0,P|399:292|441:292,1,60,8|2,0:0|0:0,0:0:0:0:
479,237,11154,2,0,P|447:219|405:219,1,60,0|2,1:0|0:0,0:0:0:0:
372,160,11529,2,0,P|404:142|446:142,1,60,8|2,0:0|0:0,0:0:0:0:
490,84,11904,2,0,P|444:45|371:41,1,120,0|8,1:0|0:0,0:0:0:0:
167,143,12654,6,0,B|193:186|246:202|299:184,1,150,4|8,1:2|0:0,0:0:0:0:
373,160,13216,1,2,0:0:0:0:
324,102,13404,2,0,B|297:58|244:42|191:60,1,150,0|8,1:0|0:0,0:0:0:0:
120,83,13966,6,0,P|96:104|90:153,1,75,2|0,0:0|1:0,0:0:0:0:
106,217,14341,1,2,0:0:0:0:
126,289,14529,2,0,P|98:314|60:322,2,75,8|2|0,0:0|0:0|1:0,0:0:0:0:
190,249,15091,1,2,0:0:0:0:
211,255,15185,1,0,0:0:0:0:
230,266,15279,2,0,P|261:293|276:325,1,75,8|2,0:0|0:0,0:0:0:0:
366,329,15654,6,0,B|418:332|465:279|453:218,1,150,4|8,1:2|0:0,0:0:0:0:
455,155,16216,1,2,0:0:0:0:
385,184,16404,2,0,B|330:161|314:93|341:47,1,150,0|8,1:0|0:0,0:0:0:0:
398,13,16966,6,0,P|435:13|477:36,1,75,2|0,0:0|1:0,0:0:0:0:
496,98,17341,2,0,P|482:139|441:157,1,75,2|8,0:0|0:0,0:0:0:0:
387,185,17716,1,2,0:0:0:0:
309,177,17904,2,0,L|250:150,3,37.5,0|0|2|0,0:0|0:0|0:0|0:0,0:0:0:0:
288,96,18279,2,0,L|229:69,3,37.5,8|2|2|0,0:0|0:0|0:0|0:0,0:0:0:0:
218,111,18654,6,0,B|170:91|110:110|88:155,1,150,4|8,1:2|0:0,0:0:0:0:
57,222,19216,1,2,0:0:0:0:
13,160,19404,2,0,B|-13:125|10:80,1,75,0|2,1:0|0:0,0:0:0:0:
13,160,19779,5,8,0:0:0:0:
57,222,19966,2,0,P|81:292|32:344,1,150,2|2,0:0|0:0,0:0:0:0:
0,275,20529,1,8,0:0:0:0:
57,222,20716,1,0,0:0:0:0:
158,229,20904,6,0,L|205:251,3,37.5,2|0|2|0,0:0|0:0|0:0|0:0,0:0:0:0:
234,302,21279,2,0,L|274:317,3,37.5,8|0|8|8,0:0|0:0|0:0|0:0,0:0:0:0:
299,305,21654,6,0,P|371:290|406:217,1,150,4|8,1:2|0:0,0:0:0:0:
418,153,22216,1,2,0:0:0:0:
345,132,22404,2,0,P|400:77|473:99,1,150,0|8,1:0|0:0,0:0:0:0:
418,154,22966,6,0,P|356:209|283:177,1,150,2|2,0:0|0:0,0:0:0:0:
232,154,23529,1,8,0:0:0:0:
276,93,23716,1,2,0:0:0:0:
203,72,23904,6,0,B|165:62|144:66|101:93,1,75,0|0,1:0|1:0,0:0:0:0:
110,88,24185,1,0,1:0:0:0:
94,104,24279,2,0,P|69:139|82:199,1,75,0|0,1:0|1:0,0:0:0:0:
76,293,24654,6,0,P|111:312|154:315,1,75,0|2,1:0|0:0,0:0:0:0:
220,315,25029,2,0,P|258:305|292:277,1,75,8|2,0:0|0:0,0:0:0:0:
346,239,25404,2,0,P|365:203|368:160,1,75,0|2,1:0|0:0,0:0:0:0:
369,94,25779,2,0,P|359:55|331:21,1,75,8|2,0:0|0:0,0:0:0:0:
301,138,26154,6,0,B|268:175|214:192|156:178,1,150,4|8,1:2|0:0,0:0:0:0:
92,155,26716,1,2,0:0:0:0:
17,165,26904,2,0,P|30:203|69:226,1,75,2|2,1:0|0:0,2:1:0:0:
92,155,27279,2,0,P|79:113|24:97,1,75,6|2,1:0|0:0,0:0:0:0:
140,73,27654,6,0,P|158:38|191:10,1,75,0|2,1:0|0:0,0:0:0:0:
236,68,28029,2,0,P|274:54|317:56,1,75,8|2,0:0|0:0,0:0:0:0:
302,129,28404,2,0,P|338:147|366:180,1,75,0|2,1:0|0:0,0:0:0:0:
319,235,28779,2,0,P|334:273|332:316,1,75,8|2,0:0|0:0,0:0:0:0:
239,328,29154,6,0,P|197:341|136:328,1,75,4|2,1:2|0:0,0:0:0:0:
94,316,29529,1,8,0:0:0:0:
43,260,29716,1,2,0:0:0:0:
35,185,29904,2,0,B|26:134|71:77|141:82,1,150,4|6,1:0|1:0,0:0:0:0:
336,44,30654,6,0,P|376:54|415:96,1,75,0|2,1:0|0:0,0:0:0:0:
424,146,31029,2,0,P|414:185|372:225,1,75,8|2,0:0|0:0,0:0:0:0:
321,233,31404,2,0,P|281:223|242:181,1,75,0|2,1:0|0:0,0:0:0:0:
233,131,31779,2,0,P|243:91|285:52,1,75,8|2,0:0|0:0,0:0:0:0:
336,45,32154,6,0,P|398:73|421:169,1,150,4|8,1:2|0:0,0:0:0:0:
406,218,32716,1,2,0:0:0:0:
316,338,33091,1,2,0:1:0:0:
338,189,33466,1,2,0:1:0:0:
406,219,33654,1,0,1:0:0:0:
384,367,34029,1,0,1:0:0:0:
317,338,34216,6,0,P|256:280|261:215,1,150,4|2,1:2|0:0,0:0:0:0:
176,221,34779,2,0,B|105:233|121:288|37:289,1,150,0|2,1:0|1:2,0:0:0:0:
47,289,35529,1,2,1:2:0:0:
20,132,35904,6,0,P|45:95|85:86,1,77.9999964294435,2|8,0:0|0:0,0:0:0:0:
149,70,36654,1,0,0:0:0:0:
20,132,37029,6,0,P|52:93|91:88,1,75,0|8,0:0|0:0,0:0:0:0:
149,70,37404,1,2,0:0:0:0:
147,219,37779,1,0,1:0:0:0:
221,212,37966,1,2,0:0:0:0:
291,185,38154,2,0,P|328:144|337:89,1,112.5,8|0,0:0|0:0,0:0:0:0:
337,91,38529,1,0,0:0:0:0:
312,20,38716,1,0,0:0:0:0:
386,32,38904,1,8,0:0:0:0:
262,108,39279,6,0,P|280:145|315:164,1,75,0|8,0:0|0:0,0:0:0:0:
383,166,39654,1,2,0:0:0:0:
260,252,40029,2,0,P|298:265|337:254,1,75,0|8,0:0|0:0,0:0:0:0:
403,238,40404,1,2,0:0:0:0:
489,358,40778,5,0,0:0:0:0:
460,288,40966,1,2,0:0:0:0:
403,238,41154,2,0,P|341:204|298:206,1,112.5,8|0,0:0|0:0,0:0:0:0:
301,206,41528,1,0,0:0:0:0:
261,269,41716,1,0,0:0:0:0:
221,205,41904,1,8,0:0:0:0:
39,232,42279,6,0,P|52:270|83:298,1,75,0|8,0:0|0:0,0:0:0:0:
145,322,42654,1,2,0:0:0:0:
95,180,43029,2,0,P|125:206|166:215,1,75,0|8,0:0|0:0,0:0:0:0:
231,206,43404,1,2,0:0:0:0:
95,180,43779,5,0,0:0:0:0:
31,121,43966,1,2,0:0:0:0:
72,49,44154,1,8,0:0:0:0:
152,62,44341,1,0,0:0:0:0:
169,143,44529,2,0,P|206:148|254:131,1,75,0|0,1:0|1:0,0:0:0:0:
313,116,44904,1,8,0:0:0:0:
420,31,45279,6,0,P|422:69|406:115,1,75,0|8,0:0|0:0,0:0:0:0:
377,170,45654,1,2,0:0:0:0:
512,135,46029,2,0,P|497:171|463:205,1,75,0|8,0:0|0:0,0:0:0:0:
411,239,46404,1,2,0:0:0:0:
512,136,46779,5,0,0:0:0:0:
499,209,46966,1,2,0:0:0:0:
474,280,47154,2,0,P|432:322|373:316,1,112.5,2|0,1:2|1:0,0:0:0:0:
339,296,47529,1,2,1:2:0:0:
266,230,47716,1,0,1:0:0:0:
172,200,47904,1,2,1:2:0:0:
57,102,48279,6,0,L|68:65,3,37.5
52,127,48654,2,0,B|35:177|39:251|90:299|156:320,1,240,4|0,0:0|0:0,0:0:0:0:
225,311,50529,1,0,0:0:0:0:
296,333,50904,1,0,0:0:0:0:
448,196,51654,1,0,0:0:0:0:
472,120,52404,1,0,0:0:0:0:
448,196,53154,1,0,0:0:0:0:
381,231,53529,1,0,0:0:0:0:
310,205,53904,1,0,0:0:0:0:
260,63,54279,5,0,0:0:0:0:
255,137,54466,1,0,0:0:0:0:
182,118,54654,2,2,P|140:105|115:74,1,75,2|2,1:0|0:0,0:1:0:0:
47,104,55029,1,8,0:0:0:0:
68,32,55216,1,2,0:0:0:0:
122,84,55404,2,2,P|124:120|93:164,1,75,2|2,1:0|0:0,0:1:0:0:
36,181,55779,5,8,0:0:0:0:
80,240,55966,1,2,0:0:0:0:
148,208,56154,1,2,1:0:0:0:
184,276,56341,1,2,0:0:0:0:
116,308,56529,1,8,0:0:0:0:
80,240,56716,1,2,0:1:0:0:
148,208,56904,2,2,P|224:212|260:276,1,150,2|8,1:0|0:0,0:1:0:0:
277,343,57466,5,2,0:0:0:0:
346,315,57654,2,2,P|400:263|414:167,1,150,2|8,1:0|0:0,0:1:0:0:
425,117,58216,1,0,0:0:0:0:
417,192,58404,2,0,P|356:154|339:59,1,150,2|8,1:0|0:0,0:0:0:0:
269,45,58966,5,2,1:2:0:0:
197,21,59154,1,2,1:0:0:0:
154,84,59342,1,2,0:0:0:0:
198,144,59529,1,2,1:0:0:0:
268,120,59717,1,2,0:0:0:0:
217,80,59904,5,2,1:0:0:0:
217,80,60279,1,2,1:0:0:0:
256,192,60654,12,0,62154,0:0:0:0:
116,272,62529,5,0,0:0:0:0:
84,292,62904,1,4,0:0:0:0:
116,272,63466,2,4,L|76:296,1,38.9999982147218
392,256,64404,5,0,0:0:0:0:
424,272,64779,1,4,0:0:0:0:
456,288,65154,1,4,0:0:0:0:
392,256,65716,2,4,L|432:276,1,38.9999982147218
128,112,66654,5,4,0:0:0:0:
96,96,67029,1,2,0:0:0:0:
64,80,67404,1,4,0:0:0:0:
128,112,67779,5,0,1:0:0:0:
189,69,67966,1,0,1:0:0:0:
260,45,68154,2,0,P|338:48|394:106,1,150,4|0,0:2|1:0,0:0:0:0:
415,164,68716,1,2,0:0:0:0:
409,238,68904,2,0,P|471:215|489:140,1,150,4|0,1:2|1:0,0:0:0:0:
451,75,69466,1,0,1:0:0:0:
393,26,69654,6,0,P|375:62|385:104,1,75,0|2,1:0|0:0,0:0:0:0:
414,162,70029,2,0,P|369:187|324:173,2,75,0|2|0,1:0|0:0|1:0,0:0:0:0:
276,101,70779,6,0,P|263:118|262:170,1,75,0|2,1:0|0:0,0:0:0:0:
295,237,71154,1,4,1:2:0:0:
422,289,71529,2,0,P|412:269|368:242,1,75,0|2,1:0|0:0,0:0:0:0:
295,237,71904,1,4,1:2:0:0:
170,310,72279,2,0,P|191:312|236:287,1,75,0|0,1:0|1:0,0:0:0:0:
296,237,72654,6,0,B|255:193|201:209|176:244,1,112.5,2|0,0:0|0:0,0:0:0:0:
158,235,73029,2,0,P|122:234|95:198,1,75,2|0,0:0|0:0,0:0:0:0:
27,177,73404,2,0,B|25:138|54:97|123:84,1,112.5,2|0,0:0|0:0,0:0:0:0:
90,93,73779,5,2,0:0:0:0:
151,50,73966,1,2,0:0:0:0:
159,124,74154,1,0,0:0:0:0:
351,184,74529,1,8,0:0:0:0:
373,254,74716,1,2,0:0:0:0:
424,199,74904,1,8,0:0:0:0:
289,294,75279,6,0,P|261:322|225:338,1,75,0|2,1:0|0:0,0:0:0:0:
215,263,75654,2,0,P|176:278|129:266,1,75,0|2,0:0|0:0,0:0:0:0:
170,204,76029,2,0,P|127:198|103:180,1,75,0|2,0:0|0:0,0:0:0:0:
53,122,76404,1,0,0:0:0:0:
394,109,76779,5,0,0:0:0:0:
382,198,76966,1,2,0:0:0:0:
311,144,77154,1,8,0:0:0:0:
154,245,77529,1,8,0:0:0:0:
71,209,77716,1,2,0:0:0:0:
84,298,77904,1,8,0:0:0:0:
133,130,78279,6,0,P|153:96|185:72,1,75,0|2,1:0|0:0,0:0:0:0:
254,93,78654,2,0,P|288:69|337:70,1,75,0|2,0:0|0:0,0:0:0:0:
366,126,79029,2,0,P|409:122|436:134,1,75,0|2,0:0|0:0,0:0:0:0:
483,194,79404,1,0,0:0:0:0:
327,334,79779,5,0,0:0:0:0:
289,236,79966,1,2,0:0:0:0:
392,252,80154,1,8,0:0:0:0:
180,80,80529,1,8,0:0:0:0:
133,173,80716,1,2,0:0:0:0:
70,88,80904,1,8,0:0:0:0:
337,138,81279,6,0,P|298:147|261:133,1,75,0|2,1:0|0:0,0:0:0:0:
368,112,81654,2,0,P|378:73|410:48,1,75,0|2,0:0|0:0,0:0:0:0:
378,153,82029,2,0,P|405:181|411:221,1,75,0|2,0:0|0:0,0:0:0:0:
360,135,82404,1,0,0:0:0:0:
181,325,82779,5,0,0:0:0:0:
83,255,82966,1,2,0:0:0:0:
192,204,83154,1,8,0:0:0:0:
444,109,83529,1,8,0:0:0:0:
346,178,83716,1,2,0:0:0:0:
335,58,83904,1,8,0:0:0:0:
194,174,84279,6,0,P|160:174|127:153,1,75,0|2,0:0|0:0,0:0:0:0:
88,49,84654,2,0,P|105:79|104:118,1,75,0|2,0:0|0:0,0:0:0:0:
30,202,85029,2,0,P|46:172|82:154,1,75,0|2,0:0|0:0,0:0:0:0:
256,112,85404,1,2,0:2:0:0:
256,112,85779,1,4,0:2:0:0:
60,44,86154,6,0,B|45:95|79:152|136:166,1,150,2|8,1:0|0:0,0:0:0:0:
212,189,86716,1,2,0:0:0:0:
212,189,87091,5,2,3:0:0:0:
294,179,87279,1,8,0:0:0:0:
364,135,87466,1,8,0:0:0:0:
447,69,87654,2,0,P|449:139|387:210,1,150,2|8,1:0|0:0,0:0:0:0:
325,230,88216,1,2,0:0:0:0:
325,230,88591,5,2,0:0:0:0:
242,237,88779,1,8,0:0:0:0:
165,207,88966,1,8,0:0:0:0:
56,158,89154,2,0,B|53:214|85:268|147:281,1,150,2|8,1:0|0:0,0:0:0:0:
208,305,89716,1,2,0:0:0:0:
208,305,90091,5,2,0:0:0:0:
290,300,90279,1,8,0:0:0:0:
366,269,90466,1,8,0:0:0:0:
442,204,90654,5,2,1:0:0:0:
332,306,91029,1,8,0:0:0:0:
182,307,91404,1,2,1:0:0:0:
74,202,91779,1,8,0:0:0:0:
173,89,92154,5,4,0:2:0:0:
101,67,92341,2,0,P|56:43|34:11,2,75,2|8|2,0:0|0:0|0:0,0:0:0:0:
174,89,93091,1,2,0:0:0:0:
232,135,93279,1,8,0:0:0:0:
301,163,93466,1,10,0:0:0:0:
375,171,93654,5,4,0:2:0:0:
445,145,93841,2,0,P|483:131|524:95,2,75,2|8|2,0:0|0:0|0:0,0:0:0:0:
375,171,94591,1,2,0:0:0:0:
314,216,94779,1,8,0:0:0:0:
243,239,94966,1,10,0:0:0:0:
167,243,95154,5,4,0:2:0:0:
96,218,95341,2,0,P|64:204|35:173,2,75,2|8|2,0:0|0:0|0:0,0:0:0:0:
167,242,96091,1,2,0:0:0:0:
222,292,96279,1,8,0:0:0:0:
292,315,96466,1,10,0:0:0:0:
367,319,96654,6,0,P|404:314|440:289,1,75,4|2,1:2|0:0,0:0:0:0:
457,222,97029,2,0,P|452:180|413:144,1,75,4|2,1:2|0:0,0:0:0:0:
364,108,97404,6,0,B|312:52|196:52|140:108,1,240,0|4,1:0|0:0,0:0:0:0:
256,192,98247,12,0,100404,0:0:0:0:
