osu file format v12

[General]
AudioFilename: 01 -Flowers-.mp3
AudioLeadIn: 2000
PreviewTime: 35904
Countdown: 0
SampleSet: None
StackLeniency: 0.7
Mode: 0
LetterboxInBreaks: 1
WidescreenStoryboard: 1

[Editor]
DistanceSpacing: 1.4
BeatDivisor: 4
GridSize: 4

[Metadata]
Title:Hana Ranman -Flowers-
TitleUnicode:華爛漫 -Flowers-
Artist:TERRA
ArtistUnicode:TERRA
Creator:Scorpiour
Version:Candidate 05 Hard
Source:
Tags:
BeatmapID:296993
BeatmapSetID:102498

[Difficulty]
HPDrainRate:6
CircleSize:4
OverallDifficulty:6
ApproachRate:8
SliderMultiplier:1.6
SliderTickRate:1

[Events]
//Background and Video events
//Break Periods
//Storyboard Layer 0 (Background)
//Storyboard Layer 1 (Fail)
//Storyboard Layer 2 (Pass)
//Storyboard Layer 3 (Foreground)
//Storyboard Sound Samples
//Background Colour Transformations
3,100,0,0,0

[TimingPoints]
-846,375,4,2,13,90,1,0
279,-133.333333333333,4,2,13,90,0,0
6654,-133.333333333333,4,2,13,95,0,0
12654,-133.333333333333,4,2,14,100,0,0
24654,-133.333333333333,4,2,13,100,0,0
26154,-133.333333333333,4,2,14,100,0,0
27654,-133.333333333333,4,2,13,100,0,0
29904,-133.333333333333,4,2,14,100,0,0
30654,-133.333333333333,4,2,13,100,0,0
32154,-133.333333333333,4,2,14,100,0,0
35904,-133.333333333333,4,2,14,80,0,0
36654,-100,4,2,14,100,0,1
38904,-100,4,2,13,100,0,1
39654,-100,4,2,14,100,0,1
41904,-100,4,2,13,100,0,1
42654,-100,4,2,14,100,0,1
44904,-100,4,2,13,100,0,1
45654,-100,4,2,14,100,0,1
48654,-100,4,2,14,30,0,0
54279,-133.333333333333,4,2,14,80,0,0
54654,-133.333333333333,4,2,14,100,0,0
60654,-133.333333333333,4,2,14,90,0,0
62154,-133.333333333333,4,2,13,100,0,0
68154,-100,4,2,13,100,0,0
74154,-83.3333333333333,4,2,13,100,0,1
86154,-133.333333333333,4,2,14,100,0,0
90654,-133.333333333333,4,2,13,100,0,0
92154,-133.333333333333,4,2,14,100,0,0
96654,-133.333333333333,4,2,13,100,0,0
98154,-133.333333333333,4,2,13,80,0,0

[HitObjects]
131,235,279,2,0,P|128:268|114:302,2,60.0000022888184,2|0|2,0:0|0:0|0:0,0:0:0:0:
100,157,1029,1,2,0:0:0:0:
184,171,1404,2,0,P|211:218|206:300,1,120.000004577637,2|2,0:0|0:0,0:0:0:0:
267,346,2154,6,0,P|290:299|292:223,1,120.000004577637,2|2,0:0|0:0,0:0:0:0:
275,150,2904,2,0,L|265:122,1,30.0000011444092,2|0,0:0|0:0,0:0:0:0:
196,73,3185,2,0,L|174:51,1,30.0000011444092,2|10,0:0|0:0,0:0:0:0:
304,39,3654,6,0,P|370:45|437:76,1,120.000004577637,2|2,0:0|0:0,0:0:0:0:
363,127,4404,2,0,P|423:158|470:210,1,120.000004577637,2|2,0:0|0:0,0:0:0:0:
386,236,5154,6,0,P|432:288|442:349,2,120.000004577637,2|2|10,0:0|0:0|0:0,0:0:0:0:
454,185,6279,1,10,0:0:0:0:
383,138,6654,6,0,P|343:176|315:238,1,120.000004577637,10|2,0:0|0:0,0:0:0:0:
251,287,7404,2,0,P|233:237|255:176,1,120.000004577637,2|10,0:0|0:0,0:0:0:0:
234,95,8154,6,0,P|192:129|165:191,1,120.000004577637,2|2,0:0|0:0,0:0:0:0:
107,127,8904,2,0,L|97:165,1,30.0000011444092,2|0,0:0|0:0,0:0:0:0:
91,239,9185,2,0,L|90:275,1,30.0000011444092,0|10,0:0|0:0,0:0:0:0:
172,292,9654,6,0,P|199:235|253:214,1,120.000004577637,10|2,0:0|0:0,0:0:0:0:
256,296,10404,2,0,P|312:304|374:296,1,120.000004577637,2|10,0:0|0:0,0:0:0:0:
458,287,11154,6,0,P|431:230|380:209,2,120.000004577637,2|2|10,0:0|0:0|0:0,0:0:0:0:
375,296,12279,2,0,L|374:333,2,30.0000011444092,10|0|2,0:0|0:0|0:0,0:0:0:0:
381,209,12654,6,0,P|348:161|295:129,1,120.000004577637,6|8,0:0|0:0,0:0:0:0:
217,101,13216,1,2,0:0:0:0:
134,115,13404,1,4,0:0:0:0:
81,50,13779,1,8,0:0:0:0:
134,115,13966,2,0,P|155:174|159:235,1,120.000004577637,2|0,0:0|0:0,0:0:0:0:
144,314,14529,1,8,0:0:0:0:
85,373,14716,1,2,0:0:0:0:
144,314,14904,2,0,P|208:295|279:297,1,120.000004577637,4|12,0:0|0:0,0:0:0:0:
318,229,15654,6,0,P|347:283|334:338,1,120.000004577637,4|8,0:0|0:0,0:0:0:0:
418,335,16217,1,2,0:0:0:0:
424,251,16404,1,4,0:0:0:0:
418,335,16779,1,8,0:0:0:0:
424,251,16966,2,0,P|417:191|383:136,1,120.000004577637,2|0,0:0|0:0,0:0:0:0:
452,85,17529,1,12,0:0:0:0:
387,140,17716,1,2,0:0:0:0:
308,170,17904,2,0,P|251:183|190:178,1,120.000004577637,4|12,0:0|0:0,0:0:0:0:
136,113,18654,6,0,P|156:175|139:231,1,120.000004577637,4|8,0:0|0:0,0:0:0:0:
73,178,19217,1,2,0:0:0:0:
141,226,19404,1,4,0:0:0:0:
141,226,19779,1,8,0:0:0:0:
224,244,19966,2,0,P|270:255|340:243,1,120.000004577637,2|2,0:0|0:0,0:0:0:0:
410,293,20529,1,12,0:0:0:0:
333,327,20716,1,2,0:0:0:0:
341,243,20904,2,0,P|350:183|379:122,1,120.000004577637,4|12,0:0|0:0,0:0:0:0:
426,61,21654,5,4,0:0:0:0:
374,129,22029,1,8,0:0:0:0:
303,173,22216,2,0,P|270:183|243:182,1,60.0000022888184,2|4,0:0|0:0,0:0:0:0:
100,104,22779,1,8,0:0:0:0:
165,157,22966,1,2,0:0:0:0:
178,74,23341,1,2,0:0:0:0:
165,157,23529,2,0,P|157:187|143:213,1,60.0000022888184,12|2,0:0|0:0,0:0:0:0:
62,264,23904,2,0,L|100:254,1,30.0000011444092,12|0,0:0|0:0,0:0:0:0:
174,305,24185,2,0,L|149:270,1,30.0000011444092,0|8,0:0|0:0,0:0:0:0:
131,247,24466,1,2,0:0:0:0:
131,247,24654,6,0,P|163:191|212:158,1,120.000004577637,14|10,0:0|0:0,0:0:0:0:
292,166,25404,2,0,P|260:222|211:255,1,120.000004577637,10|10,0:0|0:0,0:0:0:0:
295,282,26154,1,6,0:0:0:0:
215,253,26529,2,0,P|180:248|145:253,2,60.0000022888184,8|2|0,0:0|0:0|0:0,0:0:0:0:
295,282,27279,1,8,0:0:0:0:
373,249,27654,6,0,P|341:193|292:160,1,120.000004577637,14|10,0:0|0:0,0:0:0:0:
212,168,28404,2,0,P|244:224|293:257,1,120.000004577637,10|10,0:0|0:0,0:0:0:0:
287,339,29154,1,12,0:0:0:0:
288,255,29341,1,2,0:0:0:0:
349,196,29529,1,8,0:0:0:0:
433,200,29716,1,2,0:0:0:0:
393,125,29904,2,0,L|358:105,1,30.0000011444092,12|0,0:0|0:0,0:0:0:0:
283,99,30185,2,0,L|256:83,1,30.0000011444092,0|8,0:0|0:0,0:0:0:0:
185,39,30466,1,2,0:0:0:0:
141,111,30654,6,0,P|154:172|147:233,1,120.000004577637,14|10,0:0|0:0,0:0:0:0:
79,276,31404,2,0,P|66:215|73:154,1,120.000004577637,10|10,0:0|0:0,0:0:0:0:
6,106,32154,1,4,0:0:0:0:
71,158,32529,1,8,0:0:0:0:
153,184,32716,2,0,P|211:197|282:190,2,120.000004577637,10|2|2,0:0|0:0|0:0,0:0:0:0:
71,158,33654,2,0,P|79:225|126:262,1,120.000004577637,4|0,0:0|0:0,0:0:0:0:
198,279,34216,6,0,P|296:270|384:286,1,180.000006866455,6|8,0:0|0:0,0:0:0:0:
406,205,35154,2,0,L|432:178,1,30.0000011444092,8|0,0:0|0:0,0:0:0:0:
342,189,35435,2,0,L|352:141,1,30.0000011444092,0|12,0:0|0:0,0:0:0:0:
277,205,35716,1,2,0:0:0:0:
277,205,35904,2,0,P|259:142|235:93,1,120.000004577637,6|10,0:0|0:0,0:0:0:0:
190,196,36654,5,4,0:0:0:0:
118,339,37029,2,0,P|86:310|66:266,2,80,8|2|4,0:0|0:0|0:0,0:0:0:0:
149,267,37779,2,0,P|129:224|121:183,1,80,8|2,0:0|0:0,0:0:0:0:
202,206,38154,6,0,P|196:137|207:73,1,120,4|8,0:0|0:0,0:0:0:0:
237,110,38529,2,0,P|250:62|270:29,1,80,8|2,0:0|0:0,0:0:0:0:
321,30,38904,1,12,0:0:0:0:
482,31,39279,2,0,P|443:30|402:36,1,80,8|10,0:0|0:0,0:0:0:0:
328,65,39654,5,4,0:0:0:0:
425,122,40029,2,0,P|467:145|496:179,2,80,8|2|4,0:0|0:0|0:0,0:0:0:0:
416,233,40779,2,0,P|400:200|365:166,1,80,8|2,0:0|0:0,0:0:0:0:
291,176,41154,6,0,P|319:233|327:296,1,120,4|8,0:0|0:0,0:0:0:0:
263,297,41529,2,0,P|273:269|272:219,1,80,8|2,0:0|0:0,0:0:0:0:
163,244,41904,1,12,0:0:0:0:
65,195,42279,2,0,P|54:222|55:272,1,80,8|10,0:0|0:0,0:0:0:0:
87,347,42654,6,0,L|108:381,1,40,4|0,0:0|0:0,0:0:0:0:
253,194,43029,2,0,P|263:166|262:116,1,80,8|2,0:0|0:0,0:0:0:0:
231,42,43404,2,0,L|212:5,1,40,4|0,0:0|0:0,0:0:0:0:
425,155,43779,2,0,P|437:193|434:232,1,80,8|2,0:0|0:0,0:0:0:0:
407,310,44154,6,0,P|345:310|287:326,1,120,4|8,0:0|0:0,0:0:0:0:
261,353,44529,2,0,P|218:357|166:346,1,80,8|2,0:0|0:0,0:0:0:0:
113,309,44904,1,12,0:0:0:0:
42,220,45185,1,8,0:0:0:0:
42,220,45279,2,0,P|85:231|129:228,1,80,8|2,0:0|0:0,0:0:0:0:
200,218,45654,6,0,L|240:209,1,40,12|0,0:0|0:0,0:0:0:0:
227,321,45935,2,0,L|265:302,1,40,0|8,0:0|0:0,0:0:0:0:
357,239,46216,1,2,0:0:0:0:
376,128,46404,2,0,L|380:86,1,40,12|0,0:0|0:0,0:0:0:0:
283,32,46685,2,0,L|298:81,1,40,0|8,0:0|0:0,0:0:0:0:
321,178,46966,1,2,0:0:0:0:
236,251,47154,6,0,P|181:264|127:237,1,120,4|8,0:0|0:0,0:0:0:0:
93,191,47529,2,0,P|83:151|107:99,1,80,8|2,0:0|0:0,0:0:0:0:
181,44,47904,2,0,P|243:52|288:92,1,120,4|0,0:0|0:0,0:0:0:0:
305,141,48279,2,0,B|324:165|315:197|315:197|279:205|255:238|255:238|294:228|326:243|326:243|317:278|342:308|342:308|345:271|371:246|371:246|401:265|434:252|434:252|400:243|389:207|389:207|415:179|413:142|413:142|393:172|354:176|354:176|339:149|313:144,1,640
54,74,54279,6,0,P|92:84|126:86,1,60.0000022888184,8|10,0:0|0:0,0:0:0:0:
145,113,54654,1,4,0:0:0:0:
166,150,55029,2,0,P|204:160|238:162,1,60.0000022888184,8|10,0:0|0:0,0:0:0:0:
257,189,55404,1,4,0:0:0:0:
267,230,55779,2,0,P|305:240|339:242,1,60.0000022888184,8|10,0:0|0:0,0:0:0:0:
353,275,56154,5,4,0:0:0:0:
385,301,56341,1,2,0:0:0:0:
425,310,56529,1,4,0:0:0:0:
465,298,56716,1,2,0:0:0:0:
498,272,56904,1,4,0:0:0:0:
435,115,57279,6,0,P|428:153|418:185,1,60.0000022888184,8|10,0:0|0:0,0:0:0:0:
392,203,57654,1,4,0:0:0:0:
349,197,58029,2,0,P|349:165|342:137,1,60.0000022888184,8|10,0:0|0:0,0:0:0:0:
313,107,58404,1,4,0:0:0:0:
273,119,58779,2,0,P|270:153|257:188,1,60.0000022888184,8|10,0:0|0:0,0:0:0:0:
232,207,59154,5,4,0:0:0:0:
192,221,59341,1,2,0:0:0:0:
150,227,59529,1,4,0:0:0:0:
109,217,59716,1,2,0:0:0:0:
75,191,59904,1,4,0:0:0:0:
56,153,60279,1,0,0:0:0:0:
55,111,60654,6,0,P|139:124|234:94,2,180.000006866455,0|2|0,0:0|0:0|0:0,0:0:0:0:
138,199,62154,2,0,P|199:193|261:165,1,120.000004577637,8|8,0:0|0:0,0:0:0:0:
190,274,62904,2,0,P|253:257|306:226,1,120.000004577637,8|8,0:0|0:0,0:0:0:0:
299,315,63466,2,0,P|336:293|366:270,1,60.0000022888184,10|12,0:0|0:0,0:0:0:0:
383,337,63935,2,0,L|407:312,1,30.0000011444092,8|8,0:0|0:0,0:0:0:0:
448,357,64216,2,0,P|468:322|478:284,1,60.0000022888184,10|8,0:0|0:0,0:0:0:0:
461,135,64779,6,0,P|404:151|342:153,1,120.000004577637,8|8,0:0|0:0,0:0:0:0:
175,143,65529,2,0,P|236:170|296:172,1,120.000004577637,8|8,0:0|0:0,0:0:0:0:
403,212,66279,1,8,0:0:0:0:
365,231,66466,2,0,P|334:242|306:244,1,60.0000022888184,10|12,0:0|0:0,0:0:0:0:
217,235,66935,2,0,L|249:243,1,30.0000011444092,8|8,0:0|0:0,0:0:0:0:
311,297,67216,2,0,P|281:298|252:309,1,60.0000022888184,10|8,0:0|0:0,0:0:0:0:
85,305,67779,6,0,P|115:296|145:295,1,60.0000022888184,8|10,0:0|0:0,0:0:0:0:
49,234,68154,1,12,0:0:0:0:
271,264,68529,2,0,P|241:255|191:254,1,80,8|10,0:0|0:0,0:0:0:0:
307,193,68904,1,12,0:0:0:0:
94,124,69279,1,8,0:0:0:0:
149,138,69466,2,0,P|185:126|232:125,1,80,10|12,0:0|0:0,0:0:0:0:
268,199,69935,2,0,P|271:175|285:156,1,40,8|8,0:0|0:0,0:0:0:0:
377,217,70216,2,0,P|349:177|337:128,1,80,10|12,0:0|0:0,0:0:0:0:
357,36,70779,6,0,P|380:72|392:112,1,80,8|10,0:0|0:0,0:0:0:0:
408,219,71154,1,12,0:0:0:0:
252,58,71529,2,0,P|296:92|319:136,1,80,8|10,0:0|0:0,0:0:0:0:
365,210,71904,1,12,0:0:0:0:
164,111,72279,1,8,0:0:0:0:
269,148,72466,2,0,P|308:178|329:217,1,80,10|12,0:0|0:0,0:0:0:0:
157,224,72935,2,0,L|200:238,1,40,8|12,0:0|0:0,0:0:0:0:
250,254,73216,2,0,P|292:278|321:308,1,80,10|8,0:0|0:0,0:0:0:0:
202,299,73779,1,4,0:0:0:0:
125,321,73966,1,2,0:0:0:0:
157,224,74154,6,0,L|188:180,1,47.9999985351563,12|8,0:0|0:0,0:0:0:0:
104,132,74435,2,0,L|159:103,1,47.9999985351563,8|8,0:0|0:0,0:0:0:0:
101,24,74716,1,10,0:0:0:0:
233,52,74904,2,0,L|206:105,1,47.9999985351563,12|8,0:0|0:0,0:0:0:0:
346,88,75185,2,0,L|347:138,1,47.9999985351563,8|8,0:0|0:0,0:0:0:0:
458,60,75466,1,10,0:0:0:0:
442,194,75654,6,0,P|404:250|379:330,1,143.999995605469,4|8,0:0|0:0,0:0:0:0:
338,345,76029,1,8,0:0:0:0:
241,347,76216,2,0,P|254:300|304:254,1,95.9999970703126,10|8,0:0|0:0,0:0:0:0:
148,341,76779,1,8,0:0:0:0:
155,244,76966,1,10,0:0:0:0:
71,297,77154,6,0,L|43:251,1,47.9999985351563,12|8,0:0|0:0,0:0:0:0:
89,204,77435,2,0,L|72:159,1,47.9999985351563,8|8,0:0|0:0,0:0:0:0:
206,171,77716,1,10,0:0:0:0:
124,115,77904,2,0,L|117:61,1,47.9999985351563,12|8,0:0|0:0,2:0:0:0:
184,57,78185,2,0,L|192:9,1,47.9999985351563,8|8,0:0|0:0,2:0:0:0:
314,67,78466,1,10,0:0:0:0:
263,149,78654,6,0,P|236:212|231:279,1,95.9999970703126,12|8,0:0|0:0,0:0:0:0:
248,334,79029,1,8,0:0:0:0:
346,341,79216,2,0,P|399:335|456:306,1,95.9999970703126,10|8,0:0|0:0,0:0:0:0:
495,55,79779,1,8,0:0:0:0:
445,136,79966,1,10,0:0:0:0:
367,191,80154,6,0,L|390:240,1,47.9999985351563,12|8,0:0|0:0,0:0:0:0:
270,211,80435,2,0,L|273:271,1,47.9999985351563,0|8,0:0|0:0,0:0:0:0:
176,192,80716,1,10,0:0:0:0:
270,173,80904,2,0,L|272:125,1,47.9999985351563,12|8,0:0|0:0,0:0:0:0:
367,193,81185,2,0,L|387:149,1,47.9999985351563,8|8,0:0|0:0,0:0:0:0:
445,248,81466,1,10,0:0:0:0:
495,329,81654,6,0,P|433:302|350:295,1,143.999995605469,4|8,0:0|0:0,0:0:0:0:
309,298,82029,1,8,0:0:0:0:
225,343,82216,2,0,P|177:337|124:322,1,95.9999970703126,10|8,0:0|0:0,0:0:0:0:
9,375,82779,1,8,0:0:0:0:
131,324,82966,1,10,0:0:0:0:
142,189,83154,6,0,L|126:122,1,47.9999985351563,12|8,0:0|0:0,0:0:0:0:
227,128,83435,2,0,L|211:61,1,47.9999985351563,8|8,0:0|0:0,0:0:0:0:
246,213,83716,1,10,0:0:0:0:
331,147,83904,2,0,L|315:80,1,47.9999985351563,12|8,0:0|0:0,0:0:0:0:
416,86,84185,2,0,L|400:19,1,47.9999985351563,8|8,0:0|0:0,0:0:0:0:
435,171,84466,1,10,0:0:0:0:
354,243,84654,6,0,P|387:313|436:369,1,143.999995605469,12|8,0:0|0:0,0:0:0:0:
475,347,85029,1,8,0:0:0:0:
489,301,85216,2,0,P|463:260|447:207,1,95.9999970703126,10|8,0:0|0:0,0:0:0:0:
357,45,85779,2,0,P|352:97|332:144,1,95.9999970703126,8|2,0:0|0:0,0:0:0:0:
315,219,86154,6,0,L|306:264,2,30.0000011444092,4|0|10,0:0|0:0|0:0,0:0:0:0:
242,177,86716,2,0,B|242:207|242:207|227:268|245:295|245:295|248:317,2,120.000004577637,10|2|2,0:0|0:0|0:0,0:0:0:0:
257,94,87654,6,0,L|301:81,2,30.0000011444092,4|0|10,0:0|0:0|0:0,0:0:0:0:
179,125,88216,2,0,B|170:145|164:177|166:202|166:202|158:245,2,120.000004577637,10|2|2,0:0|0:0|0:0,0:0:0:0:
116,69,89154,6,0,L|72:56,2,30.0000011444092,4|0|10,0:0|0:0|0:0,0:0:0:0:
99,150,89716,2,0,P|161:169|215:202,2,120.000004577637,10|2|2,0:0|0:0|0:0,0:0:0:0:
111,233,90654,6,0,P|113:294|129:354,1,120.000004577637,12|8,0:0|0:0,0:0:0:0:
291,307,91404,2,0,P|304:255|308:188,1,120.000004577637,12|8,0:0|0:0,0:0:0:0:
381,141,92154,6,0,L|399:173,2,30.0000011444092,4|0|10,0:0|0:0|0:0,0:0:0:0:
455,101,92716,2,0,B|468:124|483:156|481:173|481:173|501:220,2,120.000004577637,10|2|2,0:0|0:0|0:0,0:0:0:0:
384,54,93654,6,0,L|367:97,2,30.0000011444092,4|0|10,0:0|0:0|0:0,0:0:0:0:
300,51,94216,2,0,P|287:110|296:176,2,120.000004577637,10|2|2,0:0|0:0|0:0,0:0:0:0:
216,57,95154,6,2,L|204:16,2,30.0000011444092,4|0|8,0:0|0:0|0:0,0:0:0:0:
207,141,95716,2,0,P|218:202|250:270,2,120.000004577637,10|2|2,0:0|0:0|0:0,0:0:0:0:
131,176,96654,6,0,P|137:210|151:245,2,60.0000022888184,8|10|8,0:0|0:0|0:0,0:0:0:0:
77,112,97404,2,0,P|59:146|64:232,1,120.000004577637,8|0,0:0|0:0,0:0:0:0:
110,296,98154,6,0,P|137:313|170:324,1,60.0000022888184,2|0,0:0|0:0,0:0:0:0:
180,284,98529,6,0,P|208:269|234:246,1,60.0000022888184,2|0,0:0|0:0,0:0:0:0:
205,216,98904,6,0,P|206:184|199:150,1,60.0000022888184,2|0,0:0|0:0,0:0:0:0:
159,161,99279,6,0,P|132:144|98:133,1,60.0000022888184,2|0,0:0|0:0,0:0:0:0:
91,174,99654,6,0,P|62:188|36:211,1,60.0000022888184,2|0,0:0|0:0,0:0:0:0:
68,240,100029,5,2,0:0:0:0:
110,296,100216,5,0,0:0:0:0:
138,232,100404,5,2,0:0:0:0:
