osu file format v12

[General]
AudioFilename: 01 -Flowers-.mp3
AudioLeadIn: 0
PreviewTime: 35904
Countdown: 0
SampleSet: None
StackLeniency: 0.7
Mode: 0
LetterboxInBreaks: 1
WidescreenStoryboard: 1

[Editor]
DistanceSpacing: 1.4
BeatDivisor: 4
GridSize: 4

[Metadata]
Title:Hana Ranman -Flowers-
TitleUnicode:華爛漫 -Flowers-
Artist:TERRA
ArtistUnicode:TERRA
Creator:Scorpiour
Version:Candidate 03 Insane
Source:
Tags:
BeatmapID:296992
BeatmapSetID:102498

[Difficulty]
HPDrainRate:7
CircleSize:4
OverallDifficulty:7
ApproachRate:8
SliderMultiplier:1.4
SliderTickRate:1

[Events]
//Background and Video events
//Break Periods
//Storyboard Layer 0 (Background)
//Storyboard Layer 1 (Fail)
//Storyboard Layer 2 (Pass)
//Storyboard Layer 3 (Foreground)
//Storyboard Sound Samples
//Background Colour Transformations
3,100,0,0,0

[TimingPoints]
-846,375,4,1,19,70,1,0
6654,-83.3333333333333,4,1,19,70,0,0
24654,-83.3333333333333,4,1,19,70,0,0
35904,-100,4,1,19,70,0,0
36654,-80,4,1,19,70,0,1
48654,-80,4,1,19,70,0,0
62154,-111.111111111111,4,2,20,70,0,0
68154,-80,4,1,19,70,0,0
72654,-133.333333333333,4,1,19,70,0,0
73779,-66.6666666666667,4,1,19,70,0,0
74154,-74.0740740740741,4,1,19,70,0,1
84654,-74.0740740740741,4,1,0,70,0,0
86154,-74.0740740740741,4,1,19,70,0,1
98154,-80,4,1,0,70,0,0

[HitObjects]
104,208,279,1,0,0:0:0:0:
216,296,466,1,0,0:0:0:0:
160,160,654,1,4,0:0:0:0:
24,192,1029,1,0,0:0:0:0:
172,228,1404,1,2,0:0:0:0:
68,328,1779,1,0,0:0:0:0:
308,312,2154,1,4,0:0:0:0:
84,248,2529,1,0,0:0:0:0:
308,312,2904,1,2,0:0:0:0:
160,160,3654,6,0,L|176:248,1,70,6|0,0:0|2:0,0:0:0:0:
84,248,4029,2,0,L|100:344,1,70,2|0,0:0|2:0,0:0:0:0:
260,256,4404,2,0,L|280:168,1,70,6|0,0:0|2:0,0:0:0:0:
336,332,4779,2,0,L|356:244,1,70,2|0,0:0|2:0,0:0:0:0:
380,148,5154,5,6,0:0:0:0:
260,256,5341,1,0,0:0:0:0:
260,256,5435,1,0,0:0:0:0:
260,256,5529,5,6,0:0:0:0:
236,284,5622,1,0,0:0:0:0:
208,304,5716,1,0,0:0:0:0:
172,312,5810,1,0,0:0:0:0:
136,308,5904,1,6,0:0:0:0:
104,296,5997,1,0,0:0:0:0:
80,272,6091,2,0,L|72:224,1,35
120,120,6279,1,8,2:0:0:0:
120,120,6654,6,0,L|208:116,1,83.9999974365235,4|0,0:0|2:0,0:0:0:0:
344,36,7029,2,0,L|320:132,1,83.9999974365235,6|0,0:0|2:0,0:0:0:0:
88,220,7404,2,0,L|188:212,1,83.9999974365235,4|0,0:0|0:0,0:0:0:0:
376,188,7779,2,0,L|356:292,1,83.9999974365235,6|0,0:0|2:0,0:0:0:0:
380,344,8154,2,0,P|280:288|216:320,2,167.999994873047,4|6|4,0:0|0:0|0:0,0:0:0:0:
160,344,9091,1,0,0:0:0:0:
160,344,9185,1,0,0:0:0:0:
160,344,9279,1,2,0:0:0:0:
296,372,9466,1,0,0:0:0:0:
228,36,9654,6,0,L|244:132,1,83.9999974365235,4|0,0:0|0:0,0:0:0:0:
256,232,10029,1,6,0:0:0:0:
168,140,10216,1,0,0:0:0:0:
320,112,10404,6,0,L|336:212,1,83.9999974365235,4|0,0:0|0:0,0:0:0:0:
360,336,10779,1,6,0:0:0:0:
256,232,10966,1,0,0:0:0:0:
412,192,11154,6,0,L|428:280,1,83.9999974365235,4|0,0:0|0:0,0:0:0:0:
52,132,11529,6,0,L|28:28,1,83.9999974365235,6|0,0:0|0:0,0:0:0:0:
224,216,11904,5,4,0:0:0:0:
0,216,12091,1,0,0:0:0:0:
0,216,12185,1,0,0:0:0:0:
0,216,12279,1,2,0:0:0:0:
172,120,12466,2,0,L|188:68,1,41.9999987182618
124,204,12654,6,0,P|112:256|112:292,1,83.9999974365235,0|2,0:0|0:0,0:0:0:0:
116,312,12935,1,2,0:0:0:0:
124,336,13029,1,0,0:0:0:0:
208,384,13216,1,2,0:0:0:0:
232,212,13404,2,0,P|204:156|180:128,1,83.9999974365235,0|2,0:0|0:0,0:0:0:0:
172,124,13685,1,2,0:0:0:0:
152,112,13779,1,0,0:0:0:0:
56,84,13966,1,2,0:0:0:0:
288,132,14154,6,0,L|392:128,1,83.9999974365235,0|2,0:0|0:0,0:0:0:0:
396,128,14435,1,2,0:0:0:0:
420,128,14529,1,0,0:0:0:0:
504,124,14716,1,2,0:0:0:0:
248,216,14904,6,0,L|352:212,1,83.9999974365235,0|2,0:0|0:0,0:0:0:0:
356,212,15185,1,2,0:0:0:0:
380,212,15279,1,0,0:0:0:0:
464,208,15466,1,2,0:0:0:0:
88,344,15654,6,0,P|80:292|80:248,1,83.9999974365235,0|2,0:0|0:0,0:0:0:0:
80,236,15935,1,2,0:0:0:0:
84,212,16029,1,0,0:0:0:0:
116,128,16216,1,2,0:0:0:0:
360,340,16404,2,0,P|304:332|256:308,1,83.9999974365235,0|2,0:0|0:0,0:0:0:0:
256,312,16685,1,2,0:0:0:0:
236,296,16779,1,0,0:0:0:0:
192,224,16966,1,2,0:0:0:0:
492,172,17154,6,0,P|440:200|400:204,1,83.9999974365235,0|2,0:0|0:0,0:0:0:0:
332,156,17435,1,2,0:0:0:0:
304,140,17529,2,0,P|224:124|192:128,1,83.9999974365235,0|2,0:0|0:0,0:0:0:0:
316,352,17904,1,0,0:0:0:0:
332,324,17997,1,0,0:0:0:0:
340,292,18091,1,2,0:0:0:0:
336,256,18185,1,0,0:0:0:0:
328,224,18279,2,0,L|380:240,1,41.9999987182618
300,96,18466,2,2,L|304:144,1,41.9999987182618,2|2,0:0|0:0,0:0:0:0:
216,56,18654,6,0,P|156:64|124:64,1,83.9999974365235,0|2,0:0|0:0,0:0:0:0:
108,60,18935,1,2,0:0:0:0:
84,56,19029,1,0,0:0:0:0:
0,32,19216,1,2,0:0:0:0:
92,152,19404,2,0,P|144:160|184:156,1,83.9999974365235,0|2,0:0|0:0,0:0:0:0:
200,152,19685,1,2,0:0:0:0:
224,144,19779,1,0,0:0:0:0:
296,216,19966,1,2,0:0:0:0:
336,128,20154,6,0,P|388:104|428:100,1,83.9999974365235,0|2,0:0|0:0,0:0:0:0:
440,100,20435,1,2,0:0:0:0:
464,104,20529,1,0,0:0:0:0:
448,192,20716,1,2,0:0:0:0:
280,72,20904,2,0,L|208:60,1,41.9999987182618
152,72,21091,2,0,L|88:60,1,41.9999987182618,2|0,0:0|0:0,0:0:0:0:
280,160,21279,2,0,L|208:148,1,41.9999987182618
152,160,21466,2,0,L|88:148,1,41.9999987182618,2|0,0:0|0:0,0:0:0:0:
216,232,21654,6,0,P|220:292|200:336,1,83.9999974365235,0|2,0:0|0:0,0:0:0:0:
204,336,21935,1,2,0:0:0:0:
192,360,22029,1,0,0:0:0:0:
300,336,22216,1,2,0:0:0:0:
120,268,22404,2,0,P|112:220|124:180,1,83.9999974365235,0|2,0:0|0:0,0:0:0:0:
128,164,22685,1,2,0:0:0:0:
136,140,22779,1,0,0:0:0:0:
168,56,22966,1,2,0:0:0:0:
220,220,23154,6,0,P|240:228|308:232,1,83.9999974365235,0|2,0:0|0:0,0:0:0:0:
380,92,23529,2,0,P|324:100|284:112,1,83.9999974365235,2|2,0:0|0:0,0:0:0:0:
440,188,23904,1,0,0:0:0:0:
460,172,23997,1,0,0:0:0:0:
476,152,24091,1,0,0:0:0:0:
484,128,24185,1,0,0:0:0:0:
488,104,24279,1,0,0:0:0:0:
488,80,24372,1,0,0:0:0:0:
484,56,24466,1,0,0:0:0:0:
472,32,24560,1,0,0:0:0:0:
452,16,24654,6,0,P|360:44|288:16,1,167.999994873047,4|8,2:0|1:2,0:0:0:0:
295,21,25216,1,0,0:0:0:0:
352,180,25404,2,0,P|352:248|344:288,1,83.9999974365235,2|0,0:0|0:0,0:0:0:0:
176,160,25779,2,0,P|176:92|184:52,1,83.9999974365235,8|0,1:2|0:0,0:0:0:0:
228,264,26154,6,0,P|160:280|104:260,1,125.999996154785,2|0,0:0|0:0,0:0:0:0:
92,244,26529,2,0,L|84:336,1,83.9999974365235,8|0,1:2|0:0,0:0:0:0:
100,348,26810,1,0,0:0:0:0:
120,360,26904,1,8,0:2:0:0:
144,364,26997,1,0,0:0:0:0:
168,364,27091,1,0,0:0:0:0:
192,356,27185,1,0,0:0:0:0:
212,340,27279,2,0,P|288:308|320:304,1,83.9999974365235,8|0,0:2|0:0,0:0:0:0:
484,352,27654,6,0,P|408:328|392:312,1,83.9999974365235,2|0,0:0|0:0,0:0:0:0:
356,136,28029,2,0,P|364:200|364:228,1,83.9999974365235,8|0,0:2|0:0,0:0:0:0:
147,219,28404,2,0,P|148:200|156:136,1,83.9999974365235,2|0,0:0|0:0,0:0:0:0:
104,324,28779,2,0,P|67:342|19:350,1,83.9999974365235,8|0,0:2|0:0,0:0:0:0:
224,308,29154,6,0,P|328:292|368:308,1,125.999996154785,2|0,0:0|0:0,0:0:0:0:
368,308,29529,2,0,L|480:304,1,83.9999974365235,8|0,0:2|0:0,0:0:0:0:
476,292,29810,1,0,0:0:0:0:
492,272,29904,1,2,0:0:0:0:
500,248,29997,1,8,0:2:0:0:
504,224,30091,1,0,0:0:0:0:
500,200,30185,1,0,0:0:0:0:
488,176,30279,2,0,L|496:80,1,83.9999974365235,8|0,0:2|0:0,0:0:0:0:
476,76,30560,1,0,0:0:0:0:
456,60,30654,5,2,0:0:0:0:
324,40,30841,1,0,0:0:0:0:
396,152,31029,2,0,L|384:244,1,83.9999974365235,8|0,0:2|0:0,0:0:0:0:
312,280,31404,1,2,0:0:0:0:
436,320,31591,1,0,0:0:0:0:
300,160,31779,2,0,L|312:60,1,83.9999974365235,8|0,0:2|0:0,0:0:0:0:
184,272,32154,6,0,P|84:296|32:256,1,167.999994873047,2|8,0:0|0:2,0:0:0:0:
328,244,32716,2,0,P|428:220|475:254,1,167.999994873047,0|0,0:0|0:0,0:0:0:0:
240,212,33279,1,8,0:2:0:0:
240,212,33466,1,0,0:0:0:0:
300,160,33654,6,0,P|328:256|304:340,1,167.999994873047,2|8,0:0|0:2,0:0:0:0:
216,160,34216,2,0,L|412:160,1,167.999994873047
104,196,34779,1,8,0:2:0:0:
104,196,34872,1,0,0:0:0:0:
104,196,34966,1,0,0:0:0:0:
104,196,35060,1,0,0:0:0:0:
104,196,35154,5,8,1:0:0:0:
396,200,35529,1,8,1:0:0:0:
256,300,35904,6,0,B|228:192|288:192|248:64,1,209.999993591309,0|0,0:0|2:0,0:0:0:0:
172,148,36654,6,0,P|84:160|36:112,1,131.25,4|0,2:0|0:0,0:0:0:0:
52,138,37029,2,0,L|92:36,1,87.5,8|0,0:0|0:0,0:0:0:0:
192,224,37404,2,0,P|108:244|16:208,1,175,0|8,0:0|0:0,0:0:0:0:
172,148,37966,1,0,0:0:0:0:
276,168,38154,6,0,B|336:180|376:156|376:156|360:128,1,131.25
364,132,38529,2,0,L|352:228,1,87.5,8|0,0:0|0:0,0:0:0:0:
296,72,38904,2,0,L|272:264,1,175,0|8,0:0|0:0,0:0:0:0:
232,28,39466,1,0,0:0:0:0:
352,220,39654,6,0,P|440:224|488:196,1,131.25
476,205,40029,2,0,L|443:123,1,87.5,8|0,0:0|0:0,0:0:0:0:
344,296,40404,2,0,P|452:300|512:272,1,175,0|8,0:0|0:0,0:0:0:0:
272,248,40966,1,0,0:0:0:0:
188,276,41154,6,0,B|120:272|84:276|84:276|116:312,1,131.25
102,296,41529,2,0,L|112:204,1,87.5,8|0,0:0|0:0,0:0:0:0:
176,340,41904,2,0,L|192:176,1,131.25
188,208,42279,2,0,P|244:183|272:179,1,87.5,2|0,0:2|0:0,0:0:0:0:
388,316,42654,6,0,P|308:308|268:268,1,131.25
272,275,43029,2,0,L|280:368,1,87.5,8|0,0:0|0:0,0:0:0:0:
168,308,43404,2,0,P|132:244|160:136,1,175,0|8,0:0|0:0,0:0:0:0:
216,88,43966,1,0,0:0:0:0:
352,156,44154,6,0,B|300:176|268:152|268:152|280:204,1,131.25
277,194,44529,2,0,L|288:92,1,87.5,8|0,0:0|0:0,0:0:0:0:
352,244,44904,2,0,L|368:64,1,175,0|8,0:0|0:0,0:0:0:0:
352,244,45466,1,0,0:0:0:0:
272,304,45654,6,0,P|188:308|136:264,1,131.25,4|0,0:2|0:0,0:0:0:0:
150,283,46029,2,0,L|164:384,1,87.5,8|0,0:0|0:0,0:0:0:0:
52,288,46404,2,0,P|24:192|44:104,1,175,4|8,0:2|0:0,0:0:0:0:
108,56,46966,1,0,0:0:0:0:
256,192,47154,6,0,P|156:188|136:148,1,131.25,4|0,0:2|0:0,0:0:0:0:
143,171,47529,2,0,L|152:284,1,87.5,6|0,0:2|0:0,0:0:0:0:
192,40,47904,1,4,0:2:0:0:
320,344,48279,1,6,0:2:0:0:
320,344,48372,1,0,0:0:0:0:
320,344,48466,1,0,0:0:0:0:
320,344,48560,1,0,0:0:0:0:
320,344,48654,1,6,0:2:0:0:
256,24,50060,5,2,0:2:0:0:
248,48,50154,1,6,0:2:0:0:
272,156,50529,1,6,0:2:0:0:
244,256,50904,1,6,0:2:0:0:
408,136,51560,5,2,0:2:0:0:
408,136,51654,1,6,0:2:0:0:
100,132,52404,1,6,0:2:0:0:
344,308,53154,6,0,P|348:252|344:208,1,87.5,6|0,0:2|0:0,0:0:0:0:
166,220,53529,2,0,P|164:252|168:308,1,87.5,6|0,0:2|0:0,0:0:0:0:
256,188,53904,1,6,0:2:0:0:
256,72,54091,2,8,L|256:16,2,43.75
256,188,54466,5,8,0:0:0:0:
256,188,54560,1,8,0:0:0:0:
256,188,54654,2,0,P|192:168|164:168,1,87.5,6|0,0:2|0:0,0:0:0:0:
32,276,55029,2,0,P|80:252|112:212,1,87.5,2|0,0:2|0:0,0:0:0:0:
44,24,55404,2,0,P|8:132|28:196,1,175,8|8,0:0|0:0,0:0:0:0:
224,88,55966,1,0,0:0:0:0:
312,48,56154,6,0,L|420:40,1,87.5,8|0,0:0|0:0,0:0:0:0:
216,212,56529,2,0,L|116:224,1,87.5,8|0,0:0|0:0,0:0:0:0:
328,156,56904,2,0,P|360:252|336:336,1,175,8|8,0:0|0:0,0:0:0:0:
348,72,57466,1,0,0:0:0:0:
408,148,57654,6,0,P|304:152|256:88,1,175,6|8,0:2|0:0,0:0:0:0:
348,72,58216,1,0,0:0:0:0:
288,240,58404,2,8,P|196:240|140:160,1,175,6|8,0:2|0:0,0:0:0:0:
240,156,58966,1,8,0:0:0:0:
240,156,59060,1,8,0:0:0:0:
240,156,59154,5,6,0:2:0:0:
48,248,59529,5,6,0:2:0:0:
328,332,59904,6,0,L|424:324,1,87.5,6|0,0:2|0:0,0:0:0:0:
184,268,60279,2,0,L|88:276,1,87.5,6|0,0:2|0:0,0:0:0:0:
312,136,62154,6,0,L|448:124,2,125.999996154785,0|4|4,0:0|0:0|0:0,0:0:0:0:
224,108,63091,2,0,P|204:144|192:176,1,62.9999980773926
276,348,63466,2,0,P|280:280|272:208,1,125.999996154785,4|0,0:0|0:0,0:0:0:0:
360,324,64029,2,0,P|360:288|356:252,1,62.9999980773926
188,184,64404,2,0,P|188:220|192:256,1,62.9999980773926,8|8,0:0|0:0,0:0:0:0:
224,108,64779,6,0,L|76:100,2,125.999996154785,4|4|0,0:0|0:0|0:0,0:0:0:0:
312,80,65716,2,0,P|276:160|280:220,1,125.999996154785,4|0,0:0|0:0,0:0:0:0:
472,172,66279,2,0,P|435:92|407:67,1,125.999996154785,0|4,0:0|0:0,0:0:0:0:
320,8,66841,1,0,0:0:0:0:
368,136,67029,1,8,0:0:0:0:
460,24,67216,1,8,0:0:0:0:
460,24,67310,1,8,0:0:0:0:
460,24,67404,1,4,0:0:0:0:
288,96,67591,1,0,0:0:0:0:
124,44,67779,2,0,L|36:32,1,62.9999980773926,4|0,0:0|0:0,0:0:0:0:
184,116,68154,6,0,P|216:200|208:268,1,131.25,6|0,0:2|0:0,0:0:0:0:
204,264,68529,2,0,L|128:216,1,87.5,8|0,0:0|0:0,0:0:0:0:
284,148,68904,2,0,P|296:260|272:340,1,175,8|8,0:0|0:0,0:0:0:0:
204,372,69466,1,0,0:0:0:0:
376,296,69654,6,0,P|436:264|500:280,1,131.25,8|0,0:0|0:0,0:0:0:0:
508,300,70029,2,0,L|492:200,1,87.5,8|0,0:0|0:0,0:0:0:0:
440,352,70404,2,0,L|412:164,1,175,8|8,0:0|0:0,0:0:0:0:
400,88,70966,1,0,0:0:0:0:
316,268,71154,6,0,P|220:256|196:204,1,131.25,8|0,0:0|0:0,0:0:0:0:
200,208,71529,2,0,L|212:312,1,87.5,8|0,0:0|0:0,0:0:0:0:
284,188,71904,1,8,0:0:0:0:
252,104,72091,1,8,0:0:0:0:
252,104,72185,1,8,0:0:0:0:
252,104,72279,1,8,0:0:0:0:
252,104,72372,1,8,0:0:0:0:
252,104,72466,1,8,0:0:0:0:
252,104,72560,1,0,0:0:0:0:
252,104,72654,6,0,B|212:216|284:212|248:320,1,210.000008010865
252,312,73779,6,0,B|217:211|289:215|248:116,1,157.500006008148,0|0,0:0|0:0,0:0:0:0:
252,104,74154,6,0,P|176:132|112:100,1,141.750000540733,6|0,0:2|0:0,0:0:0:0:
64,64,74529,1,10,0:2:0:0:
184,24,74716,1,0,0:0:0:0:
220,204,74904,2,0,P|116:204|44:136,1,189.000000720978,8|10,0:0|0:2,0:0:0:0:
324,232,75466,1,0,0:0:0:0:
252,276,75654,6,0,P|224:200|236:108,1,141.750000540733,8|0,0:0|0:0,0:0:0:0:
256,72,76029,1,10,0:2:0:0:
388,176,76216,1,0,0:0:0:0:
320,344,76404,2,8,P|220:356|144:292,1,189.000000720978,8|10,0:0|0:2,0:0:0:0:
92,220,76966,1,0,0:0:0:0:
256,264,77154,6,0,P|296:204|288:128,1,141.750000540733,8|0,0:0|0:0,0:0:0:0:
256,72,77529,1,10,0:2:0:0:
176,148,77716,1,0,0:0:0:0:
360,264,77904,2,0,P|380:156|332:56,1,189.000000720978,8|10,0:0|0:2,0:0:0:0:
256,264,78466,1,0,0:0:0:0:
280,360,78654,6,0,P|392:368|432:328,1,141.750000540733,8|0,0:0|0:0,0:0:0:0:
456,296,79029,1,10,0:2:0:0:
408,144,79216,1,0,0:0:0:0:
304,256,79404,1,8,0:0:0:0:
476,204,79591,2,8,L|524:192,2,47.2500001802444
320,168,79966,1,8,0:0:0:0:
296,156,80060,1,8,0:0:0:0:
268,144,80154,6,0,B|204:120|196:160|128:136,1,141.750000540733,6|0,0:2|0:0,0:0:0:0:
68,92,80529,1,10,0:2:0:0:
172,32,80716,1,0,0:0:0:0:
192,220,80904,2,0,B|100:240|96:184|-4:212,1,189.000000720978,8|10,0:0|0:2,0:0:0:0:
44,308,81466,1,0,0:0:0:0:
260,288,81654,6,0,P|280:200|272:144,1,141.750000540733,8|0,0:0|0:0,0:0:0:0:
248,80,82029,1,10,0:2:0:0:
132,192,82216,1,0,0:0:0:0:
196,352,82404,2,0,P|296:368|372:304,1,189.000000720978,8|10,0:0|0:2,0:0:0:0:
116,320,82966,1,0,0:0:0:0:
260,288,83154,6,0,B|276:236|264:192|264:192|316:224,1,141.750000540733,8|0,0:0|0:0,0:0:0:0:
240,120,83529,1,10,0:2:0:0:
160,224,83716,1,0,0:0:0:0:
332,332,83904,2,0,P|348:268|328:136,1,189.000000720978,8|10,0:0|0:2,0:0:0:0:
256,48,84466,1,0,0:0:0:0:
184,128,84654,5,0,0:0:0:0:
180,164,84747,1,0,0:0:0:0:
184,200,84841,1,0,0:0:0:0:
204,228,84935,1,0,0:0:0:0:
236,240,85029,1,0,0:0:0:0:
272,240,85122,1,0,0:0:0:0:
304,224,85216,1,0,0:0:0:0:
324,196,85310,1,0,0:0:0:0:
324,160,85404,6,0,L|376:188,1,43.75
296,36,85591,2,0,L|340:-28,1,43.75
180,64,85779,2,0,L|128:36,1,43.75
212,180,85966,2,0,L|168:244,1,43.75
144,288,86154,6,0,L|40:280,1,94.5000003604889,4|0,0:2|0:0,0:0:0:0:
240,264,86529,1,8,0:0:0:0:
196,368,86716,2,0,L|-8:352,1,189.000000720978,0|0,0:0|0:0,0:0:0:0:
240,264,87279,1,8,0:0:0:0:
240,264,87466,1,0,0:0:0:0:
368,216,87654,6,0,L|472:208,1,94.5000003604889,0|0,0:2|0:0,0:0:0:0:
272,192,88029,1,8,0:0:0:0:
316,296,88216,2,0,L|520:280,1,189.000000720978,0|0,0:0|0:0,0:0:0:0:
272,192,88779,1,8,0:0:0:0:
272,192,88966,1,0,0:0:0:0:
144,144,89154,6,0,L|40:136,1,94.5000003604889,0|0,0:2|0:0,0:0:0:0:
240,120,89529,1,8,0:0:0:0:
196,224,89716,2,0,L|-8:208,1,189.000000720978,0|0,0:0|0:0,0:0:0:0:
240,120,90279,1,8,0:0:0:0:
240,120,90466,1,0,0:0:0:0:
320,212,90654,6,0,P|328:272|324:312,1,94.5000003604889
192,308,91029,2,8,P|189:274|197:214,1,94.5000003604889,8|0,0:0|0:0,0:0:0:0:
428,304,91404,2,0,P|400:352|364:376,1,94.5000003604889
143,373,91779,2,0,P|112:352|84:304,1,94.5000003604889,8|0,0:0|0:0,0:0:0:0:
272,204,92154,6,0,L|380:224,1,94.5000003604889,4|0,0:2|0:0,0:0:0:0:
444,240,92529,1,8,0:0:0:0:
236,112,92716,2,0,L|424:152,1,189.000000720978,0|0,0:0|0:0,0:0:0:0:
496,172,93279,1,8,0:0:0:0:
496,172,93466,1,0,0:0:0:0:
272,204,93654,6,0,L|380:224,1,94.5000003604889,0|0,0:2|0:0,0:0:0:0:
444,240,94029,1,8,0:0:0:0:
236,112,94216,2,0,L|424:152,1,189.000000720978
496,172,94779,1,8,0:0:0:0:
496,172,94966,1,0,0:0:0:0:
272,204,95154,6,0,L|380:224,1,94.5000003604889,0|0,0:2|0:0,0:0:0:0:
444,240,95529,1,8,0:0:0:0:
236,112,95716,2,0,L|424:152,1,189.000000720978
496,172,96279,1,8,0:0:0:0:
496,172,96466,1,0,0:0:0:0:
209,369,96654,5,8,0:0:0:0:
331,277,96841,1,0,0:0:0:0:
178,280,97029,1,8,0:0:0:0:
304,368,97216,1,0,0:0:0:0:
254,219,97404,5,8,0:0:0:0:
255,192,97497,1,8,0:0:0:0:
255,168,97591,1,8,0:0:0:0:
255,143,97685,1,8,0:0:0:0:
255,118,97779,1,8,0:0:0:0:
255,94,97872,1,8,0:0:0:0:
255,69,97966,1,8,0:0:0:0:
256,44,98060,1,8,0:0:0:0:
256,20,98154,1,4,0:0:0:0:
