osu file format v12

[General]
AudioFilename: 01 -Flowers-.mp3
AudioLeadIn: 0
PreviewTime: 35904
Countdown: 0
SampleSet: None
StackLeniency: 0.7
Mode: 0
LetterboxInBreaks: 1
WidescreenStoryboard: 1

[Editor]
DistanceSpacing: 1.4
BeatDivisor: 4
GridSize: 4

[Metadata]
Title:Hana Ranman -Flowers-
TitleUnicode:華爛漫 -Flowers-
Artist:TERRA
ArtistUnicode:TERRA
Creator:Scorpiour
Version:Candidate 01 Insane
Source:
Tags:
BeatmapID:296990
BeatmapSetID:102498

[Difficulty]
HPDrainRate:6
CircleSize:4
OverallDifficulty:7
ApproachRate:9
SliderMultiplier:1.6
SliderTickRate:1

[Events]
//Background and Video events
//Break Periods
//Storyboard Layer 0 (Background)
//Storyboard Layer 1 (Fail)
//Storyboard Layer 2 (Pass)
//Storyboard Layer 3 (Foreground)
//Storyboard Sound Samples
//Background Colour Transformations
3,100,0,0,0

[TimingPoints]
-846,375,4,1,0,100,1,0
6654,-100,4,2,1,40,0,0
12654,-100,4,2,1,60,0,0
17904,-100,4,3,1,80,0,0
18654,-100,4,2,1,60,0,0
20904,-100,4,3,1,80,0,0
21654,-100,4,2,1,60,0,0
23904,-100,4,3,1,80,0,0
24654,-100,4,2,1,60,0,0
35904,-100,4,2,1,80,0,1
36279,-80,4,2,1,80,0,1
36654,-66.6666666666667,4,2,1,80,0,1
37029,-100,4,2,1,80,0,1
39654,-80,4,2,1,80,0,1
40029,-66.6666666666667,4,2,1,80,0,1
40779,-100,4,2,1,80,0,1
42654,-80,4,2,1,80,0,1
43029,-66.6666666666667,4,2,1,80,0,1
43779,-100,4,2,1,80,0,1
45654,-80,4,2,1,80,0,1
46029,-66.6666666666667,4,2,1,80,0,1
50154,-100,4,2,1,60,0,0
62154,-100,4,3,1,60,0,0
67779,-100,4,1,1,60,0,0
73029,-100,4,2,1,60,0,0
73779,-100,4,2,1,80,0,1
74154,-80,4,2,1,80,0,1
74529,-66.6666666666667,4,2,1,80,0,1
75279,-100,4,2,1,80,0,1
77154,-80,4,2,1,80,0,1
77529,-66.6666666666667,4,2,1,80,0,1
78279,-100,4,2,1,80,0,1
80154,-80,4,2,1,80,0,1
80529,-66.6666666666667,4,2,1,80,0,1
81279,-100,4,2,1,80,0,1
83154,-80,4,2,1,80,0,1
83529,-66.6666666666667,4,2,1,80,0,1
83904,-57.1428571428571,4,2,1,80,0,1
84279,-100,4,2,1,80,0,1
85779,-100,4,2,1,70,0,1
86154,-133.333333333333,4,2,1,70,0,1
86904,-133.333333333333,4,2,1,70,0,0
90654,-100,4,2,1,70,0,0

[HitObjects]
200,152,6654,1,8,0:0:0:0:
256,304,7029,1,0,0:0:0:0:
344,168,7404,1,8,0:0:0:0:
400,320,7779,1,0,0:0:0:0:
256,304,8154,2,0,P|184:312|104:232,1,160,8|0,0:0|0:0,0:0:0:0:
148,95,8904,2,0,P|288:96|344:176,1,240,8|0,0:0|0:0,0:0:0:0:
400,320,9654,5,8,0:0:0:0:
344,168,10029,1,0,0:0:0:0:
256,304,10404,1,8,0:0:0:0:
200,152,10779,1,0,0:0:0:0:
256,304,11154,2,0,P|336:248|344:184,1,160,8|0,0:0|0:0,0:0:0:0:
200,152,11904,1,8,0:0:0:0:
256,96,12091,1,0,0:0:0:0:
256,96,12185,1,0,0:0:0:0:
256,96,12279,1,0,0:0:0:0:
312,152,12466,1,0,0:0:0:0:
312,152,12560,1,0,0:0:0:0:
312,152,12654,6,0,L|312:240,1,80,8|0,0:0|0:0,0:0:0:0:
352,304,13029,2,0,L|400:336,2,40
272,304,13404,2,0,L|240:328,2,40,8|0|0,0:0|0:0|0:0,0:0:0:0:
448,216,13779,2,0,P|432:136|352:80,1,160,0|8,0:0|0:0,0:0:0:0:
215,154,14341,2,0,P|284:192|376:164,1,160
296,120,14904,2,0,P|304:176|232:264,1,160,8|0,0:0|0:0,0:0:0:0:
112,288,15466,1,0,0:0:0:0:
64,80,15654,6,0,L|144:80,1,80,8|0,0:0|0:0,0:0:0:0:
216,40,16029,2,0,L|256:8,2,40
216,120,16404,2,0,L|256:152,2,40,8|0|0,0:0|0:0|0:0,0:0:0:0:
384,72,16779,2,0,P|400:128|368:224,1,160,0|8,0:0|0:0,0:0:0:0:
312,280,17341,6,0,P|264:312|216:320,2,80
312,280,17904,1,8,0:0:0:0:
296,240,17997,1,0,0:0:0:0:
264,216,18091,1,0,0:0:0:0:
224,208,18185,1,0,0:0:0:0:
184,200,18279,1,0,0:0:0:0:
152,176,18372,1,0,0:0:0:0:
136,144,18466,2,0,L|112:96,1,40
208,48,18654,6,0,P|272:40|296:48,1,80,8|0,0:0|0:0,0:0:0:0:
360,64,19029,2,0,P|424:96|448:120,2,80,0|0|8,0:0|0:0|0:0,0:0:0:0:
432,104,19591,1,0,0:0:0:0:
378,291,19779,2,0,P|392:216|480:180,1,160,0|8,0:0|0:0,0:0:0:0:
460,264,20341,1,0,0:0:0:0:
256,140,20529,6,0,P|204:112|144:120,1,120
116,144,20904,1,8,0:0:0:0:
92,176,20997,1,0,0:0:0:0:
84,216,21091,1,0,0:0:0:0:
92,256,21185,1,0,0:0:0:0:
112,292,21279,1,0,0:0:0:0:
144,312,21372,1,0,0:0:0:0:
184,320,21466,1,0,0:0:0:0:
224,312,21560,1,0,0:0:0:0:
300,256,21654,6,0,P|336:208|384:192,1,80,8|0,0:0|0:0,0:0:0:0:
476,104,22029,2,0,P|460:136|416:164,2,80,0|0|8,0:0|0:0|0:0,0:0:0:0:
300,48,22591,1,0,0:0:0:0:
256,116,22779,2,0,P|240:164|256:204,1,80
300,256,23154,2,0,P|336:292|372:304,2,80,8|0|0,0:0|0:0|0:0,0:0:0:0:
340,188,23716,5,0,0:0:0:0:
408,64,23904,1,8,0:0:0:0:
436,92,23997,1,0,0:0:0:0:
460,124,24091,1,0,0:0:0:0:
476,160,24185,1,0,0:0:0:0:
484,204,24279,1,0,0:0:0:0:
476,244,24372,1,0,0:0:0:0:
460,280,24466,1,0,0:0:0:0:
440,312,24560,1,0,0:0:0:0:
376,256,24654,6,0,P|348:176|264:148,1,160,8|0,0:0|0:0,0:0:0:0:
116,120,25216,1,0,0:0:0:0:
200,132,25404,2,0,P|232:216|324:224,1,160,8|0,0:0|0:0,0:0:0:0:
372,160,25966,1,0,0:0:0:0:
288,144,26154,6,0,P|264:68|168:48,1,160,8|0,0:0|0:0,0:0:0:0:
116,120,26716,1,0,0:0:0:0:
200,132,26904,2,0,P|168:188|224:272,1,160,8|0,0:0|0:0,0:0:0:0:
316,152,27466,1,0,0:0:0:0:
248,196,27654,6,0,P|320:232|384:196,1,160,8|0,0:0|0:0,0:0:0:0:
316,312,28216,1,0,0:0:0:0:
384,268,28404,2,0,P|320:232|248:268,1,160,8|0,0:0|0:0,0:0:0:0:
84,268,28966,1,0,0:0:0:0:
136,124,29154,5,8,0:0:0:0:
164,96,29247,1,0,0:0:0:0:
200,80,29341,1,0,0:0:0:0:
240,72,29435,1,0,0:0:0:0:
280,72,29529,1,0,0:0:0:0:
320,80,29622,1,0,0:0:0:0:
356,100,29716,1,0,0:0:0:0:
384,128,29810,1,0,0:0:0:0:
404,160,29904,2,0,P|424:212|396:320,1,160,8|0,0:0|0:0,0:0:0:0:
404,160,30466,1,0,0:0:0:0:
336,204,30654,6,0,P|232:248|172:216,1,160,8|0,0:0|0:0,0:0:0:0:
128,188,31216,1,0,0:0:0:0:
252,168,31404,2,0,P|272:272|336:300,1,160,8|0,0:0|0:0,0:0:0:0:
388,320,31966,1,0,0:0:0:0:
332,212,32154,6,0,P|384:136|356:72,1,160,8|0,0:0|0:0,0:0:0:0:
384,280,32717,1,0,0:0:0:0:
304,136,32904,2,0,P|244:84|152:84,1,160,8|0,0:0|0:0,0:0:0:0:
324,36,33466,1,0,0:0:0:0:
208,160,33654,2,0,P|168:240|168:320,1,160,8|0,0:0|0:0,0:0:0:0:
256,192,34216,12,0,35716,0:0:0:0:
144,52,35904,6,0,L|264:52,1,120,8|0,0:0|0:0,0:0:0:0:
276,80,36279,2,0,L|112:108,1,150
136,136,36654,2,0,L|324:136,1,180.000006866455,8|0,0:0|0:0,0:0:0:0:
424,148,37029,2,0,L|440:252,1,80
412,76,37404,1,8,0:0:0:0:
448,300,37779,6,0,P|368:324|308:288,1,120
308,284,38154,1,8,0:0:0:0:
284,252,38247,1,0,0:0:0:0:
264,216,38341,1,0,0:0:0:0:
240,184,38435,1,0,0:0:0:0:
216,152,38529,1,0,0:0:0:0:
192,128,38622,1,0,0:0:0:0:
160,104,38716,1,0,0:0:0:0:
124,88,38810,1,0,0:0:0:0:
88,72,38904,2,0,P|144:72|176:56,1,80,8|0,0:0|0:0,0:0:0:0:
424,68,39279,5,0,0:0:0:0:
432,108,39372,2,0,L|452:196,1,80
428,212,39654,1,8,0:0:0:0:
412,180,39747,2,0,L|372:72,1,100
340,72,40029,1,0,0:0:0:0:
348,112,40122,2,0,L|372:244,1,120.000004577637
376,260,40404,1,8,0:0:0:0:
256,320,40779,5,0,0:0:0:0:
180,300,40966,1,0,0:0:0:0:
104,120,41154,1,8,0:0:0:0:
112,160,41247,1,0,0:0:0:0:
132,192,41341,1,0,0:0:0:0:
164,216,41435,1,0,0:0:0:0:
204,228,41529,1,0,0:0:0:0:
284,236,41716,1,0,0:0:0:0:
415,153,41904,2,0,P|396:188|356:208,1,80,8|0,0:0|0:0,0:0:0:0:
256,48,42279,5,0,0:0:0:0:
216,60,42372,2,0,L|128:88,1,80
112,112,42654,1,8,0:0:0:0:
140,112,42747,2,0,L|252:104,1,100
272,124,43029,1,0,0:0:0:0:
244,132,43122,2,0,L|120:172,1,120.000004577637
96,180,43404,1,8,0:0:0:0:
256,332,43779,5,0,0:0:0:0:
332,312,43966,1,0,0:0:0:0:
448,124,44154,1,8,0:0:0:0:
436,160,44247,1,0,0:0:0:0:
412,192,44341,1,0,0:0:0:0:
380,216,44435,1,0,0:0:0:0:
344,232,44529,1,0,0:0:0:0:
264,244,44716,1,0,0:0:0:0:
116,198,44904,2,0,P|156:228|196:236,1,80,8|0,0:0|0:0,0:0:0:0:
256,128,45279,6,0,P|316:136|328:192,1,120
372,164,45654,2,0,P|320:84|260:88,1,150,8|0,0:0|0:0,0:0:0:0:
288,44,46029,2,0,P|380:64|408:160,1,180.000006866455
412,176,46404,1,8,0:0:0:0:
256,192,46779,12,0,50154,0:0:0:0:
84,72,54279,6,0,P|136:56|188:60,1,80
136,132,54654,2,0,P|212:128|244:136,1,80,8|0,0:0|0:0,0:0:0:0:
180,200,55029,2,0,P|260:212|276:220,1,80
337,202,55404,2,0,P|312:152|272:124,1,80,8|0,0:0|0:0,0:0:0:0:
240,76,55779,1,0,0:0:0:0:
320,68,55966,1,0,0:0:0:0:
400,76,56154,2,0,P|460:92|496:116,1,80,8|0,0:0|0:0,0:0:0:0:
474,205,56529,2,0,P|432:160|400:152,1,80
387,310,56904,2,0,P|408:264|392:224,1,80,8|0,0:0|0:0,0:0:0:0:
148,320,57279,6,0,P|112:276|100:228,1,80
176,244,57654,2,0,P|164:172|168:140,1,80,8|0,0:0|0:0,0:0:0:0:
240,192,58029,2,0,P|248:132|264:100,1,80
176,84,58404,2,0,P|216:48|268:44,1,80,8|0,0:0|0:0,0:0:0:0:
320,40,58779,1,0,0:0:0:0:
400,48,58966,1,0,0:0:0:0:
444,116,59154,2,0,P|464:188|464:208,1,80,8|0,0:0|0:0,0:0:0:0:
384,176,59529,2,0,P|388:224|376:268,1,80
403,329,59904,2,0,P|444:304|460:272,1,80,8|0,0:0|0:0,0:0:0:0:
307,276,60279,2,0,P|348:272|392:248,1,80
116,96,62154,6,0,P|116:164|136:192,1,80,8|0,0:0|0:0,0:0:0:0:
188,132,62529,1,0,0:0:0:0:
340,88,62716,1,0,0:0:0:0:
276,136,62904,2,0,P|312:172|324:224,1,80,8|0,0:0|0:0,0:0:0:0:
244,212,63279,1,0,0:0:0:0:
100,284,63466,1,0,0:0:0:0:
172,248,63654,2,0,L|224:220,1,40,8|0,0:0|0:0,0:0:0:0:
244,212,63841,1,0,0:0:0:0:
284,208,63935,1,0,0:0:0:0:
324,220,64029,1,0,0:0:0:0:
396,256,64216,1,0,0:0:0:0:
452,312,64404,2,0,P|472:260|460:212,1,80,8|0,0:0|0:0,0:0:0:0:
408,88,64779,6,0,P|368:52|324:40,1,80
332,124,65154,1,8,0:0:0:0:
172,88,65341,1,0,0:0:0:0:
240,136,65529,2,0,P|232:208|212:240,1,80
164,168,65904,1,8,0:0:0:0:
148,328,66091,1,0,0:0:0:0:
156,248,66279,2,0,P|208:280|252:288,1,80
384,276,66654,1,8,0:0:0:0:
304,288,66841,2,0,L|356:280,1,40
384,276,67029,1,0,0:0:0:0:
416,256,67122,1,0,0:0:0:0:
440,224,67216,1,0,0:0:0:0:
448,144,67404,2,0,P|432:80|408:52,1,80,8|0,0:0|0:0,0:0:0:0:
352,40,67779,5,0,0:0:0:0:
124,120,68154,1,8,0:0:0:0:
204,348,68529,1,0,0:0:0:0:
432,268,68904,1,8,0:0:0:0:
238,80,69279,5,0,0:0:0:0:
164,234,69654,1,8,0:0:0:0:
318,308,70029,1,0,0:0:0:0:
392,154,70404,1,8,0:0:0:0:
201,157,70779,6,0,L|116:119,1,80
241,271,71154,2,0,L|200:353,1,80,8|0,0:0|0:0,0:0:0:0:
355,229,71529,2,0,L|428:265,1,80
315,117,71904,2,0,L|355:37,1,80,8|0,0:0|0:0,0:0:0:0:
278,194,72279,5,0,0:0:0:0:
278,194,72372,1,0,0:0:0:0:
278,194,72466,1,0,0:0:0:0:
278,194,72654,2,0,L|244:100,1,80,8|0,0:0|0:0,0:0:0:0:
136,84,73029,2,0,L|167:178,1,80,0|0,0:0|0:0,0:0:0:0:
176,196,73310,1,0,0:0:0:0:
192,232,73404,1,8,0:0:0:0:
220,260,73497,1,0,0:0:0:0:
256,276,73591,1,0,0:0:0:0:
400,228,73779,5,0,0:0:0:0:
412,188,73873,2,0,L|428:100,1,80
416,72,74154,1,0,0:0:0:0:
400,104,74248,2,0,L|356:212,1,100
336,224,74529,1,0,0:0:0:0:
340,192,74623,2,0,L|364:48,1,120.000004577637
364,40,74904,1,0,0:0:0:0:
176,64,75279,6,0,P|124:104|112:180,1,120
112,196,75654,1,0,0:0:0:0:
124,232,75747,1,0,0:0:0:0:
144,268,75841,1,0,0:0:0:0:
172,296,75935,1,0,0:0:0:0:
208,316,76029,1,0,0:0:0:0:
248,328,76122,1,0,0:0:0:0:
288,328,76216,1,0,0:0:0:0:
328,320,76310,1,0,0:0:0:0:
364,300,76404,2,0,P|408:260|428:220,1,80
256,156,76779,5,0,0:0:0:0:
216,164,76872,2,0,L|132:184,1,80
112,212,77154,1,0,0:0:0:0:
144,212,77247,2,0,L|272:208,1,100
276,232,77529,1,0,0:0:0:0:
248,240,77622,2,0,L|112:276,1,120.000004577637
96,280,77904,1,0,0:0:0:0:
256,336,78279,6,0,P|356:328|384:296,1,120
392,284,78654,1,0,0:0:0:0:
404,248,78747,1,0,0:0:0:0:
408,208,78841,1,0,0:0:0:0:
400,164,78935,1,0,0:0:0:0:
376,132,79029,1,0,0:0:0:0:
348,104,79122,1,0,0:0:0:0:
312,84,79216,1,0,0:0:0:0:
272,76,79310,1,0,0:0:0:0:
232,80,79404,2,0,P|177:93|145:121,1,80
256,336,79779,5,0,0:0:0:0:
292,324,79872,2,0,L|384:296,1,80
392,268,80154,1,0,0:0:0:0:
360,268,80247,2,0,L|256:272,1,100
228,256,80529,1,0,0:0:0:0:
260,244,80622,2,0,L|392:204,1,120.000004577637
408,200,80904,1,0,0:0:0:0:
312,72,81279,6,0,P|256:52|200:64,1,80
92,114,81654,2,0,P|140:72|176:64,1,80
164,148,82029,1,0,0:0:0:0:
164,188,82122,1,0,0:0:0:0:
164,228,82216,1,0,0:0:0:0:
164,268,82310,1,0,0:0:0:0:
188,300,82404,1,0,0:0:0:0:
224,320,82497,2,0,L|272:336,1,40
460,236,82779,6,0,L|460:112,1,120
424,96,83154,2,0,L|412:264,1,150
372,260,83529,2,0,L|372:52,1,180.000006866455
336,68,83904,2,0,L|324:292,1,210.000002002716
296,304,84279,6,0,L|212:332,1,80
144,300,84654,1,0,0:0:0:0:
116,272,84747,1,0,0:0:0:0:
96,236,84841,1,0,0:0:0:0:
92,196,84935,1,0,0:0:0:0:
100,156,85029,1,0,0:0:0:0:
120,120,85122,1,0,0:0:0:0:
152,92,85216,1,0,0:0:0:0:
188,76,85310,1,0,0:0:0:0:
228,76,85404,1,0,0:0:0:0:
264,88,85497,2,0,L|312:108,3,40
336,120,85872,1,0,0:0:0:0:
372,136,85966,1,0,0:0:0:0:
408,152,86060,1,0,0:0:0:0:
444,168,86154,6,0,P|452:244|424:280,2,120.000004577637
256,256,90654,5,0,0:0:0:0:
256,128,91029,1,0,0:0:0:0:
224,320,91404,2,0,L|128:320,1,80
288,64,91779,2,0,L|376:64,1,80
440,192,92154,6,0,P|440:244|416:304,1,80
384,332,92529,1,0,0:0:0:0:
384,332,92622,1,0,0:0:0:0:
384,332,92716,1,0,0:0:0:0:
440,192,93091,6,0,P|436:140|416:96,2,80
360,192,93654,2,0,P|316:220|260:208,1,80
384,40,94029,1,0,0:0:0:0:
384,40,94122,1,0,0:0:0:0:
384,40,94216,1,0,0:0:0:0:
122,164,94591,6,0,P|156:128|204:104,2,80
257,244,95154,2,0,P|236:184|208:168,1,80
176,240,95529,2,0,L|128:256,2,40
256,88,96091,6,0,P|328:108|400:184,1,160
432,236,96654,1,0,0:0:0:0:
432,236,96841,1,0,0:0:0:0:
440,313,97029,2,0,P|444:272|420:224,1,80
364,288,97404,5,0,0:0:0:0:
316,304,97497,1,0,0:0:0:0:
268,304,97591,1,0,0:0:0:0:
232,292,97685,1,0,0:0:0:0:
196,272,97779,1,0,0:0:0:0:
168,244,97872,1,0,0:0:0:0:
148,212,97966,1,0,0:0:0:0:
136,176,98060,1,0,0:0:0:0:
128,136,98154,5,4,0:0:0:0:
256,192,98341,12,0,100404,0:0:0:0:
