osu file format v12

[General]
AudioFilename: 01 -Flowers-.mp3
AudioLeadIn: 0
PreviewTime: 35904
Countdown: 0
SampleSet: None
StackLeniency: 0.7
Mode: 0
LetterboxInBreaks: 1
WidescreenStoryboard: 1

[Editor]
DistanceSpacing: 1.4
BeatDivisor: 4
GridSize: 4

[Metadata]
Title:Hana Ranman -Flowers-
TitleUnicode:華爛漫 -Flowers-
Artist:TERRA
ArtistUnicode:TERRA
Creator:Scorpiour
Version:Candidate 01 Hard
Source:
Tags:
BeatmapID:296989
BeatmapSetID:102498

[Difficulty]
HPDrainRate:5
CircleSize:4
OverallDifficulty:5
ApproachRate:7
SliderMultiplier:1.6
SliderTickRate:1

[Events]
//Background and Video events
//Break Periods
//Storyboard Layer 0 (Background)
//Storyboard Layer 1 (Fail)
//Storyboard Layer 2 (Pass)
//Storyboard Layer 3 (Foreground)
//Storyboard Sound Samples
//Background Colour Transformations
3,100,0,0,0

[TimingPoints]
-846,375,4,2,0,60,1,0
6654,-100,4,2,1,40,0,0
12654,-100,4,2,1,60,0,0
17904,-100,4,3,1,80,0,0
18654,-100,4,2,1,60,0,0
20904,-100,4,3,1,80,0,0
21654,-100,4,2,1,60,0,0
23904,-100,4,3,1,80,0,0
24654,-100,4,2,1,60,0,0
35904,-100,4,2,1,80,0,1
50154,-100,4,2,1,80,0,0
54279,-100,4,2,1,60,0,0
62154,-100,4,3,1,60,0,0
67779,-100,4,1,1,60,0,0
73029,-100,4,2,1,60,0,0
73779,-100,4,2,1,80,0,1
86904,-100,4,2,1,70,0,0

[HitObjects]
256,156,6654,1,0,0:0:0:0:
292,192,7029,1,0,0:0:0:0:
256,228,7404,1,0,0:0:0:0:
220,192,7779,1,0,0:0:0:0:
292,192,8154,2,0,P|368:168|400:88,2,160
220,192,9091,2,0,L|132:192,2,80
364,192,9654,5,0,0:0:0:0:
256,300,10029,1,0,0:0:0:0:
148,192,10404,1,0,0:0:0:0:
256,84,10779,1,0,0:0:0:0:
256,244,11154,2,0,P|276:312|356:348,2,160
340,264,12091,1,0,0:0:0:0:
340,264,12185,1,0,0:0:0:0:
340,264,12279,1,0,0:0:0:0:
400,228,12466,2,0,L|452:200,1,40
400,188,12654,5,0,0:0:0:0:
340,128,13029,2,0,P|380:88|388:36,2,80
308,52,13779,1,0,0:0:0:0:
308,52,13966,2,0,P|208:64|152:112,2,160
308,52,14904,1,0,0:0:0:0:
256,132,15279,1,0,0:0:0:0:
256,252,15654,5,0,0:0:0:0:
352,176,16029,2,0,L|352:264,2,80
424,296,16779,1,0,0:0:0:0:
424,296,16966,2,0,P|352:332|280:296,2,160
448,252,17904,2,0,L|468:216,6,40
488,176,18654,5,0,0:0:0:0:
352,132,19029,2,0,P|392:108|404:72,2,80
264,132,19779,2,0,L|164:132,1,80
304,196,20341,2,0,L|412:196,2,80
264,260,20904,2,0,L|220:260,6,40
264,304,21654,5,0,0:0:0:0:
124,304,22029,2,0,P|80:288|48:240,2,80
156,224,22779,1,0,0:0:0:0:
196,148,22966,2,0,P|240:84|324:68,1,160
396,68,23529,1,0,0:0:0:0:
468,92,23716,1,0,0:0:0:0:
472,172,23904,2,0,L|472:232,6,40
472,252,24654,6,0,P|392:312|324:296,1,160,0|8,0:0|0:0,0:0:0:0:
276,252,25216,1,0,0:0:0:0:
384,232,25404,2,0,P|384:152|312:108,1,160,0|8,0:0|0:0,0:0:0:0:
312,188,25966,1,0,0:0:0:0:
232,112,26154,6,0,P|168:152|172:240,1,160,0|8,0:0|0:0,0:0:0:0:
236,192,26716,1,0,0:0:0:0:
236,272,26904,2,0,P|148:308|92:264,1,160,0|8,0:0|0:0,0:0:0:0:
52,212,27466,1,0,0:0:0:0:
124,176,27654,6,0,L|280:108,1,160,0|8,0:0|0:0,0:0:0:0:
168,80,28216,1,0,0:0:0:0:
224,212,28404,2,0,L|296:376,1,160,0|8,0:0|0:0,0:0:0:0:
188,304,28966,1,0,0:0:0:0:
324,248,29154,6,0,L|408:208,1,80
328,172,29529,2,0,L|412:132,1,80,8|0,0:0|0:0,0:0:0:0:
332,96,29904,2,2,P|364:208|336:328,1,240
284,208,30654,6,0,P|256:136|184:104,1,160,0|8,0:0|0:0,0:0:0:0:
196,188,31216,1,0,0:0:0:0:
196,188,31404,2,0,P|160:264|188:360,1,160,0|8,0:0|0:0,0:0:0:0:
240,272,31966,1,0,0:0:0:0:
240,272,32154,6,0,P|136:264|88:228,1,160,0|8,0:0|0:0,0:0:0:0:
48,168,32716,1,0,0:0:0:0:
200,116,33091,1,0,0:0:0:0:
200,116,33185,1,0,0:0:0:0:
200,116,33279,1,0,0:0:0:0:
280,116,33466,1,0,0:0:0:0:
280,116,33654,2,0,P|340:160|364:248,1,160
256,192,34216,12,0,35716,0:0:0:0:
256,132,35904,6,0,L|344:120,1,80,8|0,0:0|0:0,0:0:0:0:
304,196,36279,2,0,L|220:208,1,80
272,272,36654,2,0,L|360:260,1,80,8|0,0:0|0:0,0:0:0:0:
432,248,37029,2,0,P|472:208|476:164,2,80,0|0|8,0:0|0:0|0:0,0:0:0:0:
272,272,37779,6,0,P|208:292|128:284,1,120
116,280,38154,1,8,0:0:0:0:
32,192,38435,1,0,0:0:0:0:
32,192,38529,1,0,0:0:0:0:
68,120,38716,2,0,P|104:84|152:72,1,80,0|8,0:0|0:0,0:0:0:0:
256,304,39279,6,0,P|192:292|164:256,2,80,0|0|8,0:0|0:0|0:0,0:0:0:0:
336,292,39841,1,0,0:0:0:0:
412,268,40029,2,0,P|452:240|468:208,2,80,0|0|8,0:0|0:0|0:0,0:0:0:0:
336,292,40591,1,0,0:0:0:0:
392,192,40779,6,0,L|436:112,1,80
352,112,41154,1,8,0:0:0:0:
248,48,41435,1,0,0:0:0:0:
248,48,41529,1,0,0:0:0:0:
128,160,41716,2,0,L|200:92,1,80,0|8,0:0|0:0,0:0:0:0:
92,236,42279,6,0,P|56:200|44:152,2,80,0|0|8,0:0|0:0|0:0,0:0:0:0:
160,276,42841,1,0,0:0:0:0:
232,312,43029,2,0,P|292:316|336:292,2,80,0|0|8,0:0|0:0|0:0,0:0:0:0:
160,276,43591,1,0,0:0:0:0:
196,204,43779,6,0,P|244:164|276:164,1,80
264,240,44154,1,8,0:0:0:0:
456,240,44435,1,0,0:0:0:0:
456,240,44529,1,0,0:0:0:0:
444,160,44716,2,0,P|420:104|392:88,1,80,0|8,0:0|0:0,0:0:0:0:
256,44,45279,5,0,0:0:0:0:
176,56,45466,2,0,P|128:80|100:124,1,80,0|8,0:0|0:0,0:0:0:0:
72,168,45841,1,0,0:0:0:0:
72,168,46029,1,0,0:0:0:0:
176,56,46216,2,0,P|240:56|276:88,1,80,0|8,0:0|0:0,0:0:0:0:
208,128,46591,1,0,0:0:0:0:
180,200,46779,6,0,L|224:296,1,80
256,340,47154,1,8,0:0:0:0:
372,340,47435,1,0,0:0:0:0:
372,340,47529,1,0,0:0:0:0:
400,264,47716,1,0,0:0:0:0:
424,188,47904,2,0,L|456:104,1,80,8|0,0:0|0:0,0:0:0:0:
328,88,48279,2,0,B|180:196|84:244|176:340|256:436|336:340|428:244|332:196|184:88,1,720
256,48,50154,1,4,0:0:0:0:
172,60,54279,6,0,L|92:60,2,80,0|0|8,0:0|0:0|0:0,0:0:0:0:
352,136,55029,2,0,L|440:136,2,80,0|0|8,0:0|0:0|0:0,0:0:0:0:
200,192,55779,2,0,L|112:192,2,80,0|0|8,0:0|0:0|0:0,0:0:0:0:
260,248,56341,2,0,L|348:248,2,80
184,272,56904,2,0,L|104:272,1,80,8|0,0:0|0:0,0:0:0:0:
204,124,57279,6,0,L|204:28,2,80,0|0|8,0:0|0:0|0:0,0:0:0:0:
336,256,58029,2,0,L|336:340,2,80,0|0|8,0:0|0:0|0:0,0:0:0:0:
440,172,58779,2,0,L|440:76,2,80,0|0|8,0:0|0:0|0:0,0:0:0:0:
376,220,59341,2,0,L|376:304,2,80
340,148,59904,2,0,L|340:64,1,80,8|0,0:0|0:0,0:0:0:0:
272,192,60279,2,0,L|272:288,1,80
184,192,62154,6,0,P|152:92|96:60,1,160,8|0,0:0|0:0,0:0:0:0:
100,192,62716,1,0,0:0:0:0:
100,272,62904,2,0,P|148:312|188:316,1,80,8|0,0:0|0:0,0:0:0:0:
244,320,63279,6,0,L|300:320,2,40
324,320,63654,2,0,L|376:320,2,40,8|0|0,0:0|0:0|0:0,0:0:0:0:
404,320,64029,2,0,L|444:320,2,40
320,240,64404,2,0,P|280:200|276:144,1,80,8|0,0:0|0:0,0:0:0:0:
352,168,64779,6,0,P|384:128|364:20,1,160,0|8,0:0|0:0,0:0:0:0:
276,136,65341,1,0,0:0:0:0:
204,104,65529,2,0,P|140:160|48:168,1,160,0|8,0:0|0:0,0:0:0:0:
112,88,66091,1,0,0:0:0:0:
176,228,66279,6,0,L|196:280,2,40,0|0|0,0:0|0:0|0:0,0:0:0:0:
208,304,66654,2,0,L|224:340,2,40,8|0|0,0:0|0:0|0:0,0:0:0:0:
280,340,67029,2,0,L|328:340,2,40,0|0|0,0:0|0:0|0:0,0:0:0:0:
396,272,67404,2,0,P|368:336|332:344,1,80,8|0,0:0|0:0,0:0:0:0:
396,192,67779,6,0,P|384:108|308:44,1,160,0|8,0:0|0:0,0:0:0:0:
116,192,68529,2,0,P|128:276|204:340,1,160,0|8,0:0|0:0,0:0:0:0:
256,192,69279,2,0,L|256:112,1,80
256,192,69654,2,0,L|176:192,1,80,8|0,0:0|0:0,0:0:0:0:
256,192,70029,2,0,L|256:276,1,80
256,192,70404,2,0,L|348:192,1,80,8|0,0:0|0:0,0:0:0:0:
256,344,70779,6,0,P|356:316|404:272,1,160,0|8,0:0|0:0,0:0:0:0:
256,40,71529,2,0,P|160:68|108:112,1,160,0|8,0:0|0:0,0:0:0:0:
188,192,72279,2,0,P|132:240|104:244,2,80,0|0|8,0:0|0:0|0:0,0:0:0:0:
188,192,72841,2,0,P|144:144|108:144,2,80
260,192,73404,2,0,P|328:180|364:152,1,80,8|0,0:0|0:0,0:0:0:0:
440,52,73779,6,0,P|472:76|488:116,2,80,0|0|8,0:0|0:0|0:0,0:0:0:0:
364,32,74342,1,0,0:0:0:0:
284,28,74529,2,0,P|240:44|216:84,2,80,0|0|8,0:0|0:0|0:0,0:0:0:0:
364,32,75091,1,0,0:0:0:0:
364,32,75279,6,0,L|344:180,1,120
364,188,75654,2,0,L|352:272,1,80,8|0,0:0|0:0,0:0:0:0:
432,248,76029,1,0,0:0:0:0:
280,232,76216,2,2,P|192:264|108:256,1,160
72,204,76779,6,0,P|76:156|128:116,2,80,0|0|8,0:0|0:0|0:0,0:0:0:0:
152,188,77341,1,0,0:0:0:0:
232,172,77529,2,0,P|196:120|152:112,2,80,0|0|8,0:0|0:0|0:0,0:0:0:0:
152,188,78091,1,0,0:0:0:0:
176,264,78279,6,0,P|204:316|276:328,1,120
300,324,78654,2,0,L|384:296,1,80,8|0,0:0|0:0,0:0:0:0:
448,336,79029,1,0,0:0:0:0:
412,224,79216,2,2,P|396:144|428:56,1,160
340,52,79779,6,0,P|276:40|208:112,1,160,0|8,0:0|0:0,0:0:0:0:
104,220,80529,2,0,P|52:152|68:68,1,160,0|8,0:0|0:0,0:0:0:0:
172,196,81279,2,0,L|256:164,1,80
392,112,81654,2,0,L|300:148,1,80,8|0,0:0|0:0,0:0:0:0:
304,212,82029,2,0,L|336:296,2,80,0|0|8,0:0|0:0|0:0,0:0:0:0:
256,104,82779,6,0,P|212:56|116:72,1,160,0|8,0:0|0:0,0:0:0:0:
176,128,83341,1,0,0:0:0:0:
256,104,83529,2,0,P|300:56|396:76,1,160,0|8,0:0|0:0,0:0:0:0:
336,128,84091,1,0,0:0:0:0:
256,192,84279,12,0,86904,0:0:0:0:
256,112,90654,6,0,L|256:272,1,160,8|0,0:0|0:0,0:0:0:0:
172,192,91404,2,0,L|352:192,1,160,8|0,0:0|0:0,0:0:0:0:
256,112,92154,6,0,P|312:76|360:80,1,80,8|0,0:0|0:0,0:0:0:0:
332,156,92529,2,0,P|368:216|356:320,1,160,0|8,0:0|0:0,0:0:0:0:
256,196,93091,2,0,P|216:224|152:216,2,80
192,148,93654,1,8,0:0:0:0:
192,148,93841,2,0,L|128:68,2,80
256,196,94404,1,8,0:0:0:0:
324,236,94591,6,0,P|388:264|412:264,2,80
384,184,95154,2,0,P|448:116|452:44,1,160,8|0,0:0|0:0,0:0:0:0:
320,140,95904,1,8,0:0:0:0:
320,140,96091,2,0,P|360:160|392:196,2,80
240,128,96654,2,0,P|176:144|44:344,2,320,8|0|4,0:0|0:0|0:0,0:0:0:0:
