osu file format v12

[General]
AudioFilename: Hana Ranman -Flowers- (2nd EDITION).ogg
AudioLeadIn: 1500
PreviewTime: 37510
Countdown: 0
SampleSet: Normal
StackLeniency: 0.4
Mode: 1
LetterboxInBreaks: 1
WidescreenStoryboard: 1

[Editor]
DistanceSpacing: 0.8
BeatDivisor: 4
GridSize: 16

[Metadata]
Title:Hana Ranman -Flowers- (2nd Edition .Ver)
TitleUnicode:花爛漫 -Flowers- (2nd EDITION)
Artist:TERRA
ArtistUnicode:TERRA
Creator:[ Lost ]
Version:Sold's Oni
Source:Reflec Beat
Tags:Reflec Beat Nichiyouki kantokun P_A_N PAN -_N_a_n_a_k_a_- Nanaka Soldsaga Kung SoldsagaKung Betsuto P_KunG PKung
BeatmapID:334441
BeatmapSetID:131600

[Difficulty]
HPDrainRate:5
CircleSize:4
OverallDifficulty:5
ApproachRate:5
SliderMultiplier:1.4
SliderTickRate:2

[Events]
//Background and Video events
0,0,"bg.png",0,0
//Break Periods
//Storyboard Layer 0 (Background)
//Storyboard Layer 1 (Fail)
//Storyboard Layer 2 (Pass)
//Storyboard Layer 3 (Foreground)
//Storyboard Sound Samples
//Background Colour Transformations
3,100,0,0,0

[TimingPoints]
-740,375,4,1,0,100,1,0
14260,-100,4,1,0,100,0,1
14353,-100,4,1,0,100,0,0
38260,-100,4,1,0,100,0,1
50260,-100,4,1,0,100,0,0
81760,-100,4,1,0,100,0,1
93666,-100,4,1,0,100,0,0
93666,-100,4,1,0,100,0,0
93760,-100,4,1,0,100,0,1
105760,-100,4,2,0,100,0,0
108009,-100,4,2,0,100,0,1
108103,-100,4,2,0,100,0,0

[Colours]
Combo1 : 128,255,255
Combo2 : 255,128,255
Combo3 : 170,170,255

[HitObjects]
256,192,385,1,0,0:0:0:0:
256,192,572,1,8,0:0:0:0:
256,192,760,1,0,0:0:0:0:
256,192,1135,1,0,0:0:0:0:
256,192,1510,1,8,0:0:0:0:
256,192,1885,1,8,0:0:0:0:
256,192,2072,1,8,0:0:0:0:
256,192,2260,1,0,0:0:0:0:
256,192,2635,1,0,0:0:0:0:
256,192,3010,1,8,0:0:0:0:
256,192,3291,1,0,0:0:0:0:
256,192,3385,1,8,0:0:0:0:
256,192,3572,1,8,0:0:0:0:
256,192,3760,1,0,0:0:0:0:
256,192,4135,1,8,0:0:0:0:
256,192,4322,1,0,0:0:0:0:
256,192,4510,1,0,0:0:0:0:
256,192,4885,1,8,0:0:0:0:
256,192,5260,1,0,0:0:0:0:
256,192,5635,1,8,0:0:0:0:
256,192,5822,1,0,0:0:0:0:
256,192,5916,1,0,0:0:0:0:
256,192,6010,1,8,0:0:0:0:
256,192,6385,1,8,0:0:0:0:
256,192,6760,1,8,0:0:0:0:
256,192,7135,1,0,0:0:0:0:
256,192,7228,1,0,0:0:0:0:
256,192,7322,1,8,0:0:0:0:
256,192,7416,1,8,0:0:0:0:
256,192,7510,1,0,0:0:0:0:
256,192,7697,1,0,0:0:0:0:
256,192,7791,1,0,0:0:0:0:
256,192,7885,1,8,0:0:0:0:
256,192,8072,1,8,0:0:0:0:
256,192,8166,1,8,0:0:0:0:
256,192,8260,1,0,0:0:0:0:
256,192,8447,1,0,0:0:0:0:
256,192,8635,1,8,0:0:0:0:
256,192,8822,1,0,0:0:0:0:
256,192,8916,1,0,0:0:0:0:
256,192,9010,1,0,0:0:0:0:
256,192,9197,1,0,0:0:0:0:
256,192,9385,1,8,0:0:0:0:
256,192,9760,1,0,0:0:0:0:
256,192,9947,1,0,0:0:0:0:
256,192,10135,1,8,0:0:0:0:
256,192,10322,1,0,0:0:0:0:
256,192,10416,1,0,0:0:0:0:
256,192,10510,1,8,0:0:0:0:
256,192,10697,1,0,0:0:0:0:
256,192,10885,1,8,0:0:0:0:
256,192,11260,1,0,0:0:0:0:
256,192,11447,1,0,0:0:0:0:
256,192,11635,1,8,0:0:0:0:
256,192,11822,1,0,0:0:0:0:
256,192,11916,1,0,0:0:0:0:
256,192,12010,1,8,0:0:0:0:
256,192,12197,1,0,0:0:0:0:
256,192,12385,1,8,0:0:0:0:
256,192,12760,1,0,0:0:0:0:
256,192,13135,1,0,0:0:0:0:
256,192,13229,1,0,0:0:0:0:
256,192,13322,1,8,0:0:0:0:
256,192,13510,1,0,0:0:0:0:
256,192,13603,1,8,0:0:0:0:
256,192,13791,1,0,0:0:0:0:
256,192,13885,1,8,0:0:0:0:
256,192,14072,1,8,0:0:0:0:
256,192,14260,1,4,0:0:0:0:
256,192,14447,1,0,0:0:0:0:
256,192,14541,1,0,0:0:0:0:
256,192,14635,1,8,0:0:0:0:
256,192,14822,1,8,0:0:0:0:
256,192,15010,1,0,0:0:0:0:
256,192,15385,1,8,0:0:0:0:
256,192,15572,1,8,0:0:0:0:
256,192,15666,1,8,0:0:0:0:
256,192,15760,1,0,0:0:0:0:
256,192,15947,1,0,0:0:0:0:
256,192,16135,1,8,0:0:0:0:
256,192,16322,1,0,0:0:0:0:
256,192,16416,1,0,0:0:0:0:
256,192,16510,1,8,0:0:0:0:
256,192,16791,1,0,0:0:0:0:
256,192,16885,1,8,0:0:0:0:
256,192,17072,1,8,0:0:0:0:
256,192,17260,1,0,0:0:0:0:
256,192,17447,1,0,0:0:0:0:
256,192,17541,1,0,0:0:0:0:
256,192,17635,1,8,0:0:0:0:
256,192,17822,1,8,0:0:0:0:
256,192,18010,1,0,0:0:0:0:
256,192,18291,1,0,0:0:0:0:
256,192,18385,1,8,0:0:0:0:
256,192,18572,1,0,0:0:0:0:
256,192,18760,1,0,0:0:0:0:
256,192,18947,1,0,0:0:0:0:
256,192,19041,1,0,0:0:0:0:
256,192,19135,1,8,0:0:0:0:
256,192,19322,1,0,0:0:0:0:
256,192,19510,1,0,0:0:0:0:
256,192,19603,1,8,0:0:0:0:
256,192,19791,1,0,0:0:0:0:
256,192,19885,1,8,0:0:0:0:
256,192,20072,1,8,0:0:0:0:
256,192,20166,1,8,0:0:0:0:
256,192,20260,1,0,0:0:0:0:
256,192,20447,1,0,0:0:0:0:
256,192,20635,1,8,0:0:0:0:
256,192,20822,1,8,0:0:0:0:
256,192,20916,1,8,0:0:0:0:
256,192,21010,1,0,0:0:0:0:
256,192,21385,1,8,0:0:0:0:
256,192,21572,1,8,0:0:0:0:
256,192,21666,1,8,0:0:0:0:
256,192,21760,1,0,0:0:0:0:
256,192,21947,1,0,0:0:0:0:
256,192,22135,1,8,0:0:0:0:
256,192,22322,1,8,0:0:0:0:
256,192,22416,1,8,0:0:0:0:
256,192,22510,1,0,0:0:0:0:
256,192,22697,1,8,0:0:0:0:
256,192,22885,1,0,0:0:0:0:
256,192,22978,1,0,0:0:0:0:
256,192,23072,1,8,0:0:0:0:
256,192,23166,1,8,0:0:0:0:
256,192,23260,1,0,0:0:0:0:
256,192,23447,1,0,0:0:0:0:
256,192,23635,1,8,0:0:0:0:
256,192,23822,1,8,0:0:0:0:
256,192,23916,1,8,0:0:0:0:
256,192,24010,1,0,0:0:0:0:
256,192,24385,1,8,0:0:0:0:
256,192,24572,1,0,0:0:0:0:
256,192,24947,1,0,0:0:0:0:
256,192,25135,1,0,0:0:0:0:
256,192,25322,1,8,0:0:0:0:
256,192,25510,1,0,0:0:0:0:
256,192,25603,1,8,0:0:0:0:
256,192,25791,1,0,0:0:0:0:
256,192,25885,1,8,0:0:0:0:
256,192,26072,1,8,0:0:0:0:
256,192,26166,1,8,0:0:0:0:
256,192,26260,1,0,0:0:0:0:
256,192,26447,1,0,0:0:0:0:
256,192,26635,1,8,0:0:0:0:
256,192,27010,1,0,0:0:0:0:
256,192,27197,1,0,0:0:0:0:
256,192,27385,1,8,0:0:0:0:
256,192,27760,1,0,0:0:0:0:
256,192,27947,1,0,0:0:0:0:
256,192,28135,1,8,0:0:0:0:
256,192,28510,1,0,0:0:0:0:
256,192,28697,1,0,0:0:0:0:
256,192,28885,1,8,0:0:0:0:
256,192,29072,1,8,0:0:0:0:
256,192,29166,1,8,0:0:0:0:
256,192,29260,1,0,0:0:0:0:
256,192,29447,1,0,0:0:0:0:
256,192,29635,1,8,0:0:0:0:
256,192,30010,1,0,0:0:0:0:
256,192,30197,1,0,0:0:0:0:
256,192,30385,1,8,0:0:0:0:
256,192,30760,1,0,0:0:0:0:
256,192,30947,1,0,0:0:0:0:
256,192,31135,1,8,0:0:0:0:
256,192,31322,1,0,0:0:0:0:
256,192,31510,1,0,0:0:0:0:
256,192,31603,1,8,0:0:0:0:
256,192,31791,1,0,0:0:0:0:
256,192,31885,1,8,0:0:0:0:
256,192,32072,1,8,0:0:0:0:
256,192,32166,1,8,0:0:0:0:
256,192,32260,1,0,0:0:0:0:
256,192,32447,1,0,0:0:0:0:
256,192,32635,1,8,0:0:0:0:
256,192,33010,1,0,0:0:0:0:
256,192,33385,1,8,0:0:0:0:
256,192,33572,1,8,0:0:0:0:
256,192,33760,1,0,0:0:0:0:
256,192,34135,1,8,0:0:0:0:
256,192,34322,1,0,0:0:0:0:
256,192,34697,1,0,0:0:0:0:
256,192,34885,1,8,0:0:0:0:
256,192,35072,1,8,0:0:0:0:
256,192,35166,1,8,0:0:0:0:
256,192,35260,1,0,0:0:0:0:
256,192,35635,1,8,0:0:0:0:
256,192,35822,1,0,0:0:0:0:
256,192,35916,1,8,0:0:0:0:
256,192,36010,1,0,0:0:0:0:
256,192,36385,1,8,0:0:0:0:
256,192,36572,1,8,0:0:0:0:
256,192,36666,1,8,0:0:0:0:
256,192,36760,1,0,0:0:0:0:
256,192,37135,1,4,0:0:0:0:
256,192,37322,1,4,0:0:0:0:
256,192,37697,1,0,0:0:0:0:
256,192,37791,1,0,0:0:0:0:
256,192,37885,1,8,0:0:0:0:
256,192,38072,1,8,0:0:0:0:
256,192,38260,1,4,0:0:0:0:
256,192,38541,1,0,0:0:0:0:
256,192,38635,1,8,0:0:0:0:
256,192,38822,1,8,0:0:0:0:
256,192,39010,1,0,0:0:0:0:
256,192,39291,1,0,0:0:0:0:
256,192,39385,1,8,0:0:0:0:
256,192,39572,1,0,0:0:0:0:
256,192,39760,1,0,0:0:0:0:
256,192,39947,1,0,0:0:0:0:
256,192,40041,1,0,0:0:0:0:
256,192,40135,1,8,0:0:0:0:
256,192,40322,1,8,0:0:0:0:
256,192,40510,1,0,0:0:0:0:
256,192,40791,1,0,0:0:0:0:
256,192,40885,1,8,0:0:0:0:
256,192,41072,1,8,0:0:0:0:
256,192,41260,1,0,0:0:0:0:
256,192,41541,1,0,0:0:0:0:
256,192,41635,1,8,0:0:0:0:
256,192,41822,1,8,0:0:0:0:
256,192,42010,1,0,0:0:0:0:
256,192,42291,1,0,0:0:0:0:
256,192,42385,1,8,0:0:0:0:
256,192,42572,1,8,0:0:0:0:
256,192,42760,1,0,0:0:0:0:
256,192,42947,1,0,0:0:0:0:
256,192,43041,1,0,0:0:0:0:
256,192,43135,1,8,0:0:0:0:
256,192,43322,1,8,0:0:0:0:
256,192,43510,1,0,0:0:0:0:
256,192,43791,1,0,0:0:0:0:
256,192,43885,1,0,0:0:0:0:
256,192,44072,1,8,0:0:0:0:
256,192,44260,1,0,0:0:0:0:
256,192,44541,1,0,0:0:0:0:
256,192,44635,1,8,0:0:0:0:
256,192,44822,1,8,0:0:0:0:
256,192,45010,1,0,0:0:0:0:
256,192,45385,1,0,0:0:0:0:
256,192,45572,1,0,0:0:0:0:
256,192,45760,1,8,0:0:0:0:
256,192,46041,1,0,0:0:0:0:
256,192,46135,1,8,0:0:0:0:
256,192,46322,1,8,0:0:0:0:
256,192,46510,1,0,0:0:0:0:
256,192,46791,1,0,0:0:0:0:
256,192,46885,1,8,0:0:0:0:
256,192,47072,1,8,0:0:0:0:
256,192,47260,1,0,0:0:0:0:
256,192,47541,1,0,0:0:0:0:
256,192,47635,1,8,0:0:0:0:
256,192,47822,1,8,0:0:0:0:
256,192,48010,1,0,0:0:0:0:
256,192,48385,1,0,0:0:0:0:
256,192,48572,1,0,0:0:0:0:
256,192,48760,1,8,0:0:0:0:
256,192,49041,1,0,0:0:0:0:
256,192,49135,1,8,0:0:0:0:
256,192,49322,1,8,0:0:0:0:
256,192,49510,1,0,0:0:0:0:
256,192,49697,1,0,0:0:0:0:
256,192,49791,1,0,0:0:0:0:
256,192,49885,1,8,0:0:0:0:
256,192,50072,1,8,0:0:0:0:
256,192,50260,2,0,L|384:96,7,140
256,192,53260,1,4,0:0:0:0:
256,192,54010,1,4,0:0:0:0:
256,192,54760,1,4,0:0:0:0:
256,192,55135,1,4,0:0:0:0:
256,192,55510,1,0,0:0:0:0:
256,192,55697,1,0,0:0:0:0:
256,192,55885,1,8,0:0:0:0:
256,192,56260,1,4,0:0:0:0:
256,192,57010,1,4,0:0:0:0:
256,192,57666,1,0,0:0:0:0:
256,192,57760,1,8,0:0:0:0:
256,192,58135,1,8,0:0:0:0:
256,192,58510,1,0,0:0:0:0:
256,192,58885,1,0,0:0:0:0:
256,192,59072,1,0,0:0:0:0:
256,192,59166,1,0,0:0:0:0:
256,192,59260,1,8,0:0:0:0:
256,192,60010,1,8,0:0:0:0:
256,192,60385,1,8,0:0:0:0:
256,192,60572,1,8,0:0:0:0:
256,192,60760,5,0,0:0:0:0:
256,192,61135,1,0,0:0:0:0:
256,192,61510,1,0,0:0:0:0:
256,192,61697,1,0,0:0:0:0:
256,192,61885,5,8,0:0:0:0:
256,192,62072,1,8,0:0:0:0:
256,192,62260,1,0,0:0:0:0:
256,192,62635,1,0,0:0:0:0:
256,192,62822,1,0,0:0:0:0:
256,192,63010,1,8,0:0:0:0:
256,192,63385,1,0,0:0:0:0:
256,192,63572,1,0,0:0:0:0:
256,192,63760,1,8,0:0:0:0:
256,192,63947,1,0,0:0:0:0:
256,192,64041,1,0,0:0:0:0:
256,192,64135,1,8,0:0:0:0:
256,192,64322,1,8,0:0:0:0:
256,192,64510,1,0,0:0:0:0:
256,192,64885,1,0,0:0:0:0:
256,192,65072,1,0,0:0:0:0:
256,192,65166,1,0,0:0:0:0:
256,192,65260,1,8,0:0:0:0:
256,192,65635,1,0,0:0:0:0:
256,192,65822,1,0,0:0:0:0:
256,192,65916,1,0,0:0:0:0:
256,192,66010,1,8,0:0:0:0:
256,192,66385,1,0,0:0:0:0:
256,192,66572,1,8,0:0:0:0:
256,192,66666,1,8,0:0:0:0:
256,192,66760,1,0,0:0:0:0:
256,192,67041,1,0,0:0:0:0:
256,192,67135,1,8,0:0:0:0:
256,192,67322,1,0,0:0:0:0:
256,192,67510,1,0,0:0:0:0:
256,192,67697,1,8,0:0:0:0:
256,192,67885,1,0,0:0:0:0:
256,192,68260,1,4,0:0:0:0:
256,192,69385,1,8,0:0:0:0:
256,192,69572,1,8,0:0:0:0:
256,192,69760,1,0,0:0:0:0:
256,192,70135,1,8,0:0:0:0:
256,192,70322,1,8,0:0:0:0:
256,192,70510,1,0,0:0:0:0:
256,192,70885,1,0,0:0:0:0:
256,192,71072,1,0,0:0:0:0:
256,192,71260,1,8,0:0:0:0:
256,192,71541,1,0,0:0:0:0:
256,192,71635,1,8,0:0:0:0:
256,192,71822,1,8,0:0:0:0:
256,192,72010,1,0,0:0:0:0:
256,192,72385,1,0,0:0:0:0:
256,192,72572,1,0,0:0:0:0:
256,192,72760,1,8,0:0:0:0:
256,192,73135,1,8,0:0:0:0:
256,192,73322,1,8,0:0:0:0:
256,192,73510,1,0,0:0:0:0:
256,192,73885,1,0,0:0:0:0:
256,192,74072,1,0,0:0:0:0:
256,192,74260,1,8,0:0:0:0:
256,192,74541,1,0,0:0:0:0:
256,192,74635,1,8,0:0:0:0:
256,192,74822,1,8,0:0:0:0:
256,192,75010,1,0,0:0:0:0:
256,192,75385,1,0,0:0:0:0:
256,192,75572,1,0,0:0:0:0:
256,192,75760,1,8,0:0:0:0:
256,192,76041,1,0,0:0:0:0:
256,192,76135,1,8,0:0:0:0:
256,192,76322,1,8,0:0:0:0:
256,192,76510,1,0,0:0:0:0:
256,192,76885,1,0,0:0:0:0:
256,192,77072,1,0,0:0:0:0:
256,192,77166,1,0,0:0:0:0:
256,192,77260,1,8,0:0:0:0:
256,192,77447,1,0,0:0:0:0:
256,192,77541,1,0,0:0:0:0:
256,192,77635,1,8,0:0:0:0:
256,192,77728,1,8,0:0:0:0:
256,192,77822,1,0,0:0:0:0:
256,192,78010,1,8,0:0:0:0:
256,192,78385,1,0,0:0:0:0:
256,192,78572,1,0,0:0:0:0:
256,192,78760,1,8,0:0:0:0:
256,192,78947,1,0,0:0:0:0:
256,192,79041,1,0,0:0:0:0:
256,192,79135,1,8,0:0:0:0:
256,192,79322,1,8,0:0:0:0:
256,192,79510,1,0,0:0:0:0:
256,192,79697,1,0,0:0:0:0:
256,192,79791,1,0,0:0:0:0:
256,192,79885,1,8,0:0:0:0:
256,192,80072,1,8,0:0:0:0:
256,192,80260,1,4,0:0:0:0:
256,192,80635,1,4,0:0:0:0:
256,192,81010,1,4,0:0:0:0:
256,192,81385,1,4,0:0:0:0:
256,192,81572,1,0,0:0:0:0:
256,192,81666,1,0,0:0:0:0:
256,192,81760,1,8,0:0:0:0:
256,192,82041,1,0,0:0:0:0:
256,192,82135,1,8,0:0:0:0:
256,192,82322,1,8,0:0:0:0:
256,192,82510,1,0,0:0:0:0:
256,192,82791,1,0,0:0:0:0:
256,192,82885,1,8,0:0:0:0:
256,192,83072,1,8,0:0:0:0:
256,192,83260,1,0,0:0:0:0:
256,192,83447,1,0,0:0:0:0:
256,192,83541,1,0,0:0:0:0:
256,192,83635,1,8,0:0:0:0:
256,192,83822,1,8,0:0:0:0:
256,192,84010,1,0,0:0:0:0:
256,192,84291,1,0,0:0:0:0:
256,192,84385,1,0,0:0:0:0:
256,192,84572,1,8,0:0:0:0:
256,192,84760,1,0,0:0:0:0:
256,192,85041,1,0,0:0:0:0:
256,192,85135,1,8,0:0:0:0:
256,192,85322,1,8,0:0:0:0:
256,192,85510,1,0,0:0:0:0:
256,192,85885,1,0,0:0:0:0:
256,192,86072,1,0,0:0:0:0:
256,192,86260,1,8,0:0:0:0:
256,192,86447,1,0,0:0:0:0:
256,192,86541,1,0,0:0:0:0:
256,192,86635,1,8,0:0:0:0:
256,192,86822,1,8,0:0:0:0:
256,192,87010,1,0,0:0:0:0:
256,192,87291,1,0,0:0:0:0:
256,192,87385,1,0,0:0:0:0:
256,192,87572,1,8,0:0:0:0:
256,192,87760,1,0,0:0:0:0:
256,192,88041,1,0,0:0:0:0:
256,192,88135,1,8,0:0:0:0:
256,192,88322,1,8,0:0:0:0:
256,192,88510,1,0,0:0:0:0:
256,192,88885,1,0,0:0:0:0:
256,192,89072,1,0,0:0:0:0:
256,192,89260,1,8,0:0:0:0:
256,192,89447,1,0,0:0:0:0:
256,192,89541,1,0,0:0:0:0:
256,192,89635,1,8,0:0:0:0:
256,192,89822,1,8,0:0:0:0:
256,192,90010,1,0,0:0:0:0:
256,192,90291,1,0,0:0:0:0:
256,192,90385,1,0,0:0:0:0:
256,192,90572,1,8,0:0:0:0:
256,192,90760,1,0,0:0:0:0:
256,192,91135,1,0,0:0:0:0:
256,192,91322,1,0,0:0:0:0:
256,192,91416,1,0,0:0:0:0:
256,192,91510,1,8,0:0:0:0:
256,192,91885,1,0,0:0:0:0:
256,192,92072,1,0,0:0:0:0:
256,192,92260,1,8,0:0:0:0:
256,192,92541,1,0,0:0:0:0:
256,192,92634,1,8,0:0:0:0:
256,192,92822,1,8,0:0:0:0:
256,192,93009,1,0,0:0:0:0:
256,192,93197,1,0,0:0:0:0:
256,192,93291,1,0,0:0:0:0:
256,192,93385,1,8,0:0:0:0:
256,192,93572,1,8,0:0:0:0:
256,192,93760,1,0,0:0:0:0:
256,192,94135,1,8,0:0:0:0:
256,192,94322,1,0,0:0:0:0:
256,192,94697,1,0,0:0:0:0:
256,192,94791,1,0,0:0:0:0:
256,192,94885,1,0,0:0:0:0:
256,192,95072,1,0,0:0:0:0:
256,192,95260,1,8,0:0:0:0:
256,192,95635,1,8,0:0:0:0:
256,192,95822,1,0,0:0:0:0:
256,192,96197,1,0,0:0:0:0:
256,192,96291,1,0,0:0:0:0:
256,192,96385,1,0,0:0:0:0:
256,192,96572,1,0,0:0:0:0:
256,192,96760,1,8,0:0:0:0:
256,192,97135,1,8,0:0:0:0:
256,192,97322,1,0,0:0:0:0:
256,192,97697,1,0,0:0:0:0:
256,192,97885,1,8,0:0:0:0:
256,192,98072,1,0,0:0:0:0:
256,192,98166,1,0,0:0:0:0:
256,192,98260,1,8,0:0:0:0:
256,192,98635,1,8,0:0:0:0:
256,192,99010,1,8,0:0:0:0:
256,192,99385,1,8,0:0:0:0:
256,192,99760,1,4,0:0:0:0:
256,192,100135,1,0,0:0:0:0:
256,192,100322,1,8,0:0:0:0:
256,192,100697,1,0,0:0:0:0:
256,192,100791,1,0,0:0:0:0:
256,192,100885,1,0,0:0:0:0:
256,192,101072,1,0,0:0:0:0:
256,192,101260,1,8,0:0:0:0:
256,192,101635,1,8,0:0:0:0:
256,192,101822,1,0,0:0:0:0:
256,192,102197,1,0,0:0:0:0:
256,192,102291,1,0,0:0:0:0:
256,192,102385,1,0,0:0:0:0:
256,192,102572,1,0,0:0:0:0:
256,192,102760,1,8,0:0:0:0:
256,192,103135,1,8,0:0:0:0:
256,192,103322,1,0,0:0:0:0:
256,192,103697,1,0,0:0:0:0:
256,192,103791,1,0,0:0:0:0:
256,192,103885,1,0,0:0:0:0:
256,192,104072,1,0,0:0:0:0:
256,192,104260,1,8,0:0:0:0:
256,192,104447,1,0,0:0:0:0:
256,192,104635,1,0,0:0:0:0:
256,192,105010,1,0,0:0:0:0:
256,192,105385,1,8,0:0:0:0:
256,192,105760,1,4,0:0:0:0:
256,192,106135,1,0,0:0:0:0:
256,192,106510,1,0,0:0:0:0:
256,192,106697,1,8,0:0:0:0:
256,192,106885,1,0,0:0:0:0:
256,192,107260,1,0,0:0:0:0:
256,192,107447,1,0,0:0:0:0:
256,192,107541,1,0,0:0:0:0:
256,192,107635,1,8,0:0:0:0:
256,192,107822,1,0,0:0:0:0:
256,192,108010,1,8,0:0:0:0:
