osu file format v12

[General]
AudioFilename: Hana Ranman -Flowers- (2nd EDITION).ogg
AudioLeadIn: 1500
PreviewTime: 37510
Countdown: 0
SampleSet: Soft
StackLeniency: 0.4
Mode: 0
LetterboxInBreaks: 1
WidescreenStoryboard: 1

[Editor]
DistanceSpacing: 1.1
BeatDivisor: 4
GridSize: 4

[Metadata]
Title:Hana Ranman -Flowers- (2nd Edition .Ver)
TitleUnicode:花爛漫 -Flowors- (2nd EDITION)
Artist:TERRA
ArtistUnicode:TERRA
Creator:[ Lost ]
Version:P_KunG's Beginner
Source:Reflec Beat
Tags:Reflec Beat Nichiyouki kantokun P_A_N PAN -_N_a_n_a_k_a_- Nanaka Soldsaga Kung SoldsagaKung Betsuto P_KunG PKung
BeatmapID:333476
BeatmapSetID:131600

[Difficulty]
HPDrainRate:1
CircleSize:2
OverallDifficulty:1
ApproachRate:3
SliderMultiplier:0.8
SliderTickRate:2

[Events]
//Background and Video events
0,0,"bg.png",0,0
//Break Periods
2,8460,12820
2,50460,54820
2,62460,66820
//Storyboard Layer 0 (Background)
//Storyboard Layer 1 (Fail)
//Storyboard Layer 2 (Pass)
//Storyboard Layer 3 (Foreground)
//Storyboard Sound Samples
//Background Colour Transformations
3,100,0,0,0

[TimingPoints]
-740,375,4,2,1,80,1,0
1135,-100,4,2,2,80,0,0
1228,-100,4,2,1,80,0,0
1885,-100,4,2,2,80,0,0
1978,-100,4,2,1,80,0,0
4135,-100,4,2,2,80,0,0
4228,-100,4,2,1,80,0,0
4885,-100,4,2,2,80,0,0
4978,-100,4,2,1,80,0,0
6197,-100,4,2,1,20,0,0
6385,-100,4,2,1,30,0,0
6760,-100,4,2,1,40,0,0
7135,-100,4,2,1,50,0,0
7510,-100,4,2,1,60,0,0
7885,-100,4,2,1,70,0,0
8260,-100,4,2,2,80,0,0
13885,-100,4,2,3,40,0,0
14260,-100,4,2,1,50,0,1
14353,-100,4,2,2,80,0,0
25885,-100,4,2,2,70,0,0
26260,-100,4,2,2,80,0,0
37510,-100,4,2,2,60,0,0
37885,-100,4,2,1,70,0,0
38260,-100,4,2,2,80,0,1
50260,-100,4,2,2,50,0,0
60760,-100,4,2,2,70,0,0
62260,-100,4,2,2,80,0,0
68260,-100,4,2,2,10,0,0
69760,-100,4,2,1,80,0,0
75010,-100,4,2,2,60,0,0
75760,-100,4,2,2,80,0,1
80260,-100,4,2,1,80,0,0
81760,-100,4,2,2,80,0,1
93666,-100,4,2,2,80,0,0
93760,-100,4,2,2,80,0,1
93853,-100,4,2,2,80,0,0
105760,-100,4,2,2,50,0,0
108010,-100,4,2,2,50,0,1
108103,-100,4,2,2,50,0,0

[Colours]
Combo1 : 128,255,255
Combo2 : 255,128,255
Combo3 : 170,170,255

[HitObjects]
176,52,760,2,0,P|255:42|334:51,2,160,4|2|2,0:0|0:0|0:0,0:0:0:0:
256,208,3010,1,2,0:0:0:0:
124,324,3760,6,0,P|93:298|80:261,1,80,2|0,0:0|0:0,0:0:0:0:
124,184,4510,2,0,P|154:209|167:246,1,80,2|0,0:0|0:0,0:0:0:0:
216,320,5260,5,2,0:0:0:0:
256,128,6010,1,2,0:0:0:0:
256,192,6385,12,4,8260,0:0:0:0:
120,92,14260,6,4,P|148:60|184:48,1,80,4|8,0:0|0:0,0:0:0:0:
200,136,15010,1,2,0:0:0:0:
356,56,15760,2,0,P|388:84|400:120,1,80,2|8,0:0|0:0,0:0:0:0:
312,136,16510,1,2,0:0:0:0:
388,296,17260,6,4,P|360:328|324:340,1,80,2|8,0:0|0:0,0:0:0:0:
308,252,18010,1,2,0:0:0:0:
156,328,18760,2,0,P|124:300|112:264,2,80,2|8|2,0:0|0:0|0:0,0:0:0:0:
200,248,19885,1,8,0:0:0:0:
200,160,20260,6,0,P|271:188|289:263,1,160,2|2,0:0|0:0,0:0:0:0:
360,324,21385,1,8,0:0:0:0:
383,235,21760,2,0,P|363:159|311:99,1,160,2|2,0:0|0:0,0:0:0:0:
228,72,22885,1,8,0:0:0:0:
140,68,23260,6,0,L|40:192,2,160,2|2|2,0:0|0:0|0:0,0:0:0:0:
228,72,25135,1,8,0:0:0:0:
316,72,25510,2,0,L|364:136,1,80,2|8,0:0|0:0,0:0:0:0:
432,192,26260,5,4,0:0:0:0:
364,248,26635,2,0,L|316:312,1,80,8|2,0:0|0:0,0:0:0:0:
256,248,27385,1,8,0:0:0:0:
196,312,27760,2,0,L|148:248,1,80,2|8,0:0|0:0,0:0:0:0:
72,204,28510,2,0,P|98:174|135:161,1,80,2|8,0:0|0:0,0:0:0:0:
176,84,29260,5,2,0:0:0:0:
256,120,29635,2,0,L|256:200,2,80,8|2|8,0:0|0:0|0:0,0:0:0:0:
336,84,30760,1,2,0:0:0:0:
376,161,31135,2,0,P|413:174|440:204,1,80,8|2,0:0|0:0,0:0:0:0:
364,248,31885,1,8,0:0:0:0:
332,332,32260,6,0,B|256:352|256:352|176:332,1,160,4|2,0:0|0:0,0:0:0:0:
148,248,33385,1,8,0:0:0:0:
176,164,33760,2,0,B|254:144|254:144|330:164,1,160,2|2,0:0|0:0,0:0:0:0:
364,248,34885,2,0,L|444:248,1,80,8|2,0:0|0:0,0:0:0:0:
512,192,35635,5,8,0:0:0:0:
404,52,36385,2,0,L|324:52,1,80,8|2,0:0|0:0,0:0:0:0:
220,192,37510,2,0,L|300:192,1,80,8|8,0:0|0:0,0:0:0:0:
388,192,38260,5,4,0:0:0:0:
256,308,39010,1,2,0:0:0:0:
124,192,39760,2,0,L|124:112,1,80,2|8,0:0|0:0,0:0:0:0:
212,92,40510,2,0,L|212:172,1,80,2|8,0:0|0:0,0:0:0:0:
300,160,41260,5,4,0:0:0:0:
336,332,42010,1,2,0:0:0:0:
160,344,42760,2,0,L|156:264,1,80,2|8,0:0|0:0,0:0:0:0:
148,176,43510,1,2,0:0:0:0:
88,112,43885,2,0,P|128:92|164:92,1,80,8|4,0:0|0:0,0:0:0:0:
212,20,44635,5,8,0:0:0:0:
256,96,45010,2,0,L|256:176,2,80,2|8|2,0:0|0:0|0:0,0:0:0:0:
300,20,46135,1,8,0:0:0:0:
349,91,46510,2,0,P|389:93|424:112,1,80,2|8,0:0|0:0,0:0:0:0:
368,180,47260,5,4,0:0:0:0:
328,260,47635,2,0,B|256:224|256:224|184:260,1,160,8|8,0:0|0:0,0:0:0:0:
144,180,48760,1,2,0:0:0:0:
256,44,49510,1,2,0:0:0:0:
368,180,50260,5,4,0:0:0:0:
328,108,56260,5,2,0:0:0:0:
152,108,57010,1,2,0:0:0:0:
160,284,57760,1,2,0:0:0:0:
336,284,58510,1,2,0:0:0:0:
256,192,59260,12,4,62260,0:0:0:0:
256,340,68260,6,0,B|216:288|216:196|344:180|244:28,1,320
80,32,71260,1,2,0:0:0:0:
8,192,72010,1,2,0:0:0:0:
24,280,72385,2,0,P|60:265|87:236,1,80,0|2,0:0|0:0,0:0:0:0:
256,188,73510,5,2,0:0:0:0:
372,56,74260,2,0,P|412:56|448:80,1,80,2|0,0:0|0:0,0:0:0:0:
384,140,75010,1,2,0:0:0:0:
444,204,75385,2,0,P|410:224|370:224,1,80,8|4,0:0|0:0,0:0:0:0:
284,200,76135,6,0,B|256:124|256:124|232:200,1,160,8|8,0:0|0:0,0:0:0:0:
141,224,77260,2,0,P|102:224|68:204,1,80,2|8,0:0|0:0,0:0:0:0:
128,140,78010,1,2,0:0:0:0:
68,76,78385,2,0,P|102:56|142:56,1,80,8|4,0:0|0:0,0:0:0:0:
256,192,79510,5,0,0:0:0:0:
392,80,80260,1,2,0:0:0:0:
488,228,81010,5,2,0:0:0:0:
416,280,81385,2,0,L|352:328,1,80,8|4,0:0|0:0,0:0:0:0:
304,252,82135,6,0,P|256:200|203:250,1,160,8|8,0:0|0:0,0:0:0:0:
160,328,83260,2,0,L|96:280,1,80,2|0,0:0|0:0,0:0:0:0:
128,200,84010,2,0,L|64:152,1,80,2|0,0:0|0:0,0:0:0:0:
120,84,84760,6,0,B|188:132|188:132|248:84,1,160,4|2,0:0|0:0,0:0:0:0:
320,36,85885,1,8,0:0:0:0:
368,108,86260,2,0,P|408:108|444:124,1,80,2|8,0:0|0:0,0:0:0:0:
388,192,87010,2,0,P|388:232|368:268,1,80,2|8,0:0|0:0,0:0:0:0:
304,208,87760,5,4,0:0:0:0:
128,216,88510,1,2,0:0:0:0:
128,40,89260,1,2,0:0:0:0:
304,44,90010,1,2,0:0:0:0:
391,52,90385,2,0,P|379:89|351:117,1,80,8|4,0:0|0:0,0:0:0:0:
376,203,91135,6,0,P|440:157|475:86,2,160,8|8|8,0:0|0:0|0:0,0:0:0:0:
296,244,93010,2,0,L|216:244,2,80,2|8|4,0:0|0:0|0:0,0:0:0:0:
352,320,94135,6,0,P|376:292|376:172,1,160,8|0,0:0|0:0,0:0:0:0:
292,189,95260,2,0,P|292:150|312:116,1,80,2|8,0:0|0:0,0:0:0:0:
376,48,96010,1,2,0:0:0:0:
440,116,96385,2,0,P|460:150|460:190,1,80,8|4,0:0|0:0,0:0:0:0:
440,276,97135,6,0,P|412:300|292:300,1,160,8|0,0:0|0:0,0:0:0:0:
216,340,98260,2,0,P|204:304|216:260,1,80,0|8,0:0|0:0,0:0:0:0:
104,252,99010,2,0,P|116:216|104:172,1,80,0|8,0:0|0:0,0:0:0:0:
180,112,99760,6,0,B|220:96|256:116|256:116|300:96|336:112,1,160,4|2,0:0|0:0,0:0:0:0:
300,192,100885,1,8,0:0:0:0:
332,272,101260,6,0,B|292:288|256:268|256:268|212:288|176:272,1,160,2|2,0:0|0:0,0:0:0:0:
212,192,102385,1,0,0:0:0:0:
124,192,102760,6,0,L|4:192,2,120,2|2|8,0:0|0:0|0:0,0:0:0:0:
164,112,104260,1,2,0:0:0:0:
340,112,105010,1,2,0:0:0:0:
256,192,105760,12,4,108010,0:0:0:0:
